<?xml version="1.0" standalone="no"?>
<!DOCTYPE svg PUBLIC "-//W3C//DTD SVG 1.1//EN" "http://www.w3.org/Graphics/SVG/1.1/DTD/svg11.dtd" >
<svg xmlns="http://www.w3.org/2000/svg" xmlns:xlink="http://www.w3.org/1999/xlink" version="1.1">
<metadata>
Created by FontForge 20170731 at Mon May 27 12:40:29 2019
 By Aleksey,,,
Copyright (c) 2019 by Almarai. All rights reserved.
</metadata>
<defs>
<font id="Almarai-ExtraBold" horiz-adv-x="0" >
  <font-face 
    font-family="Almarai ExtraBold"
    font-weight="800"
    font-stretch="normal"
    units-per-em="1000"
    panose-1="0 0 0 0 0 0 0 0 0 0"
    ascent="800"
    descent="-200"
    x-height="519"
    cap-height="716"
    bbox="-36 -453 2665 1108"
    underline-thickness="63"
    underline-position="-187"
    unicode-range="U+0020-FEFC"
  />
<missing-glyph horiz-adv-x="184" 
d="M18 0v716h148v-716h-148zM148 18v680h-112v-680h112z" />
    <glyph glyph-name="uniE002" unicode="&#xfedf;&#xfb51;" horiz-adv-x="666" 
d="M174 746q56 75 121 75q37 0 63 -22t26 -54q0 -38 -33 -64t-82 -26q-37 0 -93 19q-36 12 -46 12q-20 0 -57 -36l-39 30q37 75 95 75q23 0 45 -9zM234 726q31 -9 51 -9q41 0 41 25t-28 25q-31 0 -64 -41zM597 716v-592q0 -49 -34 -85q-36 -39 -90 -39h-369l-63 78v51h220
l-158 464h140l159 -464h26q7 0 12 5q3 3 3 9v573h154z" />
    <glyph glyph-name="uniE003" unicode="&#xfee0;&#xfb51;" horiz-adv-x="644" 
d="M174 746q56 75 121 75q37 0 63 -22t26 -54q0 -38 -33 -64t-82 -26q-37 0 -93 19q-36 12 -46 12q-20 0 -57 -36l-39 30q37 75 95 75q23 0 45 -9zM234 726q31 -9 51 -9q41 0 41 25t-28 25q-31 0 -64 -41zM597 716v-559q0 -18 1 -28h50v-129h-38l-37 46h-3q-19 -23 -47 -35
q-24 -11 -48 -11h-371l-63 78v51h220l-158 464h140l159 -464h26q8 0 12 4q3 6 3 10v573h154z" />
    <glyph glyph-name="uniE041" unicode="&#xfb58;&#xfbfd;" horiz-adv-x="1195" 
d="M1125 460v-336q0 -43 -28 -79q-38 -45 -96 -45h-246q-13 -129 -116 -193q-76 -46 -182 -46h-88q-126 0 -207 64q-93 73 -93 213v74l78 62h76v-117q0 -92 43 -129.5t147 -37.5q89 0 130.5 24.5t54.5 85.5h-50l-66 82v47h475q14 0 14 14v317h154zM858 -46q33 0 55.5 -23
t22.5 -56q0 -32 -22.5 -55t-55.5 -23q-32 0 -55 23t-23 55q0 33 23 56t55 23zM1036 -46q33 0 55.5 -23t22.5 -56q0 -32 -22.5 -55t-55.5 -23q-32 0 -55 23t-23 55q0 33 23 56t55 23zM947 -203q30 0 50.5 -20.5t20.5 -49.5t-20.5 -50t-50.5 -21q-29 0 -49.5 21t-20.5 50
t20.5 49.5t49.5 20.5z" />
    <glyph glyph-name="uniE042" unicode="&#xfb59;&#xfbfd;" horiz-adv-x="1172" 
d="M1125 460v-322q0 -6 1 -9h50v-129h-38l-37 47h-3q-38 -47 -97 -47h-246q-13 -132 -118 -196q-77 -43 -180 -43h-88q-124 0 -205 62q-95 74 -95 215v74l78 62h76v-117q0 -92 43.5 -129.5t146.5 -37.5q89 0 130.5 24.5t54.5 85.5h-50l-66 82v47h469q20 0 20 20v311h154z
M868 -46q33 0 55.5 -23t22.5 -56q0 -32 -22.5 -55t-55.5 -23q-32 0 -55 23t-23 55q0 33 23 56t55 23zM1047 -46q33 0 55.5 -23t22.5 -56q0 -32 -22.5 -55t-55.5 -23q-32 0 -55 23t-23 55q0 33 23 56t55 23zM959 -203q29 0 50 -20.5t21 -49.5t-21 -50t-50 -21t-50 21t-21 50
t21 49.5t50 20.5z" />
    <glyph glyph-name="uniE043" unicode="&#xfb58;&#xfef2;" horiz-adv-x="1195" 
d="M1125 460v-336q0 -43 -28 -79q-38 -45 -96 -45h-246q-13 -129 -116 -193q-76 -46 -182 -46h-88q-126 0 -207 64q-93 73 -93 213v74l78 62h76v-117q0 -92 43 -129.5t147 -37.5q89 0 130.5 24.5t54.5 85.5h-50l-66 82v47h475q14 0 14 14v317h154zM858 -46q32 0 55 -23
t23 -56q0 -32 -23 -55t-55 -23q-33 0 -55.5 23t-22.5 55q0 33 23 56t55 23zM1036 -46q32 0 55 -23t23 -56q0 -32 -23 -55t-55 -23q-33 0 -55.5 23t-22.5 55q0 33 22.5 56t55.5 23zM947 -203q30 0 50.5 -20.5t20.5 -49.5t-20.5 -50t-50.5 -21q-29 0 -49.5 21t-20.5 50
t20.5 49.5t49.5 20.5zM318 -297q32 0 55 -23t23 -56q0 -32 -23 -54.5t-55 -22.5q-33 0 -55.5 22.5t-22.5 54.5q0 33 22.5 56t55.5 23zM497 -297q32 0 55 -23t23 -56q0 -32 -23 -54.5t-55 -22.5q-33 0 -55.5 22.5t-22.5 54.5q0 33 22.5 56t55.5 23z" />
    <glyph glyph-name="uniE044" unicode="&#xfb59;&#xfef2;" horiz-adv-x="1172" 
d="M1125 460v-322q0 -6 1 -9h50v-129h-38l-37 47h-3q-38 -47 -97 -47h-246q-13 -132 -118 -196q-77 -43 -180 -43h-88q-124 0 -205 62q-95 74 -95 215v74l78 62h76v-117q0 -92 43.5 -129.5t146.5 -37.5q89 0 130.5 24.5t54.5 85.5h-50l-66 82v47h469q20 0 20 20v311h154z
M868 -46q33 0 55.5 -23t22.5 -56q0 -32 -22.5 -55t-55.5 -23q-32 0 -55 23t-23 55q0 33 23 56t55 23zM1047 -46q33 0 55.5 -23t22.5 -56q0 -32 -22.5 -55t-55.5 -23q-32 0 -55 23t-23 55q0 33 23 56t55 23zM963 -203q29 0 49.5 -20.5t20.5 -49.5t-20.5 -50t-49.5 -21
t-49.5 21t-20.5 50t20.5 49.5t49.5 20.5zM318 -297q32 0 55 -23t23 -56q0 -32 -23 -54.5t-55 -22.5q-33 0 -55.5 22.5t-22.5 54.5q0 33 22.5 56t55.5 23zM497 -297q32 0 55 -23t23 -56q0 -32 -23 -54.5t-55 -22.5q-33 0 -55.5 22.5t-22.5 54.5q0 33 22.5 56t55.5 23z" />
    <glyph glyph-name="uniE045" unicode="&#xfb58;&#xfe8a;" horiz-adv-x="1218" 
d="M105 319q-13 29 -13 51q0 45 26 73t68 28q29 0 61 -9v-63q-26 6 -38 6q-37 0 -37 -43q0 -17 7 -28q11 -15 31 -15h70v-31l-27 -33h-184v64h36zM1148 460v-336q0 -43 -28 -79q-38 -45 -96 -45h-246q-12 -129 -116 -193q-76 -46 -182 -46h-88q-126 0 -207 64
q-93 73 -93 213v74l78 62h76v-117q0 -92 43 -129.5t147 -37.5q89 0 130.5 24.5t54.5 85.5h-50l-66 82v47h475q14 0 14 14v317h154zM880 -46q33 0 55.5 -23t22.5 -56q0 -32 -22.5 -55t-55.5 -23q-32 0 -55 23t-23 55q0 33 23 56t55 23zM1059 -46q33 0 55.5 -23t22.5 -56
q0 -32 -22.5 -55t-55.5 -23q-32 0 -55 23t-23 55q0 33 23 56t55 23zM970 -203q29 0 50 -20.5t21 -49.5t-21 -50t-50 -21t-50 21t-21 50t21 49.5t50 20.5z" />
    <glyph glyph-name="uniE046" unicode="&#xfb59;&#xfe8a;" horiz-adv-x="1195" 
d="M105 319q-13 29 -13 51q0 45 26 73t68 28q29 0 61 -9v-63q-26 6 -38 6q-37 0 -37 -43q0 -17 7 -28q11 -15 31 -15h70v-31l-27 -33h-184v64h36zM1148 460v-322q0 -6 1 -9h50v-129h-38l-37 47h-3q-38 -47 -97 -47h-246q-13 -132 -118 -196q-77 -43 -180 -43h-88
q-124 0 -205 62q-95 74 -95 215v74l78 62h76v-117q0 -92 43.5 -129.5t146.5 -37.5q89 0 130.5 24.5t54.5 85.5h-50l-66 82v47h469q20 0 20 20v311h154zM891 -46q33 0 55.5 -23t22.5 -56q0 -32 -22.5 -55t-55.5 -23q-32 0 -55 23t-23 55q0 33 23 56t55 23zM1070 -46
q33 0 55.5 -23t22.5 -56q0 -32 -22.5 -55t-55.5 -23q-32 0 -55 23t-23 55q0 33 23 56t55 23zM981 -203q29 0 49.5 -20.5t20.5 -49.5t-20.5 -50t-49.5 -21t-50 21t-21 50q0 30 20.5 50t50.5 20z" />
    <glyph glyph-name="uniE047" unicode="&#xfb90;&#xfe8a;" horiz-adv-x="1050" 
d="M935 731v-145l-172 -108q85 -40 143 -111q83 -99 89 -243q0 -53 -39 -90q-36 -34 -85 -34h-98q-13 -122 -105 -186q-80 -53 -193 -53h-88q-151 0 -233 87q-68 73 -68 190v74l78 62h77v-117q0 -93 42.5 -130t146.5 -37q89 0 130.5 24.5t55.5 85.5h-51l-66 82v47h327
q3 0 9 4q5 4 5 11q-5 64 -61 132q-82 91 -211 102q-9 1 -9 10v125zM105 319q-13 29 -13 51q0 45 26 73t68 28q29 0 61 -9v-63q-26 6 -38 6q-37 0 -37 -43q0 -17 7 -28q11 -15 31 -15h70v-31l-27 -33h-184v64h36z" />
    <glyph glyph-name="uniE048" unicode="&#xfb91;&#xfe8a;" horiz-adv-x="1030" 
d="M941 730v-144l-172 -109q95 -45 157 -129q72 -98 75 -210v-5q1 -2 1 -4h31v-129h-19l-37 47h-3q-38 -47 -97 -47h-99q-11 -119 -99 -181q-80 -58 -199 -58h-88q-116 0 -195 54q-105 74 -105 223v74l78 62h76v-117q0 -92 43 -129.5t147 -37.5q89 0 130.5 24.5t54.5 85.5
h-50l-66 82v47h326q15 0 15 13q0 65 -61 133q-86 93 -211 103q-9 1 -9 9v125zM105 319q-13 29 -13 51q0 45 26 73t68 28q29 0 61 -9v-63q-26 6 -38 6q-37 0 -37 -43q0 -17 7 -28q11 -15 31 -15h70v-31l-27 -33h-184v64h36z" />
    <glyph glyph-name="uniE049" unicode="&#xfb94;&#xfef0;" horiz-adv-x="1033" 
d="M542 656l376 218v-95l-376 -217v94zM918 731v-145l-172 -108q69 -35 128 -95q98 -104 104 -259q0 -53 -39 -90q-37 -34 -86 -34h-98q-11 -121 -105 -186q-79 -53 -193 -53h-88q-150 0 -232 87q-68 72 -68 190v74l78 62h76v-117q0 -93 42.5 -130t147.5 -37q89 0 130 24.5
t55 85.5h-50l-66 82v47h326q15 0 15 15q0 65 -66 136q-82 87 -207 98q-8 1 -8 10v125z" />
    <glyph glyph-name="uniE04A" unicode="&#xfb95;&#xfef0;" horiz-adv-x="1007" 
d="M542 656l376 218v-95l-376 -217v94zM918 730v-144l-172 -109q96 -46 157 -129q65 -87 75 -211v-4q1 -2 1 -4h31v-129h-19l-37 47h-3q-38 -47 -97 -47h-99q-11 -119 -99 -181q-80 -58 -199 -58h-88q-116 0 -195 54q-105 74 -105 223v74l78 62h76v-117q0 -92 43 -129.5
t147 -37.5q89 0 130.5 24.5t54.5 85.5h-50l-66 82v47h326q15 0 15 15q0 63 -61 131q-86 93 -212 103q-8 1 -8 9v125z" />
    <glyph glyph-name="uniE04B" unicode="&#xfb94;&#xfef2;" horiz-adv-x="1033" 
d="M542 656l376 218v-95l-376 -217v94zM918 731v-145l-172 -108q69 -35 128 -95q98 -104 104 -259q0 -53 -39 -90q-37 -34 -86 -34h-98q-11 -121 -105 -186q-79 -53 -193 -53h-88q-150 0 -232 87q-68 72 -68 190v74l78 62h76v-117q0 -93 42.5 -130t147.5 -37q89 0 130 24.5
t55 85.5h-50l-66 82v47h326q15 0 15 15q0 65 -66 136q-82 87 -207 98q-8 1 -8 10v125zM318 -297q32 0 55 -23t23 -56q0 -32 -23 -54.5t-55 -22.5q-33 0 -55.5 22.5t-22.5 54.5q0 33 22.5 56t55.5 23zM497 -297q32 0 55 -23t23 -56q0 -32 -23 -54.5t-55 -22.5
q-33 0 -55.5 22.5t-22.5 54.5q0 33 22.5 56t55.5 23z" />
    <glyph glyph-name="uniE04C" unicode="&#xfb95;&#xfef2;" horiz-adv-x="1007" 
d="M542 656l376 218v-95l-376 -217v94zM918 730v-144l-172 -109q96 -46 157 -129q65 -87 75 -211v-4q1 -2 1 -4h31v-129h-19l-37 47h-3q-38 -47 -97 -47h-99q-11 -119 -99 -181q-80 -58 -199 -58h-88q-116 0 -195 54q-105 74 -105 223v74l78 62h76v-117q0 -92 43 -129.5
t147 -37.5q89 0 130.5 24.5t54.5 85.5h-50l-66 82v47h326q15 0 15 15q0 63 -61 131q-86 93 -212 103q-8 1 -8 9v125zM318 -297q32 0 55 -23t23 -56q0 -32 -23 -54.5t-55 -22.5q-33 0 -55.5 22.5t-22.5 54.5q0 33 22.5 56t55.5 23zM497 -297q32 0 55 -23t23 -56
q0 -32 -23 -54.5t-55 -22.5q-33 0 -55.5 22.5t-22.5 54.5q0 33 22.5 56t55.5 23z" />
    <glyph glyph-name="uniE04D" unicode="&#xfb94;&#xfe8a;" horiz-adv-x="1056" 
d="M565 656l376 218v-95l-376 -217v94zM941 731v-145l-172 -108q69 -35 128 -95q98 -104 104 -259q0 -53 -38 -90q-38 -34 -87 -34h-98q-11 -121 -105 -186q-79 -53 -193 -53h-88q-150 0 -232 87q-68 72 -68 190v74l78 62h76v-117q0 -93 42.5 -130t147.5 -37q89 0 130 24.5
t55 85.5h-50l-66 82v47h326q15 0 15 15q0 65 -66 136q-82 87 -206 98q-9 1 -9 10v125zM105 319q-13 29 -13 51q0 45 26 73t68 28q29 0 61 -9v-63q-26 6 -38 6q-37 0 -37 -43q0 -17 7 -28q11 -15 31 -15h70v-31l-27 -33h-184v64h36z" />
    <glyph glyph-name="uniE04E" unicode="&#xfb95;&#xfe8a;" horiz-adv-x="1030" 
d="M565 656l376 218v-95l-376 -217v94zM941 730v-144l-172 -109q96 -46 157 -129q65 -87 75 -211v-4q1 -2 1 -4h31v-129h-19l-37 47h-3q-38 -47 -97 -47h-99q-11 -119 -99 -181q-80 -58 -199 -58h-88q-116 0 -195 54q-105 74 -105 223v74l78 62h76v-117q0 -92 43 -129.5
t147 -37.5q89 0 130.5 24.5t54.5 85.5h-50l-66 82v47h326q15 0 15 15q0 63 -61 131q-86 93 -211 103q-9 1 -9 9v125zM105 319q-13 29 -13 51q0 45 26 73t68 28q29 0 61 -9v-63q-26 6 -38 6q-37 0 -37 -43q0 -17 7 -28q11 -15 31 -15h70v-31l-27 -33h-184v64h36z" />
    <glyph glyph-name="uniE051" unicode="&#xfbfe;&#xfe8a;" horiz-adv-x="1218" 
d="M105 319q-13 29 -13 51q0 45 26 73t68 28q29 0 61 -9v-63q-26 6 -38 6q-37 0 -37 -43q0 -17 7 -28q11 -15 31 -15h70v-31l-27 -33h-184v64h36zM1148 460v-336q0 -43 -28 -79q-38 -45 -96 -45h-246q-12 -129 -116 -193q-76 -46 -182 -46h-88q-126 0 -207 64
q-93 73 -93 213v74l78 62h76v-117q0 -92 43 -129.5t147 -37.5q89 0 130.5 24.5t54.5 85.5h-50l-66 82v47h475q14 0 14 14v317h154zM880 -46q32 0 55 -23t23 -56q0 -32 -23 -55t-55 -23q-33 0 -55.5 23t-22.5 55q0 33 22.5 56t55.5 23zM1059 -46q32 0 55 -23t23 -56
q0 -32 -23 -55t-55 -23q-33 0 -55.5 23t-22.5 55q0 33 22.5 56t55.5 23z" />
    <glyph glyph-name="uniE052" unicode="&#xfbff;&#xfe8a;" horiz-adv-x="1195" 
d="M105 319q-13 29 -13 51q0 45 26 73t68 28q29 0 61 -9v-63q-26 6 -38 6q-37 0 -37 -43q0 -17 7 -28q11 -15 31 -15h70v-31l-27 -33h-184v64h36zM1148 460v-322q0 -6 1 -9h50v-129h-38l-37 47h-3q-38 -47 -97 -47h-246q-13 -132 -118 -196q-77 -43 -180 -43h-88
q-124 0 -205 62q-95 74 -95 215v74l78 62h76v-117q0 -92 43.5 -129.5t146.5 -37.5q89 0 130.5 24.5t54.5 85.5h-50l-66 82v47h469q20 0 20 20v311h154zM891 -46q33 0 55.5 -23t22.5 -56q0 -32 -22.5 -55t-55.5 -23q-32 0 -55 23t-23 55q0 33 23 56t55 23zM1070 -46
q33 0 55.5 -23t22.5 -56q0 -32 -22.5 -55t-55.5 -23q-32 0 -55 23t-23 55q0 33 23 56t55 23z" />
    <glyph glyph-name="uniFC3D" unicode="&#xfb90;&#xfef0;" horiz-adv-x="1037" arabic-form="isolated" 
d="M918 731v-145l-172 -108q79 -39 134 -97q95 -102 101 -257q0 -52 -37 -89q-36 -35 -87 -35h-102q-11 -121 -105 -186q-79 -53 -193 -53h-88q-150 0 -232 87q-68 72 -68 190v74l78 62h76v-117q0 -93 42.5 -130t147.5 -37q89 0 130 24.5t55 85.5h-50l-66 82v47h330
q14 0 14 15q0 78 -74 149q-83 76 -202 85q-8 1 -8 10v125z" />
    <glyph glyph-name="uniFC3E" unicode="&#xfb90;&#xfef2;" horiz-adv-x="1037" arabic-form="isolated" 
d="M918 731v-145l-172 -108q79 -39 134 -97q95 -102 101 -257q0 -52 -37 -89q-36 -35 -87 -35h-102q-11 -121 -105 -186q-79 -53 -193 -53h-88q-150 0 -232 87q-68 72 -68 190v74l78 62h76v-117q0 -93 42.5 -130t147.5 -37q89 0 130 24.5t55 85.5h-50l-66 82v47h330
q14 0 14 15q0 78 -74 149q-83 76 -202 85q-8 1 -8 10v125zM318 -297q32 0 55 -23t23 -56q0 -32 -23 -54.5t-55 -22.5q-33 0 -55.5 22.5t-22.5 54.5q0 33 22.5 56t55.5 23zM497 -297q32 0 55 -23t23 -56q0 -32 -23 -54.5t-55 -22.5q-33 0 -55.5 22.5t-22.5 54.5q0 33 22.5 56
t55.5 23z" />
    <glyph glyph-name="uniFC59" unicode="&#xfbfe;&#xfbfd;" horiz-adv-x="1195" arabic-form="isolated" 
d="M1125 460v-336q0 -43 -28 -79q-38 -45 -96 -45h-246q-13 -129 -116 -193q-76 -46 -182 -46h-88q-126 0 -207 64q-93 73 -93 213v74l78 62h76v-117q0 -92 43 -129.5t147 -37.5q89 0 130.5 24.5t54.5 85.5h-50l-66 82v47h475q14 0 14 14v317h154zM858 -46q32 0 55 -23
t23 -56q0 -32 -23 -55t-55 -23q-33 0 -55.5 23t-22.5 55q0 33 23 56t55 23zM1036 -46q32 0 55 -23t23 -56q0 -32 -23 -55t-55 -23q-33 0 -55.5 23t-22.5 55q0 33 22.5 56t55.5 23z" />
    <glyph glyph-name="uniFC5A" unicode="&#xfef3;&#xfef2;" horiz-adv-x="1200" arabic-form="isolated" 
d="M1125 460v-336q0 -43 -28 -79q-38 -45 -96 -45h-246q-13 -129 -116 -193q-76 -46 -182 -46h-88q-126 0 -207 64q-93 73 -93 213v74l78 62h76v-117q0 -92 43 -129.5t147 -37.5q89 0 130.5 24.5t54.5 85.5h-50l-66 82v47h475q14 0 14 14v317h154zM858 -46q32 0 55 -23
t23 -56q0 -32 -23 -55t-55 -23q-33 0 -55.5 23t-22.5 55q0 33 23 56t55 23zM1036 -46q32 0 55 -23t23 -56q0 -32 -23 -55t-55 -23q-33 0 -55.5 23t-22.5 55q0 33 22.5 56t55.5 23zM318 -297q32 0 55 -23t23 -56q0 -32 -23 -54.5t-55 -22.5q-33 0 -55.5 22.5t-22.5 54.5
q0 33 22.5 56t55.5 23zM497 -297q32 0 55 -23t23 -56q0 -32 -23 -54.5t-55 -22.5q-33 0 -55.5 22.5t-22.5 54.5q0 33 22.5 56t55.5 23z" />
    <glyph glyph-name="uniFC83" unicode="&#xfb91;&#xfef0;" horiz-adv-x="1010" arabic-form="final" 
d="M918 730v-144l-172 -109q104 -49 164 -133q57 -78 69 -177q2 -10 3 -38h32v-129h-20l-37 47h-3q-38 -47 -97 -47h-102q-11 -119 -99 -181q-80 -58 -199 -58h-88q-116 0 -195 54q-105 74 -105 223v74l78 62h76v-117q0 -92 43 -129.5t147 -37.5q89 0 130.5 24.5t54.5 85.5
h-50l-66 82v47h330q14 0 14 15q0 61 -55 126q-84 98 -221 108q-8 1 -8 9v125z" />
    <glyph glyph-name="uniFC84" unicode="&#xfb91;&#xfef2;" horiz-adv-x="1010" arabic-form="final" 
d="M918 730v-144l-172 -109q104 -49 164 -133q57 -78 69 -177q1 -4 2 -27q1 -9 1 -11h32v-129h-20l-37 47h-3q-38 -47 -97 -47h-102q-11 -119 -99 -181q-80 -58 -199 -58h-88q-116 0 -195 54q-105 74 -105 223v74l78 62h76v-117q0 -92 43 -129.5t147 -37.5q89 0 130.5 24.5
t54.5 85.5h-50l-66 82v47h330q14 0 14 15q0 63 -57 129q-82 94 -219 105q-8 1 -8 9v125zM318 -297q32 0 55 -23t23 -56q0 -32 -23 -54.5t-55 -22.5q-33 0 -55.5 22.5t-22.5 54.5q0 33 22.5 56t55.5 23zM497 -297q32 0 55 -23t23 -56q0 -32 -23 -54.5t-55 -22.5
q-33 0 -55.5 22.5t-22.5 54.5q0 33 22.5 56t55.5 23z" />
    <glyph glyph-name="uniFC95" unicode="&#xfbff;&#xfbfd;" horiz-adv-x="1172" arabic-form="final" 
d="M1125 460v-322q0 -6 1 -9h50v-129h-38l-37 47h-3q-38 -47 -97 -47h-246q-13 -132 -118 -196q-77 -43 -180 -43h-88q-124 0 -205 62q-95 74 -95 215v74l78 62h76v-117q0 -92 43.5 -129.5t146.5 -37.5q89 0 130.5 24.5t54.5 85.5h-50l-66 82v47h469q20 0 20 20v311h154z
M868 -46q33 0 55.5 -23t22.5 -56q0 -32 -22.5 -55t-55.5 -23q-32 0 -55 23t-23 55q0 33 23 56t55 23zM1047 -46q33 0 55.5 -23t22.5 -56q0 -32 -22.5 -55t-55.5 -23q-32 0 -55 23t-23 55q0 33 23 56t55 23z" />
    <glyph glyph-name="uniFC96" unicode="&#xfef4;&#xfef2;" horiz-adv-x="1172" arabic-form="final" 
d="M1125 460v-322q0 -6 1 -9h50v-129h-38l-37 47h-3q-38 -47 -97 -47h-246q-13 -132 -118 -196q-77 -43 -180 -43h-88q-124 0 -205 62q-95 74 -95 215v74l78 62h76v-117q0 -92 43.5 -129.5t146.5 -37.5q89 0 130.5 24.5t54.5 85.5h-50l-66 82v47h469q20 0 20 20v311h154z
M868 -46q33 0 55.5 -23t22.5 -56q0 -32 -22.5 -55t-55.5 -23q-32 0 -55 23t-23 55q0 33 23 56t55 23zM1047 -46q33 0 55.5 -23t22.5 -56q0 -32 -22.5 -55t-55.5 -23q-32 0 -55 23t-23 55q0 33 23 56t55 23zM318 -297q32 0 55 -23t23 -56q0 -32 -23 -54.5t-55 -22.5
q-33 0 -55.5 22.5t-22.5 54.5q0 33 22.5 56t55.5 23zM497 -297q32 0 55 -23t23 -56q0 -32 -23 -54.5t-55 -22.5q-33 0 -55.5 22.5t-22.5 54.5q0 33 22.5 56t55.5 23z" />
    <glyph glyph-name="uniFDF2" unicode="&#x627;&#xfedf;&#xfee0;&#x650;&#xfeea;" horiz-adv-x="1572" arabic-form="isolated" 
d="M790 1108v-182l-32 -27h-32v209h64zM909 861v-125q0 -17 -12 -33q-15 -18 -39 -18h-58l-19 20h-1q-6 -7 -15 -13q-12 -7 -27 -7h-77q-24 0 -39 18q-12 18 -12 33v75l32 26h32v-94q0 -3 2 -4q2 -2 5 -2h38q5 0 6 2q3 2 3 7v91h64v-100h46q2 0 5 1h1q1 2 1 5v118h64z
M1503 762v-724l-78 -63h-77v787h155zM1212 613v-489q0 -47 -31 -82q-38 -42 -93 -42h-214l-42 47h-3q-19 -25 -47 -36q-23 -11 -50 -11h-260q-51 0 -93 40q-48 -49 -124 -49q-98 0 -155 83q-45 66 -45 155q0 116 72 183q63 59 163 59q50 0 93 -16l41 33h77v-345q0 -7 4 -10
q4 -4 12 -4h171q5 0 8 2q6 4 6 12v470h154v-439q0 -30 1 -45h187q9 0 12 7q2 4 2 7v470h154zM346 336q-26 6 -45 6q-43 0 -68.5 -30.5t-25.5 -82.5q0 -51 27 -82.5t72 -31.5q18 0 40 5v216z" />
    <glyph glyph-name="uniFDFC" unicode="&#x631;&#xfef3;&#xfe8e;&#x644;" horiz-adv-x="1886" arabic-form="isolated" 
d="M757 716v-678q0 -120 -69 -193q-84 -84 -231 -84h-88q-139 0 -221 76q-79 75 -79 201v153l78 62h76v-196q0 -92 42.5 -129.5t147.5 -37.5q104 0 146 36q44 38 44 131v659h154zM1044 716v-573q0 -4 1 -7q4 -7 13 -7h195q4 0 9 3q4 4 4 11v317h154v-336q0 -45 -28 -79
q-38 -45 -95 -45h-283q-50 0 -87 35q-37 37 -37 89v592h154zM1817 460v-422q0 -136 -87 -208q-51 -43 -122 -60q-35 -8 -77 -8l-26 2l-64 79v53q3 -1 11 -2q26 -5 46 -5q83 2 123 42q42 39 42 125v404h154zM1065 -46q32 0 54.5 -23t22.5 -56q0 -32 -22.5 -55t-54.5 -23
q-33 0 -56 23t-23 55q0 33 23 56t56 23zM1244 -46q32 0 55 -23t23 -56q0 -32 -23 -55t-55 -23q-33 0 -56 23t-23 55q0 33 23 56t56 23z" />
    <glyph glyph-name="uniFEF5" unicode="&#xfedf;&#xfe82;" horiz-adv-x="660" arabic-form="isolated" 
d="M28 687q37 75 95 75q28 0 76 -23q6 -3 10 -4q26 -13 41 -13q25 0 50 36l45 -34q-46 -68 -105 -68q-36 0 -79 23q-25 14 -37 14q-20 0 -57 -36zM591 716v-592q0 -49 -34 -85q-37 -39 -90 -39h-369l-63 78v51h220l-158 464h141l158 -464h27q6 0 11 5q3 3 3 9v573h154z" />
    <glyph glyph-name="uniFEF6" unicode="&#xfee0;&#xfe82;" horiz-adv-x="638" arabic-form="final" 
d="M28 687q37 75 95 75q28 0 76 -23q6 -3 10 -4q26 -13 41 -13q25 0 50 36l45 -34q-46 -68 -105 -68q-36 0 -79 23q-25 14 -37 14q-20 0 -57 -36zM591 716v-559q0 -10 1 -28h50v-129h-38l-37 46h-3q-18 -23 -47 -35q-24 -11 -48 -11h-371l-63 78v51h220l-158 464h141
l158 -464h27q7 0 11 4q3 6 3 10v573h154z" />
    <glyph glyph-name="uniFEF7" unicode="&#xfedf;&#xfe84;" horiz-adv-x="660" arabic-form="isolated" 
d="M96 720q-13 29 -13 51q0 45 26 73t67 28q29 0 62 -9v-63q-25 7 -38 7q-37 0 -37 -43q0 -18 8 -29q10 -15 30 -15h70v-30l-27 -34h-184v64h36zM591 716v-592q0 -49 -34 -85q-36 -39 -90 -39h-369l-63 78v51h220l-158 464h141l158 -464h27q6 0 11 5q3 3 3 9v573h154z" />
    <glyph glyph-name="uniFEF8" unicode="&#xfee0;&#xfe84;" horiz-adv-x="638" arabic-form="final" 
d="M95 720q-13 29 -13 51q0 45 26 73t67 28q29 0 62 -9v-63q-25 7 -38 7q-37 0 -37 -43q0 -18 8 -29q10 -15 30 -15h70v-30l-27 -34h-184v64h36zM590 716v-559q0 -9 1 -28h50v-129h-38l-37 46h-3q-18 -23 -47 -35q-24 -11 -48 -11h-371l-63 78v51h220l-158 464h141l158 -464
h27q7 0 11 4q3 6 3 10v573h154z" />
    <glyph glyph-name="uniFEF9" unicode="&#xfedf;&#xfe88;" horiz-adv-x="660" arabic-form="isolated" 
d="M591 716v-592q0 -49 -34 -85q-36 -39 -90 -39h-369l-63 78v51h220l-158 464h141l158 -464h27q6 0 11 5q3 3 3 9v573h154zM308 -237q-13 29 -13 52q0 44 26 72t67 28q29 0 62 -9v-63q-24 7 -37 7q-38 0 -38 -43q0 -19 8 -29q9 -15 30 -15h70v-30l-27 -34h-184v64h36z" />
    <glyph glyph-name="uniFEFA" unicode="&#xfee0;&#xfe88;" horiz-adv-x="638" arabic-form="final" 
d="M591 716v-559q0 -9 1 -28h50v-129h-38l-37 47h-3q-18 -24 -47 -36q-24 -11 -48 -11h-371l-63 78v51h220l-158 464h141l158 -464h27q7 0 11 4q3 6 3 10v573h154zM308 -237q-13 29 -13 52q0 44 26 72t67 28q29 0 62 -9v-63q-24 7 -37 7q-38 0 -38 -43q0 -19 8 -29
q9 -15 30 -15h70v-30l-27 -34h-184v64h36z" />
    <glyph glyph-name="uniFEFB" unicode="&#xfedf;&#xfe8e;" horiz-adv-x="660" arabic-form="isolated" 
d="M591 716v-592q0 -49 -34 -85q-36 -39 -90 -39h-369l-63 78v51h220l-158 464h141l158 -464h27q6 0 11 5q3 3 3 9v573h154z" />
    <glyph glyph-name="uniFEFC" unicode="&#xfee0;&#xfe8e;" horiz-adv-x="638" arabic-form="final" 
d="M590 716v-559q0 -9 1 -28h50v-129h-38l-37 46h-3q-18 -23 -47 -35q-24 -11 -48 -11h-371l-63 78v51h220l-158 464h141l158 -464h27q7 0 11 4q3 6 3 10v573h154z" />
    <glyph glyph-name="uniFB51" unicode="&#x671;" horiz-adv-x="270" arabic-form="final" 
d="M104 886q56 75 121 75q37 0 63 -22t26 -54q0 -39 -33 -64.5t-83 -25.5q-37 0 -91 18q-37 13 -47 13q-19 0 -57 -36l-39 30q37 75 96 75q22 0 44 -9zM164 866q30 -10 51 -10q41 0 41 26q0 25 -28 25q-31 0 -64 -41zM223 716v-573q0 -2 1 -6q0 -1 1 -1q3 -7 12 -7h37v-129
h-81q-49 0 -86 35q-38 37 -38 89v592h154z" />
    <glyph glyph-name="uniFB57" unicode="&#x67e;" horiz-adv-x="981" arabic-form="final" 
d="M934 460v-322q0 -4 1 -9h50v-129h-33l-42 46h-3q-38 -46 -97 -46h-550q-69 0 -121 44q-70 58 -70 150v131l78 63h76v-194q0 -31 22 -50q17 -15 39 -15h476q10 0 16 7q4 6 4 13v311h154zM413 -46q32 0 55 -23t23 -55q0 -33 -23 -56t-55 -23q-33 0 -55.5 23t-22.5 56
q0 32 22.5 55t55.5 23zM591 -46q32 0 55 -23t23 -55q0 -33 -23 -56t-55 -23t-55 23t-23 56q0 32 22.5 55t55.5 23zM502 -203q29 0 50 -20.5t21 -49.5t-21 -49.5t-50 -20.5t-50 20.5t-21 49.5t21 49.5t50 20.5z" />
    <glyph glyph-name="uniFB58" unicode="&#x67e;" horiz-adv-x="399" arabic-form="initial" 
d="M330 460v-336q0 -44 -28 -79q-39 -45 -96 -45h-209v129h165q6 0 10 3q4 4 4 11v317h154zM65 -46q33 0 56 -23t23 -56q0 -32 -23 -55t-56 -23q-32 0 -55 23t-23 55q0 33 23 56t55 23zM243 -46q33 0 55.5 -23t22.5 -56q0 -32 -22.5 -55t-55.5 -23q-32 0 -55 23t-23 55
q0 33 23 56t55 23zM154 -203q29 0 50 -20.5t21 -49.5t-21 -50t-50 -21t-49.5 21t-20.5 50t20.5 49.5t49.5 20.5z" />
    <glyph glyph-name="uniFB59" unicode="&#x67e;" horiz-adv-x="377" arabic-form="medial" 
d="M330 460v-322q0 -4 1 -9h50v-129h-31l-44 46h-3q-37 -46 -97 -46h-210v129h160q10 0 15 6q5 5 5 14v311h154zM74 -46q33 0 56 -23t23 -56q0 -32 -23 -55t-56 -23q-32 0 -55 23t-23 55q0 33 23 56t55 23zM252 -46q33 0 55.5 -23t22.5 -56q0 -32 -22.5 -55t-55.5 -23
q-32 0 -55 23t-23 55q0 33 23 56t55 23zM163 -203q29 0 50 -20.5t21 -49.5t-21 -50t-50 -21t-49.5 21t-20.5 50t20.5 49.5t49.5 20.5z" />
    <glyph glyph-name="uniFB67" unicode="&#x679;" horiz-adv-x="981" arabic-form="final" 
d="M460 640l-1 -114q42 59 114 59q46 0 73 -26t27 -70v-46q0 -23 -17 -39q-16 -16 -38 -16h-267v64h28v188h81zM603 493q0 17 -11 26q-9 9 -24 9q-27 0 -55 -20q-30 -21 -52 -56h135q7 0 7 7v34zM934 460v-322q0 -4 1 -9h50v-129h-33l-42 46h-3q-38 -46 -97 -46h-550
q-69 0 -121 44q-70 58 -70 150v131l78 63h76v-194q0 -31 22 -50q17 -15 39 -15h476q10 0 16 7q4 6 4 13v311h154z" />
    <glyph glyph-name="uniFB68" unicode="&#x679;" horiz-adv-x="399" arabic-form="initial" 
d="M114 777v-114q41 58 115 58q45 0 71.5 -26t26.5 -70v-45q0 -23 -17 -40q-16 -16 -37 -16h-267v64h27v189h81zM257 630q0 34 -36 34q-56 0 -105 -76h134q7 0 7 7v35zM330 460v-336q0 -44 -29 -79q-38 -45 -96 -45h-209v129h165q6 0 10 3q5 4 5 11v317h154z" />
    <glyph glyph-name="uniFB69" unicode="&#x679;" horiz-adv-x="377" arabic-form="medial" 
d="M114 777v-114q41 58 115 58q45 0 71.5 -26t26.5 -70v-45q0 -23 -17 -40q-16 -16 -37 -16h-267v64h27v189h81zM257 630q0 34 -36 34q-56 0 -105 -76h134q7 0 7 7v35zM330 460v-322q0 -4 1 -9h49v-129h-31l-44 46h-2q-38 -46 -98 -46h-209v129h160q9 0 14 6q6 5 6 14v311
h154z" />
    <glyph glyph-name="uniFB6B" unicode="&#x6a4;" horiz-adv-x="1035" arabic-form="final" 
d="M799 821q30 0 50.5 -20.5t20.5 -50.5q0 -29 -21 -49.5t-50 -20.5t-49.5 20.5t-20.5 49.5q0 30 20.5 50.5t49.5 20.5zM710 680q33 0 55.5 -22.5t22.5 -55.5t-22.5 -55.5t-55.5 -22.5q-32 0 -55 23t-23 55q0 33 23 55.5t55 22.5zM888 680q33 0 55.5 -23t22.5 -55t-22.5 -55
t-55.5 -23q-32 0 -55 23t-23 55q0 33 23 55.5t55 22.5zM602 129q-29 60 -29 123q0 97 67 160q65 60 160 60q99 0 164 -66q62 -62 62 -154q0 -66 -29 -123h42v-129h-144q-62 0 -93 18h-6q-31 -18 -94 -18h-405q-81 0 -138 59q-53 56 -53 135v131l78 63h76v-194q0 -25 15 -43
q18 -22 46 -22h281zM799 131q74 16 74 107q0 40 -16 70q-23 35 -58 35q-32 0 -53 -29q-22 -30 -22 -76q0 -92 75 -107z" />
    <glyph glyph-name="uniFB6C" unicode="&#x6a4;" horiz-adv-x="650" arabic-form="initial" 
d="M383 821q29 0 50 -20.5t21 -50.5q0 -29 -21 -49.5t-50 -20.5t-49.5 20.5t-20.5 49.5q0 30 20.5 50.5t49.5 20.5zM294 680q33 0 55.5 -22.5t22.5 -55.5q0 -32 -22.5 -55t-55.5 -23q-32 0 -55 23t-23 55t23 55t55 23zM472 680q33 0 55.5 -23t22.5 -55t-23 -55t-55 -23
t-55 23t-23 55q0 33 22.5 55.5t55.5 22.5zM177 129q-12 29 -18 53q-9 33 -9 70q0 73 39 127q68 93 194 93q90 0 148 -49q63 -53 63 -138v-161q0 -44 -28 -79q-38 -45 -96 -45h-474v129h181zM440 284q0 31 -24 48q-16 11 -33 11q-49 0 -70 -45q-11 -25 -11 -60q0 -67 41 -95
q24 -14 62 -14h21q14 0 14 14v141z" />
    <glyph glyph-name="uniFB6D" unicode="&#x6a4;" horiz-adv-x="624" arabic-form="medial" 
d="M375 821q30 0 50.5 -20.5t20.5 -50.5q0 -29 -21 -49.5t-50 -20.5t-49.5 20.5t-20.5 49.5q0 30 20.5 50.5t49.5 20.5zM286 680q33 0 55.5 -22.5t22.5 -55.5q0 -32 -22.5 -55t-55.5 -23q-32 0 -55 23t-23 55t23 55t55 23zM464 680q33 0 55.5 -23t22.5 -55t-22.5 -55
t-55.5 -23q-32 0 -55 23t-23 55q0 33 23 55.5t55 22.5zM179 129q-29 58 -29 123q0 60 27 110q30 51 83 80.5t117 29.5q96 0 162 -64q65 -63 65 -156q0 -66 -29 -123h53v-129h-156q-62 0 -93 18h-6q-31 -18 -94 -18h-283v129h183zM376 131q75 15 75 107q-1 46 -21.5 75.5
t-53.5 29.5q-32 0 -53 -30t-21 -75q0 -91 74 -107z" />
    <glyph glyph-name="uniFB7B" unicode="&#x686;" horiz-adv-x="689" arabic-form="final" 
d="M209 443q100 29 174 29q119 0 201 -75q76 -70 76 -171v-39v-58h32v-129h-37l-20 46h-2q-16 -19 -41 -32q-27 -14 -73 -14h-185q-62 -4 -89 -27q-36 -30 -36 -94q0 -59 35.5 -97t91.5 -38q13 0 26 3v-43l-67 -82q-100 0 -161 62q-79 77 -79 193q0 131 83 194q78 58 208 58
h145q15 0 15 14v66q0 56 -46.5 94t-113.5 38q-50 0 -137 -21v123zM393 -46q33 0 56 -23t23 -55q0 -33 -23 -55.5t-56 -22.5q-32 0 -54.5 22.5t-22.5 55.5q0 32 22.5 55t54.5 23zM571 -46q33 0 55.5 -23t22.5 -55q0 -33 -22.5 -55.5t-55.5 -22.5q-32 0 -55 22.5t-23 55.5
q0 32 23 55t55 23zM483 -202q29 0 49.5 -21t20.5 -50t-20.5 -49.5t-49.5 -20.5q-30 0 -50.5 20.5t-20.5 49.5t20.5 50t50.5 21z" />
    <glyph glyph-name="uniFB7C" unicode="&#x686;" horiz-adv-x="636" arabic-form="initial" 
d="M129 443q100 29 173 29q120 0 203 -75q76 -70 76 -171v-102q0 -51 -36 -87q-37 -37 -89 -37h-460v129h416q14 0 14 14v66q0 66 -57 103q-45 29 -104 29q-55 0 -136 -21v123zM199 -46q33 0 56 -23t23 -55q0 -33 -23 -56t-56 -23q-32 0 -54.5 23t-22.5 56q0 32 22.5 55
t54.5 23zM378 -46q32 0 54.5 -23t22.5 -55q0 -33 -22.5 -56t-54.5 -23q-33 0 -56 23t-23 56q0 32 23 55t56 23zM289 -203q29 0 49.5 -20.5t20.5 -49.5t-20.5 -49.5t-49.5 -20.5q-30 0 -50.5 20.5t-20.5 49.5t20.5 49.5t50.5 20.5z" />
    <glyph glyph-name="uniFB7D" unicode="&#x686;" horiz-adv-x="609" arabic-form="medial" 
d="M129 443q95 29 175 29q119 0 201 -75q76 -70 76 -171v-88q0 -4 1 -9h31v-129h-20l-37 46h-3q-37 -46 -97 -46h-460v129h416q14 0 14 14v66q0 57 -45.5 94.5t-113.5 37.5q-56 0 -138 -21v123zM199 -46q33 0 56 -23t23 -55q0 -33 -23 -56t-56 -23q-32 0 -54.5 23t-22.5 56
q0 32 22.5 55t54.5 23zM378 -46q32 0 54.5 -23t22.5 -55q0 -33 -22.5 -56t-54.5 -23q-33 0 -56 23t-23 56q0 32 23 55t56 23zM289 -203q29 0 49.5 -20.5t20.5 -49.5t-20.5 -49.5t-49.5 -20.5q-30 0 -50.5 20.5t-20.5 49.5t20.5 49.5t50.5 20.5z" />
    <glyph glyph-name="uniFB89" unicode="&#x688;" horiz-adv-x="499" arabic-form="final" 
d="M221 777v-114q41 58 115 58q45 0 71.5 -26t26.5 -70v-45q0 -23 -17 -40q-16 -16 -37 -16h-267v64h27v189h81zM364 630q0 34 -36 34q-58 0 -104 -76h134q6 0 6 7v35zM140 466q26 6 72 6q123 0 198 -77q67 -69 67 -175v-49q0 -28 1 -42h25v-129h-13l-37 46h-3
q-9 -10 -16 -17q-35 -28 -79 -29h-316v129h270q14 0 14 14v65q0 61 -37.5 100t-97.5 39q-31 0 -48 -4v123z" />
    <glyph glyph-name="uniFB8B" unicode="&#x698;" horiz-adv-x="411" arabic-form="final" 
d="M217 821q30 0 50.5 -20.5t20.5 -50.5q0 -29 -21 -49.5t-50 -20.5t-49.5 20.5t-20.5 49.5q0 30 20.5 50.5t49.5 20.5zM128 680q33 0 55.5 -22.5t22.5 -55.5q0 -32 -22.5 -55t-55.5 -23q-32 0 -55 23t-23 55q0 33 23 55.5t55 22.5zM306 680q33 0 55.5 -22.5t22.5 -55.5
q0 -32 -22.5 -55t-55.5 -23q-32 0 -55 23t-23 55q0 33 23 55.5t55 22.5zM364 460v-331h50v-129h-52q-12 -116 -101 -182q-75 -55 -177 -55q-9 0 -24 1h-9l-63 79v53q3 -1 11 -2q26 -5 46 -5q83 2 123 42q41 40 41 125v404h155z" />
    <glyph glyph-name="uniFB8D" unicode="&#x691;" horiz-adv-x="411" arabic-form="final" 
d="M150 776l-1 -114q40 59 114 59q46 0 72.5 -26t26.5 -70v-46q0 -23 -17 -40q-16 -15 -38 -15h-267v64h28v188h82zM292 629q0 35 -33 35q-58 0 -108 -76h134q7 0 7 7v34zM364 460v-331h50v-129h-52q-12 -117 -101 -183q-75 -54 -177 -54q-9 0 -24 1h-9l-63 79v53
q3 -1 11 -2q26 -5 46 -5q83 2 123 42q41 40 41 125v404h155z" />
    <glyph glyph-name="uniFB8F" unicode="&#x6a9;" horiz-adv-x="963" arabic-form="final" 
d="M874 730v-144l-172 -109q94 -45 155 -126q74 -98 77 -216q0 -1 1 -4v-2h32v-129h-20l-37 46h-3q-38 -46 -96 -46h-551q-77 0 -133 54q-58 57 -58 140v138l75 61h79v-199q0 -27 18 -46q17 -19 43 -19h481q6 0 10 5q4 4 4 10q-6 65 -56 125q-87 99 -216 109q-9 1 -9 9
l1 126z" />
    <glyph glyph-name="uniFB90" unicode="&#x6a9;" horiz-adv-x="611" arabic-form="initial" 
d="M494 731v-145l-172 -108q106 -52 172 -152q61 -92 61 -190q0 -59 -35 -97.5t-90 -38.5h-434v129h389q14 0 14 15q0 78 -75 147q-88 78 -197 87q-9 1 -9 10v125z" />
    <glyph glyph-name="uniFB91" unicode="&#x6a9;" horiz-adv-x="584" arabic-form="medial" 
d="M494 730v-144l-171 -109q97 -47 156 -129q65 -89 75 -200l1 -19h32v-129h-20l-37 46h-3q-38 -46 -97 -46h-434v129h389q14 0 14 15q0 62 -61 131q-86 94 -211 103q-9 1 -9 9v125z" />
    <glyph glyph-name="uniFB93" unicode="&#x6af;" horiz-adv-x="963" arabic-form="final" 
d="M498 656l376 218v-95l-376 -217v94zM874 730v-144l-172 -109q94 -45 155 -126q74 -98 77 -216q0 -1 1 -4v-2h32v-129h-20l-37 46h-3q-38 -46 -96 -46h-551q-77 0 -133 54q-58 57 -58 140v138l75 61h79v-199q0 -27 18 -46q17 -19 43 -19h481q6 0 10 5q4 4 4 10
q-6 65 -56 125q-87 99 -216 109q-9 1 -9 9l1 126z" />
    <glyph glyph-name="uniFB94" unicode="&#x6af;" horiz-adv-x="634" arabic-form="initial" 
d="M118 656l376 218v-95l-376 -217v94zM494 731v-145l-172 -108q106 -52 172 -152q61 -92 61 -190q0 -59 -35 -97.5t-90 -38.5h-434v129h389q14 0 14 15q0 78 -75 147q-88 78 -197 87q-9 1 -9 10v125z" />
    <glyph glyph-name="uniFB95" unicode="&#x6af;" horiz-adv-x="602" arabic-form="medial" 
d="M118 656l376 218v-95l-376 -217v94zM494 730v-144l-171 -109q97 -47 156 -129q65 -89 75 -200l1 -19h32v-129h-20l-37 46h-3q-38 -46 -97 -46h-434v129h389q14 0 14 15q0 62 -61 131q-86 94 -211 103q-9 1 -9 9v125z" />
    <glyph glyph-name="uniFB9F" unicode="&#x6ba;" horiz-adv-x="804" arabic-form="final" 
d="M757 460v-331h51v-129h-53q-11 -116 -96 -180q-80 -59 -202 -59h-88q-142 0 -224 78q-76 73 -76 199v153l78 62h76v-196q0 -92 43 -129.5t147 -37.5t146 36q44 39 44 131v403h154z" />
    <glyph glyph-name="uniFBA5" unicode="&#x6c0;" horiz-adv-x="548" arabic-form="final" 
d="M238 595q-13 30 -13 51q0 46 26.5 73.5t69.5 27.5q28 0 59 -9v-63q-24 7 -37 7q-38 0 -38 -44q0 -17 8 -28q10 -15 31 -15h69v-31l-27 -33h-184v64h36zM501 487v-344q0 -6 4 -10t12 -4h34v-129h-79q-51 0 -93 40q-49 -49 -118 -49h-1h-2q-100 0 -157 83q-46 65 -46 155
q0 110 70 182q63 65 157 65q51 0 101 -21l41 32h77zM346 336q-24 6 -45 6q-44 0 -69 -30t-25 -83q0 -50 27.5 -82t71.5 -32q17 0 40 5v216z" />
    <glyph glyph-name="uniFBA7" unicode="&#x6c1;" horiz-adv-x="800" arabic-form="final" 
d="M758 460v-317q0 -6 4 -10t12 -4h34v-129h-80q-66 0 -103 54q-22 32 -22 70v176q-132 -17 -132 -192q0 -14 2 -48q1 -19 1 -28v-32h-51q-137 0 -231 48q-88 46 -123 129q-19 51 -19 134q0 30 3 61h142q-1 -26 -1 -42q0 -167 143 -172q10 159 136 244q89 58 207 58h78z" />
    <glyph glyph-name="uniFBA8" unicode="&#x6c1;" horiz-adv-x="468" arabic-form="initial" 
d="M399 460v-336q0 -58 -44 -95q-35 -29 -81 -29h-39q-33 -48 -33 -74q0 -31 33 -31h68v-91h-106q-47 0 -75 26.5t-28 71.5q0 46 38 98h-136v129h234q8 0 11 4q4 5 4 10v317h154z" />
    <glyph glyph-name="uniFBA9" unicode="&#x6c1;" horiz-adv-x="569" arabic-form="medial" 
d="M573 129v-129h-35q-7 0 -12 -4q-4 -3 -4 -10v-334l-78 1q-112 0 -200 49q-73 47 -106 115.5t-38 182.5h-104v129h242v-63v-31v-27q0 -53 5 -83q23 -99 125 -112v193q0 38 22 69q36 54 102 54h81z" />
    <glyph glyph-name="uniFBAB" unicode="&#x6be;" horiz-adv-x="800" arabic-form="final" 
d="M259 449q113 50 212 50q181 0 260 -130q24 -42 31 -71.5t7 -93.5v-37q0 -12 1 -38h33v-129h-21l-37 46h-3q-18 -21 -41 -33q-25 -13 -54 -13h-261q-30 0 -52 14h-4q-24 -14 -70 -14h-142l-63 78v51h128q-12 25 -16 42q-6 24 -6 49q0 58 35 101q25 31 63 48v80zM615 203
q0 180 -177 180q-26 0 -58 -3q55 -16 88 -59q35 -44 35 -101q0 -26 -7 -51q-8 -28 -15 -40h120q7 0 11 5q3 3 3 9v60zM331 147q25 5 37 23q10 17 10 45q0 14 -4 32q-14 34 -43 34q-22 0 -36 -21q-12 -19 -12 -45q0 -24 8 -39q12 -23 40 -29z" />
    <glyph glyph-name="uniFBAC" unicode="&#x6be;" horiz-adv-x="808" arabic-form="initial" 
d="M239 449q114 50 222 50q137 0 219 -85q72 -75 72 -194v-96q0 -58 -43 -94q-35 -30 -81 -30h-245q-46 0 -69 14h-5q-23 -14 -69 -14h-244v129h167q-12 23 -16 42q-6 22 -6 49q0 54 30 95q26 35 68 54v80zM598 203q0 93 -52 140q-45 41 -124 41q-26 0 -62 -4q54 -16 88 -59
q35 -44 35 -101q0 -26 -7 -51q-9 -28 -15 -40h123q6 0 11 5q3 3 3 9v60zM311 147q27 6 38 27q9 15 9 41q0 27 -14 48q-14 18 -34 18q-21 0 -34 -19.5t-13 -50.5q0 -53 48 -64z" />
    <glyph glyph-name="uniFBAD" unicode="&#x6be;" horiz-adv-x="775" arabic-form="medial" 
d="M239 449q110 49 219 49q136 0 216 -84q72 -75 72 -194v-59q0 -10 1 -32h32v-129h-20l-37 46h-3q-14 -16 -30 -26q-30 -20 -65 -20h-258q-30 0 -52 14h-5q-23 -14 -69 -14h-244v129h167q-12 23 -16 42q-6 22 -6 49q0 56 33 99q24 32 65 50v80zM592 203q0 180 -175 180
q-25 0 -57 -3q52 -16 87 -59q36 -43 36 -101q0 -27 -7 -51q-8 -26 -15 -40h117q6 0 10 3q4 4 4 11v60zM311 147q47 9 47 68q0 29 -14 48q-14 18 -34 18t-33.5 -19.5t-13.5 -48.5q0 -56 48 -66z" />
    <glyph glyph-name="uniFBAF" unicode="&#x6d2;" horiz-adv-x="790" arabic-form="final" 
d="M928 129v-129h-626q-31 0 -53 -12q-25 -15 -25 -43q0 -24 18 -38q16 -13 43 -13h412v-51l-63 -78h-391q-98 0 -146 73q-28 43 -28 101q0 79 47 130q56 60 150 60h662z" />
    <glyph glyph-name="uniFBB1" unicode="&#x6d3;" horiz-adv-x="786" arabic-form="final" 
d="M132 316q-13 29 -13 50q0 45 26 73.5t67 28.5q30 0 62 -10v-63q-25 7 -38 7q-38 0 -38 -43q0 -19 8 -28q10 -15 31 -15h69v-31l-26 -33h-184v64h36zM950 129v-129h-626q-31 0 -53 -12q-25 -15 -25 -43q0 -24 18 -38q16 -13 43 -13h412v-51l-63 -78h-391q-98 0 -146 73
q-28 43 -28 101q0 79 47 130q56 60 150 60h662z" />
    <glyph glyph-name="uniFBE8" unicode="&#x649;" horiz-adv-x="399" arabic-form="initial" 
d="M330 460v-336q0 -44 -29 -79q-38 -45 -96 -45h-209v129h165q6 0 10 3q5 4 5 11v317h154z" />
    <glyph glyph-name="uniFBE9" unicode="&#x649;" horiz-adv-x="377" arabic-form="medial" 
d="M330 460v-322q0 -4 1 -9h49v-129h-31l-44 46h-2q-38 -46 -98 -46h-209v129h160q9 0 14 6q6 5 6 14v311h154z" />
    <glyph glyph-name="uniFBFC" unicode="&#x6cc;" horiz-adv-x="795" arabic-form="isolated" 
d="M223 57q0 -95 46.5 -132t165.5 -37q161 0 161 84q0 25 -17.5 38t-77.5 32q-94 30 -136.5 81t-42.5 135q0 111 74 168q60 46 159 46q64 0 118 -17v-115q-50 12 -87 12q-52 0 -83.5 -25t-31.5 -66q0 -39 20.5 -58.5t94.5 -49.5q85 -36 119 -68q45 -43 45 -109
q0 -118 -107 -175q-76 -40 -186 -40h-88q-109 0 -187 48q-113 73 -113 229v74l78 62h76v-117z" />
    <glyph glyph-name="uniFBFD" unicode="&#x6cc;" horiz-adv-x="706" arabic-form="final" 
d="M223 174v-117q0 -92 43 -129.5t147 -37.5q89 0 130.5 24.5t54.5 85.5h-50l-66 82v47h322v-129h-49q-13 -128 -113 -191q-77 -48 -185 -48h-88q-125 0 -205 62q-95 74 -95 215v74l78 62h76z" />
    <glyph glyph-name="uniFBFE" unicode="&#x6cc;" horiz-adv-x="401" arabic-form="initial" 
d="M330 460v-336q0 -44 -29 -79q-38 -45 -96 -45h-209v129h165q6 0 10 3q5 4 5 11v317h154zM77 -46q32 0 55 -23t23 -56q0 -32 -23 -55t-55 -23q-33 0 -55.5 23t-22.5 55q0 33 22.5 56t55.5 23zM256 -46q32 0 55 -23t23 -56q0 -32 -23 -55t-55 -23q-33 0 -55.5 23t-22.5 55
q0 33 22.5 56t55.5 23z" />
    <glyph glyph-name="uniFBFF" unicode="&#x6cc;" horiz-adv-x="377" arabic-form="medial" 
d="M330 460v-322q0 -4 1 -9h50v-129h-31l-44 46h-3q-37 -46 -97 -46h-209v129h159q10 0 15 6q5 5 5 14v311h154zM72 -46q33 0 56 -23t23 -56q0 -32 -23 -55t-56 -23q-32 0 -55 23t-23 55q0 33 23 56t55 23zM251 -46q33 0 56 -23t23 -56q0 -32 -23 -55t-56 -23
q-32 0 -54.5 23t-22.5 55q0 33 22.5 56t54.5 23z" />
    <glyph glyph-name="uniFDFA" unicode="&#xfdfa;" horiz-adv-x="618" arabic-form="isolated" 
d="M324 690q-2 -5 -8 -5t-6 12q0 8 3 12h2q-2 -4 -2 -7q0 -9 7 -9q4 0 4 7q0 3 -1 9l4 4q2 -7 2 -17q2 -2 4 -2q4 0 4 4q0 2 -1 6q-2 5 -2 7q0 4 2 5h1q0 -2 2 -7q3 -5 3 -12q0 -10 -10 -10q-5 0 -8 3zM218 659l-4 2q34 15 41 27q-13 7 -13 13q0 14 17 14q8 0 8 -10
q0 -7 -3 -14l6 -2l-2 -6q-3 1 -7 2q-1 1 -2 1q-11 -15 -41 -27zM501 243q23 4 67 27q1 0 2 1l3 -3l-8 -34q-45 -29 -101 -29q-53 0 -68 31q-9 -29 -35 -29q-27 0 -34 27q-45 -47 -78 -47q-10 0 -21 3v-44q0 -35 40 -35q37 0 136 37q4 2 8 3q50 19 61 19q19 0 19 -23
q0 -27 -38 -55l-4 6q24 20 24 35q0 7 -7 7q-5 0 -13 -2q-16 -5 -60 -21q-92 -35 -128 -35q-25 0 -37 14q2 -28 11 -38q37 -17 37 -21q0 -7 -5.5 -15t-9.5 -8q-5 0 -16 6q-20 10 -36 10q-18 0 -55 -21q-39 -21 -57 -21q-20 0 -32.5 19.5t-12.5 50.5t17.5 56.5t44.5 34.5h2
l2 -4q-21 -8 -36.5 -33.5t-15.5 -52.5q0 -43 29 -43q24 0 65 23q34 19 51 22q-4 17 -4 48v88q-22 15 -37 48q-3 -2 -15 -21q-37 -62 -62 -62q-20 0 -32.5 20t-12.5 51q0 30 17.5 56t44.5 35h2l1 -5q-20 -7 -35.5 -33t-15.5 -53q0 -42 29 -42q22 0 43 31q2 4 10 18
q21 32 31 32q8 0 15 -16l1 -1q8 -18 16 -24v115l-56 -1q-99 0 -99 40q0 36 37 54q8 4 26 12q46 19 46 46l-1 187q0 13 18 29h2l1 -219q0 -33 26 -49v38q0 16 19 28h2v-75h5q8 -1 12 -1q71 0 140 31v24q0 14 20 28h1l1 -42q20 11 27 11q6 0 6 -6q0 -3 -3 -11q-1 -4 -1 -9
q0 -14 13 -21q32 75 74 75q19 0 33 -12.5t14 -29.5q0 -27 -29 -47.5t-68 -20.5q-15 0 -26 5q-3 -4 -8 -11l-4 -6h-3q1 11 5 23q-16 13 -20 39l-10 -6v-70l123 3q44 0 44 -27q0 -12 -10 -25l-4 1q0 22 -30 22l-123 -3v-68q0 -44 60 -44q-14 21 -14 41q0 23 15.5 40t35.5 17
q27 0 55 -23l-2 -9q-19 5 -35 5q-35 0 -50 -25q2 -24 28 -41zM452 515h-4l-5 169q-2 3 -2 6q0 13 10 23h3q20 -29 20 -58q0 -1 -1 -2h-1l-10 10l4 -112q0 -25 -14 -36zM247 702q3 -3 11 -7q1 4 1 7q0 5 -4 5q-3 0 -8 -5zM267 618q-3 -6 -8 -29q-12 -59 -29 -59q-25 0 -25 62
q0 19 3 34h1l2 -3q-1 -9 -1 -15q0 -52 20 -52q11 0 23 50q11 46 24 46q5 0 5 -11q0 -8 -2 -24q-3 -12 -3 -24q0 -36 18 -36q35 0 35 56q0 24 -4 44q2 13 14 23h2q7 -18 6 -75v-12q0 -37 25 -37q24 0 34 21q-1 13 -12 46q-13 37 -13 40q0 4 6 15q2 3 3 4h2l2 -2q1 -2 2 -2
q18 -23 19 -29l-1 -1l-8 3q2 -11 8 -29q7 -24 7 -37q0 -22 -13 -38.5t-32 -16.5q-34 0 -43 33q-11 -33 -37 -33q-33 0 -33 58q0 14 3 30zM251 460l7 12l20 8q57 21 96 29l-6 -12q-34 -5 -102 -32zM547 461q-6 24 -23 24q-30 0 -58 -49h12q45 0 69 25zM208 375v36
q-35 10 -44 45q-12 -19 -55 -34q-34 -12 -39 -24q9 -24 99 -24zM229 406v-31q32 0 102 3q33 1 55 1v58q-66 -31 -142 -31h-15zM346 250q8 -11 20 -11q27 0 24 58v10q0 21 -1 43l-161 -4v-127q10 -5 21 -5q34 0 77 48q6 6 10 6t8 -12q2 -4 2 -6zM252 269l6 11q6 3 21 8
q57 22 96 30l-7 -12q-32 -5 -94 -29q-14 -5 -22 -8zM126 309h3q-6 -17 -6 -29q0 -11 5 -11t7 7h1q0 -22 -14 -22q-9 0 -9 17q0 23 13 38zM340 175l14 14l21 -19l-21 -22l-14 15l-15 -15l-19 22l19 19zM552 85q-5 3 -21 5q-33 5 -33 26q0 19 12 34t27 15q35 0 35 -54
q0 -46 -34 -84.5t-74 -38.5q-20 0 -34 14t-14 35q0 32 26 54l3 -6q-14 -12 -14 -31q0 -37 34 -37q23 0 47.5 19t39.5 49zM554 116q-1 0 -3 5q-9 17 -19 17q-15 0 -15 -11q0 -5 18 -8q13 -2 19 -3zM124 96q-4 -3 -7 -3q-5 0 -5 9q0 10 9 10q6 0 13 -11q3 16 13 16q8 0 8 -7
q0 -3 -2 -8v-4h-1q-1 5 -4 6q-8 0 -10 -27l-2 -2q0 21 -12 21zM335 51v2q5 -2 11 -2q10 0 20 7q-12 6 -20 6q-3 0 -5 -1l-2 1q0 11 15 11q3 0 10 -2q8 -3 13 -4q6 0 6 -2q0 -7 -10 -14.5t-21 -7.5q-9 0 -17 6zM386 22l8 7q5 -6 5 -19q0 -11 -12 -11q-7 0 -11 6q-4 -6 -11 -6
t-10 6q-12 -7 -36 -7q-12 0 -27 2v2h11q44 0 55 17h2q0 -9 7 -9q8 0 8 11h2q0 -11 13 -11q-2 11 -4 12z" />
    <glyph glyph-name="uniFE82" unicode="&#x622;" horiz-adv-x="270" arabic-form="final" 
d="M-23 826q37 75 95 75q30 0 77 -23l10 -5q25 -12 41 -12q24 0 50 35l44 -33q-45 -68 -104 -68q-37 0 -79 23q-26 13 -37 13q-21 0 -57 -36zM224 716v-573q0 -2 1 -6v-1q4 -7 13 -7h36v-129h-80q-50 0 -87 35q-37 37 -37 89v592h154z" />
    <glyph glyph-name="uniFE84" unicode="&#x623;" horiz-adv-x="270" arabic-form="final" 
d="M84 856q-13 29 -13 51q0 45 26.5 73t69.5 28q28 0 59 -10v-63q-24 7 -37 7q-38 0 -38 -43q0 -18 7 -29q11 -14 31 -14h70v-31l-27 -33h-184v64h36zM223 716v-573q0 -2 1 -6v-1q4 -7 13 -7h37v-129h-81q-49 0 -87 35q-37 37 -37 89v592h154z" />
    <glyph glyph-name="uniFE86" unicode="&#x624;" horiz-adv-x="529" arabic-form="final" 
d="M212 595q-12 28 -12 51q0 44 25.5 72.5t67.5 28.5q28 0 62 -10v-63q-26 7 -39 7q-37 0 -37 -43q0 -18 8 -29q10 -14 30 -14h70v-31l-26 -33h-184v64h35zM282 0q-106 0 -171 75q-56 64 -56 153q0 113 59 174q69 70 176 70q77 0 130 -35q80 -53 80 -152v-156h32v-129h-33
q-12 -110 -88 -172q-46 -39 -114 -56q-46 -12 -97 -12q-22 0 -46 3l-67 82v54q46 -10 88 -10q140 0 166 111h-59zM346 284q0 31 -23 48q-15 11 -34 11q-37 0 -59.5 -28.5t-22.5 -75.5q0 -110 109 -110h30v155z" />
    <glyph glyph-name="uniFE88" unicode="&#x625;" horiz-adv-x="256" arabic-form="final" 
d="M223 716v-573q0 -2 1 -7h1q3 -7 12 -7h37v-129h-81q-49 0 -86 35q-38 37 -38 89v592h154zM86 -237q-12 29 -12 52q0 44 26 72t67 28q29 0 62 -9v-63q-25 7 -37 7q-38 0 -38 -43q0 -19 7 -29q10 -15 31 -15h70v-30l-27 -34h-184v64h35z" />
    <glyph glyph-name="uniFE89" unicode="&#x626;" horiz-adv-x="822" arabic-form="isolated" 
d="M250 57q0 -95 46 -132t166 -37q49 0 77 7q2 0 7 1q33 10 49 21q28 21 28 54q0 26 -18 39t-78 32q-94 30 -136.5 81.5t-42.5 134.5q0 112 74 168q61 46 160 46q64 0 117 -17v-115q-49 12 -87 12q-52 0 -83 -25t-31 -66q0 -40 20 -59t95 -50q85 -35 119 -67q44 -43 44 -109
q0 -117 -106 -174q-77 -41 -186 -41h-88q-110 0 -187 48q-113 73 -113 229v74l77 62h77v-117zM105 319q-13 29 -13 51q0 45 26 73t67 28q29 0 62 -9v-63q-26 6 -38 6q-37 0 -37 -43q0 -18 7 -28q11 -15 31 -15h70v-31l-27 -33h-184v64h36z" />
    <glyph glyph-name="uniFE8A" unicode="&#x626;" horiz-adv-x="637" arabic-form="final" 
d="M105 319q-13 29 -13 51q0 45 26 73t67 28q29 0 62 -9v-63q-26 6 -38 6q-37 0 -37 -43q0 -18 7 -28q11 -15 31 -15h70v-31l-27 -33h-184v64h36zM246 174v-117q0 -92 43.5 -129.5t146.5 -37.5q89 0 130.5 24.5t54.5 85.5h-50l-66 82v47h323v-129h-50q-13 -128 -113 -191
q-77 -48 -185 -48h-88q-125 0 -205 62q-95 74 -95 215v74l78 62h76z" />
    <glyph glyph-name="uniFE8B" unicode="&#x626;" horiz-adv-x="399" arabic-form="initial" 
d="M178 592q-12 28 -12 52q0 44 26 72t67 28q29 0 62 -9v-63q-26 7 -39 7q-37 0 -37 -43q0 -18 8 -29q11 -15 31 -15h70v-30l-27 -34h-184v64h35zM330 460v-336q0 -44 -29 -79q-38 -45 -96 -45h-209v129h165q6 0 10 3q5 4 5 11v317h154z" />
    <glyph glyph-name="uniFE8C" unicode="&#x626;" horiz-adv-x="377" arabic-form="medial" 
d="M179 592q-13 29 -13 52q0 44 26.5 72t67.5 28q29 0 61 -9v-63q-25 7 -38 7q-37 0 -37 -43q0 -18 8 -29q10 -15 31 -15h69v-30l-27 -34h-184v64h36zM330 460v-322q0 -4 1 -9h49v-129h-31l-44 46h-2q-38 -46 -98 -46h-209v129h160q9 0 14 6q6 5 6 14v311h154z" />
    <glyph glyph-name="uniFE8E" unicode="&#x627;" horiz-adv-x="270" arabic-form="final" 
d="M223 716v-573q0 -2 1 -6l1 -1q3 -7 12 -7h37v-129h-81q-49 0 -86 35q-38 37 -38 89v592h154z" />
    <glyph glyph-name="uniFE90" unicode="&#x628;" horiz-adv-x="981" arabic-form="final" 
d="M934 460v-322q0 -4 1 -9h50v-129h-33l-42 46h-3q-38 -46 -97 -46h-550q-69 0 -121 44q-70 58 -70 150v131l78 63h76v-194q0 -31 22 -50q17 -15 39 -15h476q10 0 16 7q4 6 4 13v311h154zM502 -46q33 0 55.5 -23t22.5 -56q0 -32 -22.5 -55t-55.5 -23q-32 0 -55 23t-23 55
q0 33 23 56t55 23z" />
    <glyph glyph-name="uniFE91" unicode="&#x628;" horiz-adv-x="399" arabic-form="initial" 
d="M330 460v-336q0 -44 -29 -79q-38 -45 -96 -45h-209v129h165q6 0 10 3q5 4 5 11v317h154zM233 -46q32 0 55 -23t23 -56q0 -32 -23 -55t-55 -23q-33 0 -55.5 23t-22.5 55q0 33 22.5 56t55.5 23z" />
    <glyph glyph-name="uniFE92" unicode="&#x628;" horiz-adv-x="377" arabic-form="medial" 
d="M330 460v-322q0 -4 1 -9h49v-129h-31l-44 46h-2q-38 -46 -98 -46h-209v129h160q9 0 14 6q6 5 6 14v311h154zM252 -46q32 0 55 -23t23 -56q0 -32 -23 -55t-55 -23q-33 0 -55.5 23t-22.5 55q0 33 22.5 56t55.5 23z" />
    <glyph glyph-name="uniFE94" unicode="&#x629;" horiz-adv-x="548" arabic-form="final" 
d="M243 680q33 0 56 -23t23 -55t-23 -55t-56 -23q-32 0 -55 23t-23 55q0 33 23 55.5t55 22.5zM422 680q33 0 56 -23t23 -55t-23 -55t-56 -23q-32 0 -54.5 23t-22.5 55q0 33 22.5 55.5t54.5 22.5zM501 487v-344q0 -6 4 -10t12 -4h34v-129h-79q-51 0 -93 40q-49 -49 -118 -49
h-1h-2q-100 0 -157 83q-46 65 -46 155q0 110 70 182q63 65 157 65q51 0 101 -21l41 32h77zM346 336q-24 6 -45 6q-44 0 -69 -30t-25 -83q0 -50 27.5 -82t71.5 -32q17 0 40 5v216z" />
    <glyph glyph-name="uniFE96" unicode="&#x62a;" horiz-adv-x="981" arabic-form="final" 
d="M412 487q33 0 55.5 -23t22.5 -55q0 -33 -22.5 -55.5t-55.5 -22.5q-32 0 -55 22.5t-23 55.5q0 32 23 55t55 23zM591 487q33 0 55.5 -23t22.5 -55q0 -33 -22.5 -55.5t-55.5 -22.5q-32 0 -55 22.5t-23 55.5q0 32 23 55t55 23zM934 460v-322q0 -4 1 -9h50v-129h-33l-42 46h-3
q-38 -46 -97 -46h-550q-69 0 -121 44q-70 58 -70 150v131l78 63h76v-194q0 -31 22 -50q17 -15 39 -15h476q10 0 16 7q4 6 4 13v311h154z" />
    <glyph glyph-name="uniFE97" unicode="&#x62a;" horiz-adv-x="414" arabic-form="initial" 
d="M88 680q32 0 55 -23t23 -55t-23 -55t-55 -23q-33 0 -55.5 23t-22.5 55q0 33 22.5 55.5t55.5 22.5zM267 680q32 0 55 -23t23 -55t-23 -55t-55 -23q-33 0 -55.5 23t-22.5 55q0 33 22.5 55.5t55.5 22.5zM330 460v-336q0 -44 -29 -79q-38 -45 -96 -45h-209v129h165q6 0 10 3
q5 4 5 11v317h154z" />
    <glyph glyph-name="uniFE98" unicode="&#x62a;" horiz-adv-x="377" arabic-form="medial" 
d="M88 680q32 0 55 -23t23 -55t-23 -55t-55 -23q-33 0 -55.5 23t-22.5 55q0 33 22.5 55.5t55.5 22.5zM267 680q32 0 55 -23t23 -55t-23 -55t-55 -23q-33 0 -55.5 23t-22.5 55q0 33 22.5 55.5t55.5 22.5zM330 460v-322q0 -4 1 -9h49v-129h-31l-44 46h-2q-38 -46 -98 -46h-209
v129h160q9 0 14 6q6 5 6 14v311h154z" />
    <glyph glyph-name="uniFE9A" unicode="&#x62b;" horiz-adv-x="981" arabic-form="final" 
d="M502 628q29 0 49.5 -21t20.5 -50t-20.5 -49.5t-49.5 -20.5t-50 20.5t-21 49.5t20.5 50t50.5 21zM413 487q32 0 55 -23t23 -55q0 -33 -23 -55.5t-55 -22.5q-33 0 -55.5 22.5t-22.5 55.5q0 32 22.5 55t55.5 23zM591 487q32 0 55 -23t23 -55q0 -33 -23 -55.5t-55 -22.5
q-33 0 -55.5 22.5t-22.5 55.5q0 32 22.5 55t55.5 23zM934 460v-322q0 -4 1 -9h50v-129h-33l-42 46h-3q-38 -46 -97 -46h-550q-69 0 -121 44q-70 58 -70 150v131l78 63h76v-194q0 -31 22 -50q17 -15 39 -15h476q10 0 16 7q4 6 4 13v311h154z" />
    <glyph glyph-name="uniFE9B" unicode="&#x62b;" horiz-adv-x="414" arabic-form="initial" 
d="M178 821q29 0 49.5 -20.5t20.5 -50.5q0 -29 -20.5 -49.5t-49.5 -20.5t-50 20.5t-21 49.5q0 30 21 50.5t50 20.5zM89 680q33 0 55.5 -22.5t22.5 -55.5q0 -32 -23 -55t-55 -23t-55 23t-23 55t22.5 55t55.5 23zM267 680q32 0 55 -23t23 -55t-23 -55t-55 -23q-33 0 -55.5 23
t-22.5 55q0 33 22.5 55.5t55.5 22.5zM330 460v-336q0 -44 -29 -79q-38 -45 -96 -45h-209v129h165q6 0 10 3q5 4 5 11v317h154z" />
    <glyph glyph-name="uniFE9C" unicode="&#x62b;" horiz-adv-x="377" arabic-form="medial" 
d="M178 821q29 0 49.5 -20.5t20.5 -50.5q0 -29 -20.5 -49.5t-49.5 -20.5t-50 20.5t-21 49.5q0 30 21 50.5t50 20.5zM89 680q33 0 55.5 -22.5t22.5 -55.5q0 -32 -23 -55t-55 -23t-55 23t-23 55t22.5 55t55.5 23zM267 680q32 0 55 -23t23 -55t-23 -55t-55 -23q-33 0 -55.5 23
t-22.5 55q0 33 22.5 55.5t55.5 22.5zM330 460v-322q0 -4 1 -9h49v-129h-31l-44 46h-2q-38 -46 -98 -46h-209v129h160q9 0 14 6q6 5 6 14v311h154z" />
    <glyph glyph-name="uniFE9E" unicode="&#x62c;" horiz-adv-x="658" arabic-form="final" 
d="M192 443q100 30 157 30q121 0 204 -76q77 -69 77 -171v-54v-43h32v-129h-20l-37 46h-3q-37 -46 -97 -46h-170q-125 0 -125 -122q0 -61 46 -94t130 -33q32 0 66 6v-54l-66 -83q-7 2 -23 2h-7q-140 0 -223 77q-77 72 -77 192q0 127 99 190q76 48 192 48h114q14 0 14 14v66
q0 55 -45 93.5t-108 38.5q-49 0 -130 -21v123zM387 -46q33 0 55.5 -23t22.5 -56q0 -32 -22.5 -55t-55.5 -23q-32 0 -55 23t-23 55q0 33 23 56t55 23z" />
    <glyph glyph-name="uniFE9F" unicode="&#x62c;" horiz-adv-x="636" arabic-form="initial" 
d="M129 443q100 29 173 29q120 0 203 -75q76 -70 76 -171v-102q0 -51 -36 -87q-37 -37 -89 -37h-460v129h416q14 0 14 14v66q0 66 -57 103q-45 29 -104 29q-55 0 -136 -21v123zM289 -46q32 0 55 -23t23 -56q0 -32 -23 -55t-55 -23q-33 0 -55.5 23t-22.5 55q0 33 22.5 56
t55.5 23z" />
    <glyph glyph-name="uniFEA0" unicode="&#x62c;" horiz-adv-x="609" arabic-form="medial" 
d="M129 443q95 29 175 29q119 0 201 -75q76 -70 76 -171v-88q0 -4 1 -9h31v-129h-20l-37 46h-3q-37 -46 -97 -46h-460v129h416q14 0 14 14v66q0 57 -45.5 94.5t-113.5 37.5q-56 0 -138 -21v123zM289 -46q32 0 55 -23t23 -56q0 -32 -23 -55t-55 -23q-33 0 -55.5 23t-22.5 55
q0 33 22.5 56t55.5 23z" />
    <glyph glyph-name="uniFEA2" unicode="&#x62d;" horiz-adv-x="671" arabic-form="final" 
d="M192 443q95 29 175 29q119 0 201 -75q75 -70 75 -171v-54q0 -15 1 -43h32v-129h-20l-37 46h-3q-16 -19 -38 -32q-27 -14 -59 -14h-184q-125 0 -125 -122q0 -127 181 -127q59 0 113 17v-53l-66 -81q-37 -12 -79 -12q-143 0 -225 76q-78 71 -78 193q0 127 99 190
q76 48 192 48h128q14 0 14 14v66q0 57 -45.5 94.5t-113.5 37.5q-56 0 -138 -21v123z" />
    <glyph glyph-name="uniFEA3" unicode="&#x62d;" horiz-adv-x="636" arabic-form="initial" 
d="M129 443q100 29 173 29q120 0 203 -75q76 -70 76 -171v-102q0 -51 -36 -87q-37 -37 -89 -37h-460v129h416q14 0 14 14v66q0 66 -57 103q-45 29 -104 29q-55 0 -136 -21v123z" />
    <glyph glyph-name="uniFEA4" unicode="&#x62d;" horiz-adv-x="609" arabic-form="medial" 
d="M129 443q95 29 175 29q119 0 201 -75q76 -70 76 -171v-88q0 -4 1 -9h31v-129h-20l-37 46h-3q-37 -46 -97 -46h-460v129h416q14 0 14 14v66q0 57 -45.5 94.5t-113.5 37.5q-56 0 -138 -21v123z" />
    <glyph glyph-name="uniFEA6" unicode="&#x62e;" horiz-adv-x="671" arabic-form="final" 
d="M382 680q32 0 55 -22.5t23 -55.5t-23 -55.5t-55 -22.5q-33 0 -55.5 23t-22.5 55t22.5 55t55.5 23zM192 443q95 29 174 29q120 0 202 -75q75 -70 75 -171v-54q0 -18 1 -43h32v-129h-20l-37 47h-3q-16 -20 -38 -33q-27 -14 -59 -14h-184q-125 0 -125 -122q0 -127 181 -127
q59 0 113 17v-53l-66 -81q-37 -12 -78 -12q-144 0 -226 76q-78 71 -78 193q0 127 99 190q76 48 192 48h128q14 0 14 14v66q0 57 -45.5 94.5t-113.5 37.5q-56 0 -138 -21v123z" />
    <glyph glyph-name="uniFEA7" unicode="&#x62e;" horiz-adv-x="636" arabic-form="initial" 
d="M313 680q32 0 54.5 -22.5t22.5 -55.5t-22.5 -55.5t-54.5 -22.5q-33 0 -56 23t-23 55t23 55t56 23zM129 443q100 29 173 29q120 0 203 -75q76 -70 76 -171v-102q0 -51 -36 -87q-37 -37 -89 -37h-460v129h416q14 0 14 14v66q0 66 -57 103q-45 29 -104 29q-55 0 -136 -21
v123z" />
    <glyph glyph-name="uniFEA8" unicode="&#x62e;" horiz-adv-x="609" arabic-form="medial" 
d="M313 680q32 0 54.5 -22.5t22.5 -55.5t-22.5 -55.5t-54.5 -22.5q-33 0 -56 23t-23 55t23 55t56 23zM129 443q95 29 175 29q119 0 201 -75q76 -70 76 -171v-88q0 -4 1 -9h31v-129h-20l-37 46h-3q-37 -46 -97 -46h-460v129h416q14 0 14 14v66q0 57 -45.5 94.5t-113.5 37.5
q-56 0 -138 -21v123z" />
    <glyph glyph-name="uniFEAA" unicode="&#x62f;" horiz-adv-x="499" arabic-form="final" 
d="M140 466q26 6 72 6q123 0 198 -77q67 -69 67 -175v-49q0 -28 1 -42h25v-129h-13l-37 46h-3q-9 -10 -16 -17q-35 -28 -79 -29h-316v129h270q14 0 14 14v65q0 61 -37.5 100t-97.5 39q-31 0 -48 -4v123z" />
    <glyph glyph-name="uniFEAC" unicode="&#x630;" horiz-adv-x="499" arabic-form="final" 
d="M220 680q33 0 55.5 -22.5t22.5 -55.5t-22.5 -55.5t-55.5 -22.5q-32 0 -55 23t-23 55t23 55t55 23zM140 466q26 6 72 6q123 0 198 -77q67 -69 67 -175v-49q0 -28 1 -42h25v-129h-13l-37 46h-3q-9 -10 -16 -17q-35 -28 -79 -29h-316v129h270q14 0 14 14v65q0 61 -37.5 100
t-97.5 39q-31 0 -48 -4v123z" />
    <glyph glyph-name="uniFEAE" unicode="&#x631;" horiz-adv-x="411" arabic-form="final" 
d="M364 460v-331h50v-129h-52q-11 -115 -100 -182q-75 -55 -176 -55q-11 0 -35 1l-63 79v53q3 -1 11 -2q26 -5 46 -5q83 2 123 42q41 41 41 125v404h155z" />
    <glyph glyph-name="uniFEB0" unicode="&#x632;" horiz-adv-x="411" arabic-form="final" 
d="M287 680q32 0 55 -22.5t23 -55.5q0 -32 -23 -55t-55 -23q-33 0 -56 23t-23 55t23 55t56 23zM364 460v-331h50v-129h-52q-11 -116 -101 -182q-75 -55 -177 -55q-12 0 -33 1l-63 79v53q3 -1 11 -2q26 -5 46 -5q80 1 121 39q43 41 43 128v404h155z" />
    <glyph glyph-name="uniFEB2" unicode="&#x633;" horiz-adv-x="1538" arabic-form="final" 
d="M1491 460v-296q0 -11 1 -35h50v-129h-38l-37 47h-3q-37 -47 -97 -47h-230l-37 47h-3q-37 -47 -97 -47h-245q-11 -114 -94 -178q-79 -61 -204 -61h-88q-137 0 -218 73q-82 73 -82 204v153l78 62h76v-196q0 -92 43 -129.5t147 -37.5t146 36q44 39 44 131v288h154v-216h199
q14 0 14 14v260h154v-234q0 -13 1 -40h197q15 0 15 14v317h154z" />
    <glyph glyph-name="uniFEB3" unicode="&#x633;" horiz-adv-x="1224" arabic-form="initial" 
d="M1154 460v-336q0 -51 -36.5 -87.5t-87.5 -36.5h-225l-42 47h-3q-37 -47 -97 -47h-225l-42 47h-3q-37 -47 -97 -47h-300v129h256q14 0 14 14v202h154v-157q0 -15 1 -47v-12h198q14 0 14 14v260h154v-232q0 -17 1 -42h198q14 0 14 14v317h154z" />
    <glyph glyph-name="uniFEB4" unicode="&#x633;" horiz-adv-x="1201" arabic-form="medial" 
d="M1154 460v-293q0 -10 1 -33v-5h50v-129h-38l-37 47h-3q-37 -47 -97 -47h-230l-37 47h-3q-37 -47 -97 -47h-230l-37 47h-3q-37 -47 -97 -47h-300v129h256q14 0 14 14v202h154v-179q0 -10 1 -30v-7h198q14 0 14 14v260h154v-232q0 -17 1 -42h198q14 0 14 14v317h154z" />
    <glyph glyph-name="uniFEB6" unicode="&#x634;" horiz-adv-x="1538" arabic-form="final" 
d="M1048 821q29 0 50 -20.5t21 -50.5q0 -29 -21 -49.5t-50 -20.5t-49.5 20.5t-20.5 49.5q0 30 20.5 50.5t49.5 20.5zM959 680q33 0 55.5 -22.5t22.5 -55.5q0 -32 -22.5 -55t-55.5 -23q-32 0 -55 23t-23 55t23 55t55 23zM1137 680q33 0 55.5 -23t22.5 -55t-23 -55t-55 -23
t-55 22.5t-23 55.5t22.5 55.5t55.5 22.5zM1491 460v-296q0 -11 1 -35h50v-129h-38l-37 47h-3q-37 -47 -97 -47h-230l-37 47h-3q-37 -47 -97 -47h-245q-11 -114 -94 -178q-79 -61 -204 -61h-88q-137 0 -218 73q-82 73 -82 204v153l78 62h76v-196q0 -92 43 -129.5t147 -37.5
t146 36q44 39 44 131v288h154v-216h199q14 0 14 14v260h154v-234q0 -13 1 -40h197q15 0 15 14v317h154z" />
    <glyph glyph-name="uniFEB7" unicode="&#x634;" horiz-adv-x="1224" arabic-form="initial" 
d="M711 821q30 0 50.5 -20.5t20.5 -50.5q0 -29 -20.5 -49.5t-50.5 -20.5q-29 0 -49.5 20.5t-20.5 49.5q0 30 20.5 50.5t49.5 20.5zM623 680q32 0 54.5 -22.5t22.5 -55.5t-22.5 -55.5t-54.5 -22.5q-33 0 -56 23t-23 55t23 55t56 23zM800 680q33 0 55.5 -23t22.5 -55
t-22.5 -55t-55.5 -23q-32 0 -55 23t-23 55q0 33 23 55.5t55 22.5zM1154 460v-336q0 -51 -36.5 -87.5t-87.5 -36.5h-225l-42 47h-3q-37 -47 -97 -47h-225l-42 47h-3q-37 -47 -97 -47h-300v129h256q14 0 14 14v202h154v-157q0 -15 1 -47v-12h198q14 0 14 14v260h154v-232
q0 -17 1 -42h198q14 0 14 14v317h154z" />
    <glyph glyph-name="uniFEB8" unicode="&#x634;" horiz-adv-x="1201" arabic-form="medial" 
d="M711 821q30 0 50.5 -20.5t20.5 -50.5q0 -29 -20.5 -49.5t-50.5 -20.5q-29 0 -49.5 20.5t-20.5 49.5q0 30 20.5 50.5t49.5 20.5zM623 680q32 0 54.5 -22.5t22.5 -55.5t-22.5 -55.5t-54.5 -22.5q-33 0 -56 23t-23 55t23 55t56 23zM800 680q33 0 55.5 -23t22.5 -55
t-22.5 -55t-55.5 -23q-32 0 -55 23t-23 55q0 33 23 55.5t55 22.5zM1154 460v-293q0 -10 1 -33v-5h50v-129h-38l-37 47h-3q-37 -47 -97 -47h-230l-37 47h-3q-37 -47 -97 -47h-230l-37 47h-3q-37 -47 -97 -47h-300v129h256q14 0 14 14v202h154v-179q0 -10 1 -30v-7h198
q14 0 14 14v260h154v-232q0 -17 1 -42h198q14 0 14 14v317h154z" />
    <glyph glyph-name="uniFEBA" unicode="&#x635;" horiz-adv-x="1370" arabic-form="final" 
d="M757 337q129 136 303 136q123 0 205 -74q76 -69 76 -175v-23q0 -24 1 -72h32v-129h-20l-37 47h-3q-37 -47 -97 -47h-462q-12 -115 -94 -177q-80 -62 -204 -62h-88q-126 0 -206 63q-94 74 -94 214v153l78 62h76v-196q0 -92 42.5 -129.5t147.5 -37.5q104 0 146 36
q44 38 44 131v403h155zM1187 207q-1 77 -68 113q-38 21 -81 21q-54 0 -108 -28q-104 -54 -174 -184h417q14 0 14 14v64z" />
    <glyph glyph-name="uniFEBB" unicode="&#x635;" horiz-adv-x="969" arabic-form="initial" 
d="M329 337q130 136 302 136q124 0 206 -75q77 -69 77 -174v-100q0 -47 -31 -82q-37 -42 -93 -42h-794v129h180v331h154zM760 207q0 40 -23 76q-45 58 -126 58q-76 0 -148 -54q-78 -57 -134 -158h416q15 0 15 14v64z" />
    <glyph glyph-name="uniFEBC" unicode="&#x635;" horiz-adv-x="943" arabic-form="medial" 
d="M330 337q127 136 300 136q124 0 207 -74q77 -69 77 -175v-56q0 -12 1 -39h31v-129h-19l-38 46h-2q-38 -46 -97 -46h-794v129h180v331h154v-123zM760 207q-1 65 -52 103q-42 31 -97 31q-120 0 -220 -118q-6 -10 -21 -31q-28 -41 -41 -63h416q15 0 15 14v64z" />
    <glyph glyph-name="uniFEBE" unicode="&#x636;" horiz-adv-x="1370" arabic-form="final" 
d="M992 680q33 0 55.5 -22.5t22.5 -55.5q0 -32 -22.5 -55t-55.5 -23q-32 0 -55 23t-23 55t23 55t55 23zM757 337q129 136 303 136q123 0 205 -74q76 -69 76 -175v-23q0 -24 1 -72h32v-129h-20l-37 47h-3q-37 -47 -97 -47h-462q-12 -115 -94 -177q-80 -62 -204 -62h-88
q-126 0 -206 63q-94 74 -94 214v153l78 62h76v-196q0 -92 42.5 -129.5t147.5 -37.5q104 0 146 36q44 38 44 131v403h155zM1187 207q-1 77 -68 113q-38 21 -81 21q-54 0 -108 -28q-104 -54 -174 -184h417q14 0 14 14v64z" />
    <glyph glyph-name="uniFEBF" unicode="&#x636;" horiz-adv-x="969" arabic-form="initial" 
d="M565 680q32 0 55 -22.5t23 -55.5q0 -32 -23 -55t-55 -23q-33 0 -55.5 23t-22.5 55t22.5 55t55.5 23zM329 337q130 136 302 136q124 0 206 -75q77 -69 77 -174v-100q0 -47 -31 -82q-37 -42 -93 -42h-794v129h180v331h154zM760 207q0 40 -23 76q-45 58 -126 58
q-76 0 -148 -54q-78 -57 -134 -158h416q15 0 15 14v64z" />
    <glyph glyph-name="uniFEC0" unicode="&#x636;" horiz-adv-x="943" arabic-form="medial" 
d="M565 680q32 0 55 -22.5t23 -55.5q0 -32 -23 -55t-55 -23q-33 0 -55.5 23t-22.5 55t22.5 55t55.5 23zM330 337q127 136 300 136q124 0 207 -74q77 -69 77 -175v-56q0 -12 1 -39h31v-129h-19l-38 46h-2q-38 -46 -97 -46h-794v129h180v331h154v-123zM760 207q-1 65 -52 103
q-42 31 -97 31q-120 0 -220 -118q-6 -10 -21 -31q-28 -41 -41 -63h416q15 0 15 14v64z" />
    <glyph glyph-name="uniFEC2" unicode="&#x637;" horiz-adv-x="937" arabic-form="final" 
d="M324 716v-379q125 136 299 136q125 0 208 -74q77 -69 77 -175v-69q0 -10 1 -26h31v-129h-19l-37 46h-3q-38 -46 -97 -46h-666l-63 78v51h115v587h154zM754 207q-1 76 -66 113q-37 21 -83 21q-59 0 -121 -35q-97 -57 -161 -177h417q14 0 14 14v64z" />
    <glyph glyph-name="uniFEC3" unicode="&#x637;" horiz-adv-x="969" arabic-form="initial" 
d="M330 716l-1 -379q127 136 301 136q125 0 207 -74q77 -69 77 -175v-100q0 -59 -46 -97q-35 -27 -78 -27h-794v129h180v587h154zM760 207q0 42 -24 77q-44 57 -125 57q-71 0 -139 -47q-85 -59 -143 -165h416q15 0 15 14v64z" />
    <glyph glyph-name="uniFEC4" unicode="&#x637;" horiz-adv-x="943" arabic-form="medial" 
d="M330 716l-1 -379q126 136 299 136q126 0 209 -74q77 -69 77 -175v-61v-34h32v-129h-19l-38 46h-2q-38 -46 -97 -46h-794v129h180v587h154zM760 207q-1 67 -56 105q-40 29 -93 29q-64 0 -128 -40q-89 -55 -154 -172h416q15 0 15 14v64z" />
    <glyph glyph-name="uniFEC6" unicode="&#x638;" horiz-adv-x="937" arabic-form="final" 
d="M324 716v-379q125 136 299 136q125 0 208 -74q77 -69 77 -175v-69q0 -10 1 -26h31v-129h-19l-37 46h-3q-38 -46 -97 -46h-666l-63 78v51h115v587h154zM560 680q32 0 54.5 -22.5t22.5 -55.5q0 -32 -22.5 -55t-54.5 -23q-33 0 -56 23t-23 55t23 55t56 23zM754 207
q-1 76 -66 113q-37 21 -83 21q-59 0 -121 -35q-97 -57 -161 -177h417q14 0 14 14v64z" />
    <glyph glyph-name="uniFEC7" unicode="&#x638;" horiz-adv-x="969" arabic-form="initial" 
d="M330 716l-1 -379q127 136 301 136q125 0 207 -74q77 -69 77 -175v-100q0 -59 -46 -97q-35 -27 -78 -27h-794v129h180v587h154zM565 680q32 0 55 -22.5t23 -55.5q0 -32 -23 -55t-55 -23q-33 0 -55.5 23t-22.5 55t22.5 55t55.5 23zM760 207q0 42 -24 77q-44 57 -125 57
q-71 0 -139 -47q-85 -59 -143 -165h416q15 0 15 14v64z" />
    <glyph glyph-name="uniFEC8" unicode="&#x638;" horiz-adv-x="943" arabic-form="medial" 
d="M330 716l-1 -379q126 136 299 136q126 0 209 -74q77 -69 77 -175v-61v-34h32v-129h-19l-38 46h-2q-38 -46 -97 -46h-794v129h180v587h154zM565 680q32 0 55 -22.5t23 -55.5q0 -32 -23 -55t-55 -23q-33 0 -55.5 23t-22.5 55t22.5 55t55.5 23zM760 207q-1 67 -56 105
q-40 29 -93 29q-64 0 -128 -40q-89 -55 -154 -172h416q15 0 15 14v64z" />
    <glyph glyph-name="uniFECA" unicode="&#x639;" horiz-adv-x="635" arabic-form="final" 
d="M83 273q37 110 130 160q66 37 152 37q82 0 149 -44q80 -51 115 -153l-13 -31q-22 -13 -60 -49q-36 -36 -54 -64h137v-129h-236q-23 0 -45 24h-5q-22 -25 -61 -28q-15 -1 -26 -4q-57 -20 -57 -114q0 -127 181 -127q60 0 113 17v-54l-65 -80q-37 -12 -80 -12
q-141 0 -224 75q-79 72 -79 192q0 77 38 134q41 60 121 89q-14 33 -47 68q-41 46 -72 62zM469 279q-14 36 -55 52q-25 10 -55 10q-39 0 -70 -14q-35 -16 -47 -48q19 -12 57 -55q41 -48 54 -78h5q15 35 59 83q33 38 52 50z" />
    <glyph glyph-name="uniFECB" unicode="&#x639;" horiz-adv-x="642" arabic-form="initial" 
d="M181 129q-9 17 -18 42q-13 43 -13 81q0 108 83 170q67 50 161 50h3h5q59 0 116 -17v-122q-54 11 -97 11q-117 0 -117 -105q0 -46 21 -76q26 -34 88 -34h187v-51l-62 -78h-542v129h185z" />
    <glyph glyph-name="uniFECC" unicode="&#x639;" horiz-adv-x="688" arabic-form="medial" 
d="M135 273q37 110 130 160q66 37 153 37q82 0 148 -44q80 -51 115 -153l-12 -31q-23 -13 -61 -49q-36 -36 -53 -64h136v-129h-235q-24 0 -46 24h-4q-22 -24 -49 -24h-361v129h265q-16 28 -52 62q-39 39 -62 51zM522 279q-15 36 -56 52q-25 10 -55 10q-39 0 -70 -14
q-35 -16 -47 -48q20 -12 57 -55q42 -48 54 -78h6q14 35 59 83q33 38 52 50z" />
    <glyph glyph-name="uniFECE" unicode="&#x63a;" horiz-adv-x="635" arabic-form="final" 
d="M354 680q33 0 55.5 -22.5t22.5 -55.5q0 -32 -22.5 -55t-55.5 -23q-32 0 -55 23t-23 55t23 55t55 23zM83 273q37 110 130 160q66 37 152 37q82 0 149 -44q80 -51 115 -153l-13 -31q-22 -13 -60 -49q-36 -36 -54 -64h137v-129h-236q-23 0 -45 24h-5q-22 -25 -61 -28
q-15 -1 -26 -4q-57 -20 -57 -114q0 -127 181 -127q60 0 113 17v-54l-65 -80q-37 -12 -79 -12q-142 0 -225 75q-79 71 -79 192q0 77 38 135q41 59 121 88q-14 33 -47 68q-41 46 -72 62zM469 279q-14 36 -55 52q-26 10 -55 10q-39 0 -70 -14q-35 -17 -47 -48q19 -12 57 -55
q41 -48 54 -78h5q15 35 59 83q33 38 52 50z" />
    <glyph glyph-name="uniFECF" unicode="&#x63a;" horiz-adv-x="642" arabic-form="initial" 
d="M373 680q33 0 55.5 -22.5t22.5 -55.5q0 -32 -23 -55t-55 -23t-55 23t-23 55t22.5 55t55.5 23zM181 129q-9 17 -18 42q-13 43 -13 81q0 108 83 170q67 50 161 50h3h5q59 0 116 -17v-122q-54 11 -97 11q-117 0 -117 -105q0 -46 21 -76q26 -34 88 -34h187v-51l-62 -78h-542
v129h185z" />
    <glyph glyph-name="uniFED0" unicode="&#x63a;" horiz-adv-x="688" arabic-form="medial" 
d="M408 680q33 0 55.5 -22.5t22.5 -55.5q0 -32 -22.5 -55t-55.5 -23q-32 0 -55 23t-23 55t23 55t55 23zM135 273q37 110 130 160q66 37 153 37q82 0 148 -44q80 -51 115 -153l-12 -31q-23 -13 -61 -49q-36 -36 -53 -64h136v-129h-235q-24 0 -46 24h-4q-22 -24 -49 -24h-361
v129h265q-16 28 -52 62q-39 39 -62 51zM522 279q-15 36 -56 52q-25 10 -55 10q-39 0 -70 -14q-35 -16 -47 -48q20 -12 57 -55q42 -48 54 -78h6q14 35 59 83q33 38 52 50z" />
    <glyph glyph-name="uniFED2" unicode="&#x641;" horiz-adv-x="1035" arabic-form="final" 
d="M800 680q32 0 54.5 -22.5t22.5 -55.5t-22.5 -55.5t-54.5 -22.5q-33 0 -56 23t-23 55t23 55t56 23zM602 129q-29 60 -29 123q0 97 67 160q65 60 160 60q99 0 164 -66q62 -62 62 -154q0 -66 -29 -123h42v-129h-144q-62 0 -93 18h-6q-31 -18 -94 -18h-405q-81 0 -138 59
q-53 56 -53 135v131l78 63h76v-194q0 -25 15 -43q18 -22 46 -22h281zM799 131q74 16 74 107q0 40 -16 70q-23 35 -58 35q-32 0 -53 -29q-22 -30 -22 -76q0 -92 75 -107z" />
    <glyph glyph-name="uniFED3" unicode="&#x641;" horiz-adv-x="650" arabic-form="initial" 
d="M384 680q32 0 54.5 -22.5t22.5 -55.5q0 -32 -22.5 -55t-54.5 -23q-33 0 -56 23t-23 55t23 55t56 23zM177 129q-12 29 -18 53q-9 33 -9 70q0 73 39 127q68 93 194 93q90 0 148 -49q63 -53 63 -138v-161q0 -44 -28 -79q-38 -45 -96 -45h-474v129h181zM440 284q0 31 -24 48
q-16 11 -33 11q-49 0 -70 -45q-11 -25 -11 -60q0 -67 41 -95q24 -14 62 -14h21q14 0 14 14v141z" />
    <glyph glyph-name="uniFED4" unicode="&#x641;" horiz-adv-x="624" arabic-form="medial" 
d="M376 680q32 0 55 -22.5t23 -55.5t-23 -55.5t-55 -22.5q-33 0 -55.5 23t-22.5 55t22.5 55t55.5 23zM179 129q-29 58 -29 123q0 60 27 110q30 51 83 80.5t117 29.5q96 0 162 -64q65 -63 65 -156q0 -66 -29 -123h53v-129h-156q-62 0 -93 18h-6q-31 -18 -94 -18h-283v129h183
zM376 131q75 15 75 107q-1 46 -21.5 75.5t-53.5 29.5q-32 0 -53 -30t-21 -75q0 -91 74 -107z" />
    <glyph glyph-name="uniFED6" unicode="&#x642;" horiz-adv-x="785" arabic-form="final" 
d="M456 680q33 0 55.5 -22.5t22.5 -55.5q0 -32 -22.5 -55t-55.5 -23q-32 0 -55 23t-23 55t23 55t55 23zM635 680q33 0 55.5 -22.5t22.5 -55.5q0 -32 -22.5 -55t-55.5 -23q-32 0 -55 23t-23 55t23 55t55 23zM539 0q-116 0 -180 85q-47 65 -47 168q0 79 48 139q69 80 186 80
q76 0 132 -36q79 -52 79 -151v-156h32v-129h-34q-11 -103 -79 -166q-83 -73 -219 -73h-88q-150 0 -232 87q-68 72 -68 190v84l78 63h76v-128q0 -91 43 -129t147 -38q89 0 130.5 24.5t54.5 85.5h-59zM603 284q0 28 -20 45q-16 14 -37 14q-28 0 -49 -17q-34 -28 -34 -87
q0 -43 21 -72q28 -38 88 -38h31v155z" />
    <glyph glyph-name="uniFED7" unicode="&#x642;" horiz-adv-x="650" arabic-form="initial" 
d="M294 680q32 0 55 -22.5t23 -55.5q0 -32 -23 -55t-55 -23q-33 0 -55.5 23t-22.5 55t22.5 55t55.5 23zM473 680q32 0 55 -22.5t23 -55.5q0 -32 -23 -55t-55 -23q-33 0 -55.5 23t-22.5 55t22.5 55t55.5 23zM177 129q-12 29 -18 53q-9 33 -9 70q0 73 39 127q68 93 194 93
q90 0 148 -49q63 -53 63 -138v-161q0 -44 -28 -79q-38 -45 -96 -45h-474v129h181zM440 284q0 31 -24 48q-16 11 -33 11q-49 0 -70 -45q-11 -25 -11 -60q0 -67 41 -95q24 -14 62 -14h21q14 0 14 14v141z" />
    <glyph glyph-name="uniFED8" unicode="&#x642;" horiz-adv-x="624" arabic-form="medial" 
d="M286 680q33 0 55.5 -22.5t22.5 -55.5q0 -32 -23 -55t-55 -23t-55 23t-23 55t22.5 55t55.5 23zM465 680q33 0 55.5 -22.5t22.5 -55.5q0 -32 -23 -55t-55 -23t-55 23t-23 55t22.5 55t55.5 23zM179 129q-29 58 -29 123q0 60 27 110q30 51 83 80.5t117 29.5q96 0 162 -64
q65 -63 65 -156q0 -66 -29 -123h53v-129h-156q-62 0 -93 18h-6q-31 -18 -94 -18h-283v129h183zM376 131q75 15 75 107q-1 46 -21.5 75.5t-53.5 29.5q-32 0 -53 -30t-21 -75q0 -91 74 -107z" />
    <glyph glyph-name="uniFEDA" unicode="&#x643;" horiz-adv-x="981" arabic-form="final" 
d="M934 716v-578q0 -4 1 -9h50v-129h-38l-37 46h-3q-38 -46 -97 -46h-550q-79 0 -135 56q-56 57 -56 138v131l78 63h76v-194q0 -26 16 -44q18 -21 45 -21h481q7 0 11 4q4 3 4 10v573h154zM423 388q-12 21 -16 43q-2 8 -3 22v3q0 56 36 89t96 33q32 0 60 -7v-68q-22 6 -41 6
q-59 0 -59 -59q0 -22 10 -38q17 -24 55 -24h89v-29l-36 -45h-261v74h70z" />
    <glyph glyph-name="uniFEDB" unicode="&#x643;" horiz-adv-x="611" arabic-form="initial" 
d="M494 731v-145l-172 -108q106 -52 172 -152q61 -92 61 -190q0 -59 -35 -97.5t-90 -38.5h-434v129h389q14 0 14 15q0 78 -75 147q-88 78 -197 87q-9 1 -9 10v125z" />
    <glyph glyph-name="uniFEDC" unicode="&#x643;" horiz-adv-x="584" arabic-form="medial" 
d="M494 730v-144l-171 -109q97 -47 156 -129q65 -89 75 -200l1 -19h32v-129h-20l-37 46h-3q-38 -46 -97 -46h-434v129h389q14 0 14 15q0 62 -61 131q-86 94 -211 103q-9 1 -9 9v125z" />
    <glyph glyph-name="uniFEDE" unicode="&#x644;" horiz-adv-x="804" arabic-form="final" 
d="M757 716v-587h51v-129h-53q-11 -110 -89 -174q-82 -65 -209 -65h-88q-148 0 -231 85q-69 73 -69 192v153l78 62h76v-196q0 -92 43 -129.5t147 -37.5t146 36q44 39 44 131v659h154z" />
    <glyph glyph-name="uniFEDF" unicode="&#x644;" horiz-adv-x="399" arabic-form="initial" 
d="M330 716v-592q0 -44 -28 -79q-38 -45 -97 -45h-209v129h165q6 0 10 3q5 4 5 11v573h154z" />
    <glyph glyph-name="uniFEE0" unicode="&#x644;" horiz-adv-x="377" arabic-form="medial" 
d="M330 716v-578q0 -4 1 -9h49v-129h-32l-43 46h-2q-38 -46 -98 -46h-209v129h165q6 0 9 3q6 4 6 11v573h154z" />
    <glyph glyph-name="uniFEE2" unicode="&#x645;" horiz-adv-x="606" arabic-form="final" 
d="M162 129q-30 61 -30 126q0 100 75 163q64 54 152 54q98 0 157 -50q61 -51 61 -137v-142q0 -7 5 -10q4 -4 11 -4h16v-129h-61q-37 0 -60 14q-12 7 -32 26q-15 -16 -37 -25q-34 -15 -76 -15h-120q-14 0 -14 -14v-297l-78 -62h-76v379q0 45 29 79q38 44 84 44h-6zM423 284
q0 27 -18 44q-16 15 -38 15q-83 0 -83 -105q0 -53 26 -83.5t71 -30.5q17 0 42 5v155z" />
    <glyph glyph-name="uniFEE3" unicode="&#x645;" horiz-adv-x="667" arabic-form="initial" 
d="M176 285q0 85 62 138q56 48 154 48q84 0 142 -42q87 -63 87 -191q0 -115 -56 -192q-57 -76 -151 -76q-81 0 -128 60q-36 -30 -81 -30h-209v129h165q7 0 11 4q4 5 4 10v142zM330 129q23 -29 59 -29t58 34t22 90q0 60 -23 91q-22 28 -60 28q-25 0 -42 -18q-14 -18 -14 -41
v-155z" />
    <glyph glyph-name="uniFEE4" unicode="&#x645;" horiz-adv-x="624" arabic-form="medial" 
d="M158 129q-9 45 -9 109q0 116 76 181q62 52 151 52q100 0 157 -48q62 -53 62 -138v-142q0 -6 4 -10q5 -4 12 -4h16v-129h-61q-46 0 -82 30q-47 -60 -130 -60q-81 0 -139 63h-4l-26 -33h-189v129h162zM441 284q0 23 -15 41q-17 18 -46 18q-37 0 -58 -29.5t-21 -81.5
q0 -133 72 -133q35 0 68 30v155z" />
    <glyph glyph-name="uniFEE6" unicode="&#x646;" horiz-adv-x="804" arabic-form="final" 
d="M405 472q33 0 55.5 -22.5t22.5 -55.5t-23 -55.5t-55 -22.5t-55 23t-23 55t22.5 55t55.5 23zM752 460v-331h51v-129h-53q-11 -116 -96 -180q-80 -59 -202 -59h-88q-142 0 -224 78q-76 73 -76 199v153l78 62h76v-196q0 -92 43 -129.5t147 -37.5t146 36q44 39 44 131v403
h154z" />
    <glyph glyph-name="uniFEE7" unicode="&#x646;" horiz-adv-x="399" arabic-form="initial" 
d="M252 680q33 0 55.5 -22.5t22.5 -55.5q0 -32 -22.5 -55t-55.5 -23q-32 0 -55 23t-23 55t23 55t55 23zM330 460v-336q0 -44 -29 -79q-38 -45 -96 -45h-209v129h165q6 0 10 3q5 4 5 11v317h154z" />
    <glyph glyph-name="uniFEE8" unicode="&#x646;" horiz-adv-x="377" arabic-form="medial" 
d="M252 680q33 0 55.5 -22.5t22.5 -55.5q0 -32 -22.5 -55t-55.5 -23q-32 0 -55 23t-23 55t23 55t55 23zM330 460v-322q0 -4 1 -9h49v-129h-31l-44 46h-2q-38 -46 -98 -46h-209v129h160q9 0 14 6q6 5 6 14v311h154z" />
    <glyph glyph-name="uniFEEA" unicode="&#x647;" horiz-adv-x="548" arabic-form="final" 
d="M501 487v-344q0 -6 4 -10t12 -4h34v-129h-79q-51 0 -93 40q-49 -49 -118 -49h-1h-2q-100 0 -157 83q-46 65 -46 155q0 110 70 182q63 65 157 65q51 0 101 -21l41 32h77zM346 336q-24 6 -45 6q-44 0 -69 -30t-25 -83q0 -50 27.5 -82t71.5 -32q17 0 40 5v216z" />
    <glyph glyph-name="uniFEEB" unicode="&#x647;" horiz-adv-x="808" arabic-form="initial" 
d="M239 449q114 50 222 50q137 0 219 -85q72 -75 72 -194v-96q0 -58 -43 -94q-35 -30 -81 -30h-245q-46 0 -69 14h-5q-23 -14 -69 -14h-244v129h167q-12 23 -16 42q-6 22 -6 49q0 54 30 95q26 35 68 54v80zM598 203q0 93 -52 140q-45 41 -124 41q-26 0 -62 -4q54 -16 88 -59
q35 -44 35 -101q0 -26 -7 -51q-9 -28 -15 -40h123q6 0 11 5q3 3 3 9v60zM311 147q27 6 38 27q9 15 9 41q0 27 -14 48q-14 18 -34 18q-21 0 -34 -19.5t-13 -50.5q0 -53 48 -64z" />
    <glyph glyph-name="uniFEEC" unicode="&#x647;" horiz-adv-x="775" arabic-form="medial" 
d="M239 449q110 49 219 49q136 0 216 -84q72 -75 72 -194v-59q0 -10 1 -32h32v-129h-20l-37 46h-3q-14 -16 -30 -26q-30 -20 -65 -20h-258q-30 0 -52 14h-5q-23 -14 -69 -14h-244v129h167q-12 23 -16 42q-6 22 -6 49q0 56 33 99q24 32 65 50v80zM592 203q0 180 -175 180
q-25 0 -57 -3q52 -16 87 -59q36 -43 36 -101q0 -27 -7 -51q-8 -26 -15 -40h117q6 0 10 3q4 4 4 11v60zM311 147q47 9 47 68q0 29 -14 48q-14 18 -34 18t-33.5 -19.5t-13.5 -48.5q0 -56 48 -66z" />
    <glyph glyph-name="uniFEEE" unicode="&#x648;" horiz-adv-x="529" arabic-form="final" 
d="M282 0q-106 0 -171 75q-56 64 -56 153q0 113 59 174q69 70 176 70q77 0 130 -35q80 -53 80 -152v-156h32v-129h-33q-12 -110 -88 -172q-46 -39 -114 -56q-46 -12 -97 -12q-22 0 -46 3l-67 82v54q46 -10 88 -10q140 0 166 111h-59zM346 284q0 31 -23 48q-15 11 -34 11
q-37 0 -59.5 -28.5t-22.5 -75.5q0 -110 109 -110h30v155z" />
    <glyph glyph-name="uniFEEF" unicode="&#x649;" horiz-adv-x="795" arabic-form="isolated" 
d="M223 57q0 -95 46.5 -132t165.5 -37q161 0 161 84q0 25 -17.5 38t-77.5 32q-94 30 -136.5 81t-42.5 135q0 111 74 168q60 46 159 46q64 0 118 -17v-115q-50 12 -87 12q-52 0 -83.5 -25t-31.5 -66q0 -39 20.5 -58.5t94.5 -49.5q85 -36 119 -68q45 -43 45 -109
q0 -118 -107 -175q-76 -40 -186 -40h-88q-109 0 -187 48q-113 73 -113 229v74l78 62h76v-117z" />
    <glyph glyph-name="uniFEF0" unicode="&#x649;" horiz-adv-x="706" arabic-form="final" 
d="M223 174v-117q0 -92 43 -129.5t147 -37.5q89 0 130.5 24.5t54.5 85.5h-50l-66 82v47h322v-129h-49q-13 -128 -113 -191q-77 -48 -185 -48h-88q-125 0 -205 62q-95 74 -95 215v74l78 62h76z" />
    <glyph glyph-name="uniFEF2" unicode="&#x64a;" horiz-adv-x="706" arabic-form="final" 
d="M223 174v-117q0 -92 43 -129.5t147 -37.5q89 0 130.5 24.5t54.5 85.5h-50l-66 82v47h322v-129h-49q-13 -128 -113 -191q-77 -48 -185 -48h-88q-125 0 -205 62q-95 74 -95 215v74l78 62h76zM318 -297q32 0 55 -23t23 -56q0 -32 -23 -54.5t-55 -22.5q-33 0 -55.5 22.5
t-22.5 54.5q0 33 22.5 56t55.5 23zM497 -297q32 0 55 -23t23 -56q0 -32 -23 -54.5t-55 -22.5q-33 0 -55.5 22.5t-22.5 54.5q0 33 22.5 56t55.5 23z" />
    <glyph glyph-name="uniFEF3" unicode="&#x64a;" horiz-adv-x="401" arabic-form="initial" 
d="M330 460v-336q0 -44 -29 -79q-38 -45 -96 -45h-209v129h165q6 0 10 3q5 4 5 11v317h154zM77 -46q32 0 55 -23t23 -56q0 -32 -23 -55t-55 -23q-33 0 -55.5 23t-22.5 55q0 33 22.5 56t55.5 23zM256 -46q32 0 55 -23t23 -56q0 -32 -23 -55t-55 -23q-33 0 -55.5 23t-22.5 55
q0 33 22.5 56t55.5 23z" />
    <glyph glyph-name="uniFEF4" unicode="&#x64a;" horiz-adv-x="377" arabic-form="medial" 
d="M330 460v-322q0 -4 1 -9h50v-129h-31l-44 46h-3q-37 -46 -97 -46h-209v129h159q10 0 15 6q5 5 5 14v311h154zM72 -46q33 0 56 -23t23 -56q0 -32 -23 -55t-56 -23q-32 0 -55 23t-23 55q0 33 23 56t55 23zM251 -46q33 0 56 -23t23 -56q0 -32 -23 -55t-56 -23
q-32 0 -54.5 23t-22.5 55q0 33 22.5 56t54.5 23z" />
    <glyph glyph-name=".notdef" horiz-adv-x="184" 
d="M18 0v716h148v-716h-148zM148 18v680h-112v-680h112z" />
    <glyph glyph-name="glyph1" 
 />
    <glyph glyph-name="glyph2" horiz-adv-x="184" 
 />
    <glyph glyph-name="space" unicode=" " horiz-adv-x="184" 
 />
    <glyph glyph-name="exclam" unicode="!" horiz-adv-x="257" 
d="M189 716v-491l-65 -53h-63v544h128zM129 151q33 0 55.5 -22.5t22.5 -54.5q0 -33 -22.5 -56t-55.5 -23q-32 0 -55 23t-23 56q0 32 23 54.5t55 22.5z" />
    <glyph glyph-name="quotedbl" unicode="&#x22;" horiz-adv-x="455" 
d="M198 716v-174l-67 -54h-62v228h129zM386 716v-174l-67 -54h-62v228h129z" />
    <glyph glyph-name="numbersign" unicode="#" horiz-adv-x="609" 
d="M517 672l-35 -183h107v-104h-127l-20 -99h115v-103h-134l-35 -183h-107l35 183h-83l-35 -183h-104l33 183h-106v103h126l19 99h-112v104h131l35 183h106l-34 -183h85l35 183h105zM357 385h-85l-20 -99h85z" />
    <glyph glyph-name="dollar" unicode="$" horiz-adv-x="646" 
d="M356 716v-68q26 -2 67 -15.5t57 -24.5v-118q-72 29 -124 33v-120q115 -42 155 -81q43 -43 43 -110q0 -73 -49 -119q-53 -48 -149 -56v-92h-63v90q-76 4 -138 25l-63 78v50q47 -15 99 -25q49 -8 102 -10v133q-1 1 -15 6q-99 38 -138 80q-42 44 -42 108q0 71 52 115
q51 43 143 52v69h63zM293 431v92q-22 -2 -31 -10q-12 -9 -12 -29q0 -14 6 -25q10 -17 37 -28zM356 261v-102q16 2 25 6q20 13 20 43q0 19 -11 30q-8 10 -34 23z" />
    <glyph glyph-name="percent" unicode="%" horiz-adv-x="854" 
d="M190 695q82 0 128 -61q44 -58 44 -150t-45 -147q-44 -55 -126 -55q-86 0 -131 58q-42 54 -42 143q0 90 42 150q45 62 130 62zM679 673l-396 -673h-120l396 673h120zM190 621q-39 0 -56 -48q-12 -44 -12 -90q0 -53 15 -89q17 -38 53 -38q37 0 54 40q13 38 13 87
q0 39 -11 87q-18 51 -56 51zM663 387q81 0 127 -61q45 -57 45 -150t-45 -147q-44 -55 -127 -55q-85 0 -130 58q-42 53 -42 143q0 91 42 150q46 62 130 62zM663 313q-38 0 -55 -48q-12 -41 -12 -90q0 -53 14 -89q16 -38 53 -38q36 0 53 40q15 39 15 87q0 41 -12 87
q-18 51 -56 51z" />
    <glyph glyph-name="ampersand" unicode="&#x26;" horiz-adv-x="738" 
d="M683 330q-8 -88 -94 -156l150 -174h-208l-50 61q-97 -76 -198 -76q-104 0 -167 61q-65 64 -65 156q0 67 38.5 122t107.5 88q-62 72 -62 139q0 81 67 132q58 44 140 44q93 0 151 -58q50 -50 50 -123q0 -116 -123 -177l75 -90q29 19 42 51h146zM337 467q65 40 65 87
q0 25 -16.5 41t-42.5 16q-25 0 -41.5 -15.5t-16.5 -38.5q0 -37 52 -90zM286 300q-70 -40 -70 -94q0 -33 21 -56.5t51 -23.5q54 0 102 49z" />
    <glyph glyph-name="quotesingle" unicode="'" horiz-adv-x="267" 
d="M198 716v-174l-67 -54h-62v228h129z" />
    <glyph glyph-name="parenleft" unicode="(" horiz-adv-x="355" 
d="M254 716l56 -45q-52 -81 -77 -178q-25 -92 -25 -191q0 -111 33 -215q23 -71 69 -149l-56 -44h-41q-70 80 -105 188q-34 103 -34 219q0 117 34 222q35 110 105 193h41z" />
    <glyph glyph-name="parenright" unicode=")" horiz-adv-x="355" 
d="M101 716h42q70 -83 105 -193q34 -104 34 -222q0 -116 -34 -219q-35 -108 -105 -188h-42l-55 44q46 77 69 149q33 104 33 215q0 99 -25 191q-26 97 -77 178z" />
    <glyph glyph-name="asterisk" unicode="*" horiz-adv-x="644" 
d="M526 534l-127 -41l80 -105l-81 -60l-78 110l-77 -110l-81 60l82 105l-126 41l32 95l123 -47l-3 134h103l-4 -134l123 47z" />
    <glyph glyph-name="plus" unicode="+" horiz-adv-x="534" 
d="M213 26v165h-167v109h167v168h108v-168h166v-109h-166v-165h-108z" />
    <glyph glyph-name="comma" unicode="," horiz-adv-x="265" 
d="M112 -2q-61 12 -61 75q0 33 22.5 55.5t54.5 22.5q35 0 57.5 -25t22.5 -63q0 -83 -75 -167h-42l-24 20q20 29 30 49q11 22 15 33z" />
    <glyph glyph-name="hyphen" unicode="-" horiz-adv-x="321" 
d="M284 320v-129h-247v129h247z" />
    <glyph glyph-name="period" unicode="." horiz-adv-x="257" 
d="M129 151q33 0 55.5 -22.5t22.5 -54.5q0 -33 -22.5 -56t-55.5 -23q-32 0 -55 23t-23 56q0 32 23 54.5t55 22.5z" />
    <glyph glyph-name="slash" unicode="/" horiz-adv-x="409" 
d="M399 673l-251 -673h-139l251 673h139z" />
    <glyph glyph-name="zero" unicode="0" horiz-adv-x="574" 
d="M538 348q0 -157 -60 -254q-66 -107 -190 -107q-125 0 -190 104q-61 98 -61 257q0 161 61 267q65 114 188 114q140 0 207 -147q45 -100 45 -234zM285 114q56 0 78 74q22 72 22 159q0 82 -17 159q-21 96 -82 96q-57 0 -77 -90q-18 -76 -18 -165q0 -93 22 -164
q22 -69 72 -69z" />
    <glyph glyph-name="one" unicode="1" horiz-adv-x="434" 
d="M365 716v-649l-78 -67h-76v538l-109 -90l-70 88l208 180h125z" />
    <glyph glyph-name="two" unicode="2" horiz-adv-x="503" 
d="M58 661q95 63 194 63q103 0 157 -63q46 -53 46 -141q0 -57 -27 -112.5t-99 -144.5q-42 -54 -47 -58l-73 -76h261v-50l-62 -79h-376v129l71 68l65 70q89 94 120.5 145t31.5 100q0 76 -94 76q-45 0 -94 -33z" />
    <glyph glyph-name="three" unicode="3" horiz-adv-x="520" 
d="M84 696q84 29 139 29q106 0 173 -57q64 -55 64 -143q0 -122 -124 -161q72 -16 112 -60t40 -107q0 -102 -86 -160q-67 -46 -158 -47h-12q-66 0 -133 14l-44 55v61q78 -14 126 -14q153 0 152 91q0 47 -38 76q-26 20 -60.5 27.5t-107.5 8.5v117h115q32 0 50.5 21t18.5 55
q0 89 -111 89q-45 0 -116 -22v127z" />
    <glyph glyph-name="four" unicode="4" horiz-adv-x="541" 
d="M443 716v-426h75v-128h-75v-92l-78 -70h-70v162h-272v100l279 454h141zM295 514l-133 -224h133v224z" />
    <glyph glyph-name="five" unicode="5" horiz-adv-x="517" 
d="M426 716v-129h-210l-7 -137q17 1 30 1q121 0 185 -73q56 -63 56 -170q0 -110 -86 -168q-68 -46 -169 -46q-66 0 -133 14l-44 55v61q78 -14 126 -14q85 0 119 24t34 85q0 63 -31 89.5t-104 26.5q-39 0 -120 -10q-11 -2 -18 -2l22 393h350z" />
    <glyph glyph-name="six" unicode="6" horiz-adv-x="557" 
d="M177 364q65 68 145 68q98 0 153 -66q48 -56 48 -142q0 -116 -65 -177q-58 -55 -158 -55q-128 0 -195 89q-54 72 -54 184v20q0 189 67 304q76 129 224 129q34 0 78 -14l49 -90v-22q-5 0 -27 4q-49 7 -77 7q-94 0 -138.5 -56.5t-49.5 -182.5zM281 314q-37 0 -58.5 -23.5
t-21.5 -63.5q0 -112 89 -112q36 0 59 28.5t23 74.5q0 44 -24.5 70t-66.5 26z" />
    <glyph glyph-name="seven" unicode="7" horiz-adv-x="531" 
d="M501 716v-96l-216 -560l-75 -60h-114l234 587h-300v129h471z" />
    <glyph glyph-name="eight" unicode="8" horiz-adv-x="561" 
d="M186 370q-120 69 -120 179q0 96 74 143q56 36 144 36q95 0 155 -50q58 -48 58 -128q0 -109 -125 -181q69 -34 100 -65q47 -49 47 -121q0 -101 -83 -154q-65 -42 -156 -42q-106 0 -173 55q-66 53 -66 142q0 104 145 186zM285 431q58 42 58 118q0 67 -61 67q-26 0 -41 -12
q-21 -17 -21 -56q0 -33 16 -63q15 -29 49 -54zM282 314q-89 -47 -89 -121q0 -82 89 -81q90 0 90 80q0 72 -90 122z" />
    <glyph glyph-name="nine" unicode="9" horiz-adv-x="537" 
d="M370 346q-26 -32 -54 -48q-40 -23 -87 -23q-95 0 -148 70q-44 57 -44 141q0 117 64 179q57 57 158 57q111 0 175 -82q62 -78 62 -245q0 -174 -46 -268q-56 -113 -183 -133q-18 -2 -35 -2q-42 0 -93 12l-44 55v65q41 -15 89 -15q111 0 156 75q15 25 20.5 55t9.5 107z
M348 485q0 112 -77 112q-84 0 -84 -103q0 -45 22.5 -72t59.5 -27q33 0 56 26.5t23 63.5z" />
    <glyph glyph-name="colon" unicode=":" horiz-adv-x="257" 
d="M129 381q33 0 55.5 -23t22.5 -55q0 -33 -22.5 -55.5t-55.5 -22.5q-32 0 -55 22.5t-23 55.5q0 32 23 55t55 23zM129 151q32 0 55 -22.5t23 -54.5q0 -33 -23 -56t-55 -23t-55 23t-23 56q0 32 22.5 54.5t55.5 22.5z" />
    <glyph glyph-name="semicolon" unicode=";" horiz-adv-x="265" 
d="M112 -2q-61 12 -61 75q0 33 22 55.5t55 22.5q35 0 57.5 -25t22.5 -63q0 -83 -75 -167h-42l-24 20q20 29 30 49q11 22 15 33zM128 224q-33 0 -55.5 23t-22.5 56q0 32 22.5 55t55.5 23q32 0 55 -23t23 -55q0 -33 -23 -56t-55 -23z" />
    <glyph glyph-name="less" unicode="&#x3c;" horiz-adv-x="524" 
d="M482 593v-119l-286 -141l286 -125v-119l-441 204v70z" />
    <glyph glyph-name="equal" unicode="=" horiz-adv-x="534" 
d="M487 274h-441v108h441v-108zM487 97h-441v109h441v-109z" />
    <glyph glyph-name="greater" unicode="&#x3e;" horiz-adv-x="524" 
d="M41 593l441 -230v-70l-441 -204v119l286 125l-286 141v119z" />
    <glyph glyph-name="question" unicode="?" horiz-adv-x="601" 
d="M46 483q6 128 85 194q69 57 182 57q120 0 191 -66q60 -58 60 -146q0 -60 -27.5 -97t-110.5 -86q-36 -22 -46 -57q-3 -11 -4 -44h-159l1 52q1 57 32 96q16 20 65 52q40 27 52.5 43.5t12.5 43.5q0 28 -19.5 45.5t-50.5 17.5q-83 0 -87 -105h-177zM301 157q32 0 55 -22.5
t23 -54.5q0 -33 -23 -56t-55 -23q-33 0 -55.5 23t-22.5 56q0 32 22.5 54.5t55.5 22.5z" />
    <glyph glyph-name="at" unicode="@" horiz-adv-x="821" 
d="M489 -44q-55 -15 -110 -15q-166 0 -257 123q-74 100 -74 251q0 167 118 275q103 94 247 94q169 0 269 -100q91 -91 91 -236q0 -99 -49 -172t-130 -73q-58 0 -106 47q-36 -46 -98 -46q-84 0 -130 69q-36 55 -36 130q0 92 59 147q52 49 130 49q42 0 77 -12l31 24h64v-270
q0 -30 25 -30q28 0 44.5 32.5t16.5 86.5q0 130 -78 199q-67 59 -181 59q-97 0 -168 -69q-84 -80 -84 -208q0 -155 115 -241q48 -29 130 -29h4q7 -1 10 -1q72 0 121 20v-41zM461 392q-22 5 -39 5q-36 0 -57 -25.5t-21 -69.5q0 -45 21 -72.5t57 -27.5q17 0 39 9v181z" />
    <glyph glyph-name="A" unicode="A" horiz-adv-x="718" 
d="M454 716l268 -716h-194l-46 131h-248l-46 -131h-192l268 716h190zM439 265l-34 97q-30 88 -46 161q-20 -78 -49 -163l-33 -95h162z" />
    <glyph glyph-name="B" unicode="B" horiz-adv-x="730" 
d="M66 716h344q105 0 159 -27q92 -46 92 -153q0 -97 -94 -145q42 -15 62 -31q66 -50 66 -146q0 -119 -96 -177q-61 -37 -167 -37h-366v716zM253 573v-139h133q93 0 93 69q0 70 -98 70h-128zM253 312v-165h147q106 0 106 82q0 83 -110 83h-143z" />
    <glyph glyph-name="C" unicode="C" horiz-adv-x="746" 
d="M722 279q-7 -112 -77 -193q-89 -104 -254 -104q-176 0 -273 122q-83 103 -83 255q0 157 95 264q99 111 267 111q140 0 233 -87q80 -75 87 -184h-182q-11 49 -34 74q-39 43 -107 43q-84 0 -130 -67q-39 -59 -39 -155q0 -111 50 -170q44 -52 117 -52q75 0 114 55
q21 30 29 88h187z" />
    <glyph glyph-name="D" unicode="D" horiz-adv-x="760" 
d="M66 716h306q157 0 245 -80q109 -98 109 -273q0 -181 -102 -280q-85 -83 -253 -83h-305v716zM253 562v-408h103q88 0 130 45q50 55 50 158q0 117 -69 170q-47 35 -124 35h-90z" />
    <glyph glyph-name="E" unicode="E" horiz-adv-x="688" 
d="M639 716v-154h-386v-119h353v-147h-353v-142h395v-154h-582v716h573z" />
    <glyph glyph-name="F" unicode="F" horiz-adv-x="613" 
d="M595 716v-154h-342v-140h296v-146h-296v-276h-187v716h529z" />
    <glyph glyph-name="G" unicode="G" horiz-adv-x="779" 
d="M724 389v-389h-120q-10 46 -10 66v5v7q-76 -96 -215 -96q-165 0 -261 117q-83 102 -83 257q0 180 114 286q99 92 249 92q136 0 226 -82q78 -71 89 -179h-181q-24 107 -137 107q-82 0 -126 -58.5t-44 -167.5q0 -218 178 -218q131 0 150 120h-130v133h301z" />
    <glyph glyph-name="H" unicode="H" horiz-adv-x="748" 
d="M683 716v-716h-187v296h-243v-296h-187v716h187v-259h243v259h187z" />
    <glyph glyph-name="I" unicode="I" horiz-adv-x="318" 
d="M253 716v-716h-187v716h187z" />
    <glyph glyph-name="J" unicode="J" horiz-adv-x="562" 
d="M507 716v-479q0 -116 -51 -177q-67 -78 -198 -78q-157 0 -219 106q-33 57 -33 165v31h171v-19q0 -75 12 -97q17 -32 63 -32q37 0 52.5 21t15.5 72v487h187z" />
    <glyph glyph-name="K" unicode="K" horiz-adv-x="736" 
d="M722 716l-266 -281l299 -435h-232l-193 300l-77 -79v-221h-187v716h187v-179v-53v-49q39 54 66 85l172 196h231z" />
    <glyph glyph-name="L" unicode="L" horiz-adv-x="617" 
d="M589 161v-161h-523v716h187v-555h336z" />
    <glyph glyph-name="M" unicode="M" horiz-adv-x="932" 
d="M867 716v-716h-177v161q0 155 9 384q-38 -161 -77 -284l-83 -261h-143l-84 254q-37 111 -78 291q9 -204 9 -360v-185h-177v716h268l77 -249q34 -109 58 -249q33 160 61 253l73 245h264z" />
    <glyph glyph-name="N" unicode="N" horiz-adv-x="751" 
d="M687 716v-716h-182l-193 325l-41 73q-11 18 -30 61q7 -79 7 -182v-277h-182v716h189l178 -303q52 -90 80 -150q-8 105 -8 185v268h182z" />
    <glyph glyph-name="O" unicode="O" horiz-adv-x="777" 
d="M391 734q167 0 266 -118q85 -103 85 -258q0 -179 -110 -284q-96 -92 -241 -92q-170 0 -270 118q-86 102 -86 258q0 179 106 280q102 96 250 96zM390 580q-81 0 -126 -68q-39 -58 -39 -153q0 -111 50 -171q44 -52 116 -52q76 0 119 59.5t43 166.5q0 109 -50 167
q-43 51 -113 51z" />
    <glyph glyph-name="P" unicode="P" horiz-adv-x="690" 
d="M66 716h295q142 0 205 -43q98 -66 98 -200q0 -109 -74 -176q-64 -58 -189 -58h-148v-239h-187v716zM253 562v-176h123q106 0 106 88q0 86 -113 87z" />
    <glyph glyph-name="Q" unicode="Q" horiz-adv-x="774" 
d="M650 105l94 -103l-91 -83l-97 106l-3 3l-3 -2q-68 -44 -169 -44q-164 0 -262 118q-84 102 -84 257q0 176 114 283q98 94 242 94q162 0 262 -119q86 -103 86 -252q-1 -167 -89 -258zM527 239q22 42 23 120q0 111 -49 170q-42 51 -113 51q-76 0 -119.5 -59t-43.5 -162
q0 -108 49 -170q44 -53 112 -53q27 0 50 8l15 5l-1 1l-84 87l89 82z" />
    <glyph glyph-name="R" unicode="R" horiz-adv-x="749" 
d="M64 716h353q109 0 166 -34q97 -57 97 -173q0 -60 -30 -107t-81 -68q45 -12 72 -54q18 -28 24.5 -57.5t15.5 -133.5q7 -66 18 -82l6 -7h-191q-9 21 -21 150q-8 65 -36 90.5t-91 25.5h-115v-266h-187v716zM251 569v-169h132q113 0 113 86q0 83 -115 83h-130z" />
    <glyph glyph-name="S" unicode="S" horiz-adv-x="674" 
d="M614 501h-178q-4 88 -115 88q-97 0 -97 -63q0 -29 26 -42q22 -11 141 -41q113 -29 164 -61q88 -54 88 -162q0 -118 -93 -182q-81 -56 -213 -56q-160 0 -244 77q-74 67 -76 182h188q6 -114 139 -114q109 0 109 73q0 34 -28.5 50.5t-141.5 48.5q-137 39 -184 79
q-55 47 -55 136q0 106 88 167q77 53 197 53q143 0 218 -69q65 -60 67 -164z" />
    <glyph glyph-name="T" unicode="T" horiz-adv-x="648" 
d="M630 716v-161h-214v-555h-186v555h-213v161h613z" />
    <glyph glyph-name="U" unicode="U" horiz-adv-x="733" 
d="M678 716v-426q0 -143 -59 -214q-78 -94 -252 -94q-185 0 -263 106q-49 67 -49 204v424h187v-438q0 -75 30.5 -108.5t98.5 -33.5q63 0 92 33.5t29 108.5v438h186z" />
    <glyph glyph-name="V" unicode="V" horiz-adv-x="667" 
d="M671 716l-233 -716h-215l-227 716h196l65 -208q55 -175 76 -324q23 150 77 323l65 209h196z" />
    <glyph glyph-name="W" unicode="W" horiz-adv-x="964" 
d="M967 716l-197 -716h-187l-56 241q-15 61 -30 158q-10 61 -17 97q-5 -31 -15 -95q-11 -76 -29 -157l-54 -244h-190l-195 716h188l54 -231q32 -141 50 -292q20 155 50 289l54 234h178l50 -220q35 -156 53 -303q21 169 56 314l49 209h188z" />
    <glyph glyph-name="X" unicode="X" horiz-adv-x="700" 
d="M687 716l-229 -339l254 -377h-227l-88 143q-29 47 -51 97q-20 -45 -54 -99l-89 -141h-216l256 377l-234 339h220l71 -118q32 -53 54 -103q22 50 50 95l75 126h208z" />
    <glyph glyph-name="Y" unicode="Y" horiz-adv-x="665" 
d="M690 716l-264 -447v-269h-187v269l-263 447h212l83 -152q34 -62 63 -138q35 89 68 149l79 141h209z" />
    <glyph glyph-name="Z" unicode="Z" horiz-adv-x="669" 
d="M633 716v-144l-276 -314q-23 -26 -97 -102q100 5 149 5h238v-161h-623v151l290 331q21 25 78 75h-21q-31 -1 -42 -1q-59 -1 -69 -1h-214v161h587z" />
    <glyph glyph-name="bracketleft" unicode="[" horiz-adv-x="372" 
d="M303 716v-111h-101v-596h101v-111h-234v818h234z" />
    <glyph glyph-name="backslash" unicode="\" horiz-adv-x="409" 
d="M148 673l251 -673h-139l-251 673h139z" />
    <glyph glyph-name="bracketright" unicode="]" horiz-adv-x="372" 
d="M303 716v-818h-234v111h101v596h-101v111h234z" />
    <glyph glyph-name="asciicircum" unicode="^" horiz-adv-x="537" 
d="M174 368h-163l155 353h206l155 -353h-163l-95 228z" />
    <glyph glyph-name="underscore" unicode="_" horiz-adv-x="384" 
d="M387 -85v-64h-391v64h391z" />
    <glyph glyph-name="grave" unicode="`" horiz-adv-x="537" 
d="M93 735h178l87 -144h-107z" />
    <glyph glyph-name="a" unicode="a" horiz-adv-x="587" 
d="M559 0h-173q-8 25 -9 49q-48 -63 -170 -63q-91 0 -140 48q-43 42 -43 111q0 95 84 134q36 16 148 37l118 22v31q-2 57 -79 57q-42 0 -61.5 -14.5t-25.5 -51.5h-161q9 173 250 173q128 0 192 -46q30 -23 41 -51.5t11 -86.5q0 -10 -1 -62v-11l-1 -86v-47t-1 -38v-22
q0 -56 21 -83zM376 237l-78 -17q-61 -14 -81 -28t-20 -42q0 -61 69 -61q58 0 90 41q18 22 19 70z" />
    <glyph glyph-name="b" unicode="b" horiz-adv-x="632" 
d="M229 716v-257q61 76 152 76q107 0 168 -84q53 -72 53 -185q0 -136 -72 -213q-63 -67 -161 -67q-90 0 -146 75v-61h-164v716h170zM327 401q-47 0 -75 -37t-28 -99q0 -65 27.5 -102.5t76.5 -37.5q47 0 74.5 37.5t27.5 102.5q0 62 -28 99t-75 37z" />
    <glyph glyph-name="c" unicode="c" horiz-adv-x="588" 
d="M563 204q-15 -111 -92 -168q-67 -50 -168 -50q-132 0 -208 84q-66 73 -66 185q0 135 85 211q75 67 190 67q117 0 187 -62q62 -55 68 -140h-165q-13 78 -87 78q-105 0 -105 -153q0 -143 102 -143q81 0 95 91h164z" />
    <glyph glyph-name="d" unicode="d" horiz-adv-x="632" 
d="M574 716v-716h-171v61q-45 -75 -141 -75q-112 0 -176 85q-55 75 -55 192q0 131 69 205q60 66 153 66q97 0 150 -75v257h171zM306 401q-49 0 -75.5 -36.5t-26.5 -102.5q0 -137 102 -137q49 0 76.5 36.5t27.5 100.5q0 65 -28 102t-76 37z" />
    <glyph glyph-name="e" unicode="e" horiz-adv-x="610" 
d="M572 159q-12 -46 -46 -85q-77 -88 -213 -88q-123 0 -199 68q-85 76 -85 201q0 131 88 210q76 68 189 68q137 0 211 -90q65 -79 65 -207v-16h-386q2 -56 33 -87.5t84 -31.5q65 0 99 58h160zM415 317q-13 101 -107 101q-95 0 -110 -101h217z" />
    <glyph glyph-name="f" unicode="f" horiz-adv-x="367" 
d="M360 714v-120q-25 2 -44 2q-40 0 -52 -9t-12 -37v-31h101v-112h-101v-407h-171v407h-82v112h82v24q0 93 46.5 133.5t152.5 40.5q28 0 80 -3z" />
    <glyph glyph-name="g" unicode="g" horiz-adv-x="622" 
d="M564 519v-450q0 -105 -35 -158q-64 -95 -227 -95q-233 0 -254 167h170q16 -57 86 -57q53 0 74.5 26t21.5 90v57q-54 -73 -150 -73q-108 0 -167 77q-52 67 -52 174q0 124 69 195q60 61 154 61q93 0 146 -80v66h164zM300 404q-47 0 -74.5 -33.5t-27.5 -91.5
q0 -59 27.5 -93.5t75.5 -34.5q47 0 74.5 34t27.5 93t-27.5 92.5t-75.5 33.5z" />
    <glyph glyph-name="h" unicode="h" horiz-adv-x="632" 
d="M229 716v-265q61 82 164 82q105 0 154 -70q31 -46 31 -136v-327h-170v296q0 51 -16 71q-22 27 -66 27q-57 0 -83 -46q-14 -24 -14 -88v-260h-170v716h170z" />
    <glyph glyph-name="i" unicode="i" horiz-adv-x="287" 
d="M229 519v-519h-170v519h170zM144 735q32 0 55 -22.5t23 -55.5q0 -32 -23 -55t-55 -23q-33 0 -55.5 23t-22.5 55q0 33 22.5 55.5t55.5 22.5z" />
    <glyph glyph-name="j" unicode="j" horiz-adv-x="287" 
d="M229 519v-513q0 -72 -15 -108q-34 -76 -172 -76q-25 0 -71 2v136q9 1 37 1q40 1 47 28q4 13 4 83v447h170zM143 735q33 0 56 -22.5t23 -55.5q0 -32 -23 -55t-56 -23q-32 0 -54.5 23t-22.5 55q0 33 22.5 55.5t54.5 22.5z" />
    <glyph glyph-name="k" unicode="k" horiz-adv-x="600" 
d="M584 519l-191 -194l217 -325h-204l-129 210l-48 -44v-166h-170v716h170v-374q20 30 37 48l121 129h197z" />
    <glyph glyph-name="l" unicode="l" horiz-adv-x="287" 
d="M229 716v-716h-170v716h170z" />
    <glyph glyph-name="m" unicode="m" horiz-adv-x="929" 
d="M223 519v-69q58 83 160 83q103 0 146 -83q63 83 165 83q90 0 139 -56q42 -50 42 -132v-345h-170v301q0 93 -72 93q-49 0 -70 -40q-11 -21 -11 -69v-285h-170v308q0 86 -69 86q-84 0 -84 -109v-285h-170v519h164z" />
    <glyph glyph-name="n" unicode="n" horiz-adv-x="630" 
d="M223 519v-69q62 83 170 83q104 0 152 -69q31 -46 31 -142v-322h-171v294q0 41 -8 61q-16 39 -71 39q-60 0 -84 -46q-13 -24 -13 -71v-277h-170v519h164z" />
    <glyph glyph-name="o" unicode="o" horiz-adv-x="607" 
d="M304 -14q-131 0 -208 86q-67 75 -67 188q0 130 86 207q75 66 188 66q132 0 209 -85q66 -73 66 -187q0 -131 -86 -208q-75 -67 -188 -67zM302 409q-48 0 -74 -39t-26 -110q0 -150 102 -150t102 151q0 148 -104 148z" />
    <glyph glyph-name="p" unicode="p" horiz-adv-x="632" 
d="M223 519v-61q55 75 152 75q109 0 172 -86q55 -75 55 -191q0 -131 -69 -206q-59 -64 -152 -64q-95 0 -152 74v-235h-170v694h164zM327 394q-49 0 -76 -36.5t-27 -102.5q0 -65 27 -101t76 -36q102 0 102 137q0 139 -102 139z" />
    <glyph glyph-name="q" unicode="q" horiz-adv-x="632" 
d="M574 519v-694h-170v236q-57 -76 -150 -76q-109 0 -170 84q-53 72 -53 186q0 135 71 211q61 67 157 67q101 0 151 -74v60h164zM304 394q-48 0 -74 -37.5t-26 -104.5q0 -134 101 -134q104 0 104 138t-105 138z" />
    <glyph glyph-name="r" unicode="r" horiz-adv-x="439" 
d="M430 522l-1 -140q-37 11 -70 11q-130 0 -130 -167v-226h-170v519h164v-89q30 103 167 103q16 0 40 -11z" />
    <glyph glyph-name="s" unicode="s" horiz-adv-x="545" 
d="M504 373h-157q-4 30 -23.5 42.5t-63.5 12.5q-68 0 -68 -42q0 -22 21.5 -32t99.5 -25q113 -22 158.5 -58.5t45.5 -105.5q0 -90 -75 -138q-66 -41 -175 -41q-138 0 -204 65q-32 32 -41.5 50.5t-12.5 60.5h167q4 -36 24.5 -50.5t68.5 -14.5q80 0 80 53q0 23 -19 33.5
t-90 26.5q-111 24 -151 46q-64 36 -64 116q0 78 62 119.5t176 41.5q141 0 201 -67q36 -39 40 -93z" />
    <glyph glyph-name="t" unicode="t" horiz-adv-x="376" 
d="M372 519v-112h-123v-214q0 -72 65 -72q38 0 60 15l30 -122q-49 -21 -143 -21q-116 0 -155 50q-17 22 -22 48t-5 86v230h-87v112h87v110l170 89v-199h123z" />
    <glyph glyph-name="u" unicode="u" horiz-adv-x="630" 
d="M572 519v-519h-171v70q-49 -84 -162 -84q-99 0 -149 65q-35 45 -35 143v325h170v-277q0 -67 13 -86q20 -31 68 -31q59 0 84 49q11 23 11 84v261h171z" />
    <glyph glyph-name="v" unicode="v" horiz-adv-x="530" 
d="M538 519l-172 -519h-198l-176 519h180l53 -180q30 -98 43 -187q11 71 42 179l56 188h172z" />
    <glyph glyph-name="w" unicode="w" horiz-adv-x="824" 
d="M830 519l-162 -519h-173l-51 198q-18 69 -33 172q-17 -108 -33 -172l-49 -198h-173l-163 519h176l46 -172q21 -78 40 -197q20 125 39 204l39 165h158l44 -183q22 -89 36 -186q17 112 36 183l49 186h174z" />
    <glyph glyph-name="x" unicode="x" horiz-adv-x="521" 
d="M516 519l-164 -244l185 -275h-187l-56 87q-10 17 -33 70q-20 -43 -38 -71l-53 -86h-187l182 275l-165 244h188l40 -65q9 -13 33 -63q27 51 37 68l36 60h182z" />
    <glyph glyph-name="y" unicode="y" horiz-adv-x="539" 
d="M546 519l-188 -524q-39 -108 -84 -142t-148 -34q-55 0 -125 12l27 135q22 -8 57 -8q55 0 70 23q16 23 16 51q0 6 -3 13l-177 474h181l72 -230q13 -43 28 -121q20 89 32 127l68 224h174z" />
    <glyph glyph-name="z" unicode="z" horiz-adv-x="533" 
d="M502 519v-129l-180 -189q-11 -11 -40 -35q-18 -15 -46 -37q23 -2 33 -2l50 2h203v-129h-497v129l176 181q20 21 93 80h-24h-37h-187v129h456z" />
    <glyph glyph-name="braceleft" unicode="{" horiz-adv-x="382" 
d="M277 718l58 -73v-42q-19 -1 -30 -3q-8 -3 -16 -9q-22 -15 -22 -52v-126q-4 -86 -108 -102v-6q108 -16 108 -97v-5v-126q0 -63 64 -63h4v-43l-58 -73q-3 1 -9 1q-15 2 -22 3q-45 7 -72 25q-40 27 -40 98v142q0 82 -118 82v117q118 0 118 77v5v143q0 70 40 98q27 18 71 24
q7 2 25 4q5 0 7 1z" />
    <glyph glyph-name="bar" unicode="|" horiz-adv-x="223" 
d="M69 688h85v-660h-85v660z" />
    <glyph glyph-name="braceright" unicode="}" horiz-adv-x="382" 
d="M46 645l58 73q3 -1 11 -2q14 -1 20 -3q46 -6 72 -24q41 -28 41 -98v-143q-1 -3 -1 -5q0 -77 118 -77v-117q-117 0 -117 -82v-142q0 -71 -41 -98q-27 -18 -76 -26q-9 -1 -26 -3l-59 73v43h5q64 0 64 63v126v5q0 81 107 97v6q-104 16 -107 102v126q0 37 -22 52
q-10 7 -24 10q-11 2 -23 2v42z" />
    <glyph glyph-name="asciitilde" unicode="~" horiz-adv-x="716" 
d="M188 230l-89 75q61 155 165 155q33 0 119 -35q61 -24 77 -24q38 0 70 62l90 -75q-35 -84 -73 -119t-96 -35q-35 0 -120 36q-53 22 -75 22q-35 0 -68 -62z" />
    <glyph glyph-name="nonbreakingspace" unicode="&#xa0;" horiz-adv-x="184" 
 />
    <glyph glyph-name="exclamdown" unicode="&#xa1;" horiz-adv-x="360" 
d="M211 281l47 -298v-180h-178v177l47 301h84zM162 516q32 0 55 -22.5t23 -55.5q0 -32 -23 -55t-55 -23q-33 0 -55.5 23t-22.5 55q0 33 22.5 55.5t55.5 22.5z" />
    <glyph glyph-name="cent" unicode="&#xa2;" horiz-adv-x="582" 
d="M366 683v-76q29 0 69 -9q39 -9 58 -18l-43 -112q-21 10 -46 17q-28 7 -49 7q-59 0 -83 -38q-22 -33 -22 -108q0 -144 110 -144q25 0 57 7q17 3 52 13q7 2 12 3v-60l-63 -78q-3 0 -13 -1q-26 -2 -39 -2v-93h-87v95q-90 12 -136 71q-51 64 -51 185q0 124 51 190
q46 59 136 71v80h87z" />
    <glyph glyph-name="sterling" unicode="&#xa3;" horiz-adv-x="661" 
d="M173 489q0 104 55 155q49 44 139 44q49 0 75.5 -7.5t67.5 -32.5v-114q-74 29 -129 29q-25 0 -40 -13q-16 -17 -16 -58v-99h149v-110h-149v-41q0 -64 -14 -93q33 8 78 8q102 0 179 -33v-57l-53 -67q-82 26 -189 26q-106 0 -234 -26v123q40 20 60 43q21 26 21 75v42h-80
v110h80v96z" />
    <glyph glyph-name="currency" unicode="&#xa4;" horiz-adv-x="552" 
d="M114 422l-59 58l74 73l59 -58q40 23 87 23q46 0 89 -24l58 59l75 -71l-59 -59q23 -42 23 -90q0 -47 -23 -90l57 -57l-73 -73l-58 58q-44 -22 -89 -22q-53 0 -89 21l-57 -56l-73 73l58 57q-23 43 -23 89q0 45 23 89zM195 333q0 -33 24 -57t56 -24q34 0 59 24q24 23 24 57
q0 35 -24 58q-25 23 -59 23q-32 0 -56 -23q-24 -25 -24 -58z" />
    <glyph glyph-name="yen" unicode="&#xa5;" horiz-adv-x="534" 
d="M507 673l-145 -342h84v-86h-106v-61h106v-87h-106v-38l-74 -59h-70v97h-109v87h109v61h-109v86h83l-142 342h137l102 -261l104 261h136z" />
    <glyph glyph-name="brokenbar" unicode="&#xa6;" horiz-adv-x="223" 
d="M69 412v276h85v-276h-85zM154 304v-276h-85v276h85z" />
    <glyph glyph-name="section" unicode="&#xa7;" horiz-adv-x="644" 
d="M542 525h-141q-3 69 -69 69q-61 0 -61 -51q0 -21 16 -34.5t72 -39.5q126 -60 160 -82q73 -48 73 -127q0 -50 -26 -88t-72 -55q50 -46 50 -110q0 -88 -69 -138q-59 -44 -151 -44q-109 0 -170 58q-52 51 -52 133v6v4h141q7 -75 80 -75q66 0 66 56q0 28 -23 45.5t-114 57.5
q-125 55 -156 89q-42 46 -42 107q0 107 103 142q-40 43 -40 98q0 79 68 128q60 42 146 42q100 0 158 -59q51 -52 53 -132zM412 187q41 11 41 51q0 18 -11.5 29.5t-48.5 29.5l-30 15q-92 49 -128 60q-42 -7 -42 -50q0 -22 23.5 -38t123.5 -65l12 -6q17 -8 20 -10
q23 -11 40 -16z" />
    <glyph glyph-name="dieresis" unicode="&#xa8;" horiz-adv-x="537" 
d="M143 735q32 0 55 -22.5t23 -55.5q0 -32 -23 -55t-55 -23q-33 0 -55.5 23t-22.5 55q0 33 22.5 55.5t55.5 22.5zM335 735q33 0 56 -22.5t23 -55.5q0 -32 -23 -55t-56 -23q-32 0 -54.5 23t-22.5 55q0 33 22.5 55.5t54.5 22.5z" />
    <glyph glyph-name="copyright" unicode="&#xa9;" horiz-adv-x="784" 
d="M392 683q93 0 175 -47q78 -46 124 -125q47 -82 47 -175q0 -92 -47 -174q-45 -78 -124 -124q-81 -47 -175 -47t-174 47q-80 46 -125 124q-47 81 -47 174q0 94 47 175q46 79 125 125q81 47 174 47zM392 614q-115 0 -195 -81q-82 -82 -82 -197q0 -114 82 -195
q81 -82 195 -82q115 0 196 82q81 80 81 195q0 116 -81 197q-80 81 -196 81zM480 128q-26 -8 -70 -8q-98 0 -149 60q-51 57 -51 157t48 156q51 60 147 60q68 0 146 -38l-36 -82q-52 27 -103 27q-34 0 -56 -22q-32 -33 -32 -102q0 -84 41 -112q20 -11 47 -11q25 0 51 5
q36 7 66 23v-51z" />
    <glyph glyph-name="ordfeminine" unicode="&#xaa;" horiz-adv-x="429" 
d="M366 429h-105q-3 12 -5 24q-38 -31 -93 -31q-50 0 -78.5 23.5t-28.5 65.5q0 53 50 75q12 5 46 11q16 3 28 5l75 15q0 25 -9 34t-33 9q-42 0 -48 -36h-96q4 100 144 100q74 0 110 -26q31 -22 31 -75q0 -8 -1 -41v-47v-25q0 -51 13 -81zM255 560l-45 -10
q-30 -7 -40.5 -14.5t-10.5 -22.5q0 -30 37 -30q55 0 58 58zM385 301h-341v64h341v-64z" />
    <glyph glyph-name="guillemotleft" unicode="&#xab;" horiz-adv-x="582" 
d="M232 475l63 -52l-103 -156l103 -157l-63 -52h-58l-137 202v13l137 202h58zM483 475l63 -52l-103 -156l103 -157l-63 -52h-58l-137 202v13l137 202h58z" />
    <glyph glyph-name="logicalnot" unicode="&#xac;" horiz-adv-x="537" 
d="M320 0v154h-284v162h465v-316h-181z" />
    <glyph glyph-name="uni00AD" unicode="&#xad;" horiz-adv-x="272" 
d="M272 339v-149h-272v149h272z" />
    <glyph glyph-name="registered" unicode="&#xae;" horiz-adv-x="784" 
d="M392 683q93 0 175 -47q78 -46 124 -125q47 -82 47 -175q0 -92 -47 -174q-45 -78 -124 -124q-81 -47 -175 -47t-174 47q-80 46 -125 124q-47 81 -47 174q0 94 47 175q46 79 125 125q81 47 174 47zM392 614q-115 0 -195 -81q-82 -82 -82 -197q0 -114 82 -195
q81 -82 195 -82q115 0 196 82q81 80 81 195q0 116 -81 197q-80 81 -196 81zM240 539h170q60 0 101 -40t41 -98q0 -70 -64 -102l68 -129l-44 -37h-46l-75 147h-42v-147h-109v406zM394 463h-45v-108h44q28 0 45 18q11 13 11 31q0 27 -12 43q-14 16 -43 16z" />
    <glyph glyph-name="macron" unicode="&#xaf;" horiz-adv-x="537" 
d="M433 829v-83h-329v83h329z" />
    <glyph glyph-name="degree" unicode="&#xb0;" horiz-adv-x="408" 
d="M41 520q0 67 47 115q49 48 116 48q68 0 116 -48q46 -48 46 -115q0 -68 -46 -115q-48 -47 -116 -47q-67 0 -116 47q-47 47 -47 115zM137 520q0 -31 19 -54q21 -23 48 -23t47 23q21 24 21 54q0 31 -21 55q-19 23 -47 23t-48 -23q-19 -23 -19 -55z" />
    <glyph glyph-name="plusminus" unicode="&#xb1;" horiz-adv-x="644" 
d="M61 319v118h203v202h117v-202h203v-118h-203v-174h-117v174h-203zM61 0v117h523v-117h-523z" />
    <glyph glyph-name="twosuperior" unicode="&#xb2;" horiz-adv-x="437" 
d="M402 379v-93h-372v8q0 69 50 116q33 31 139 92q34 20 46 34t12 33q0 47 -58 47q-64 0 -67 -83h-112v10q0 80 48 124.5t135 44.5q83 0 131 -42q42 -36 42 -91q0 -62 -56 -104q-18 -14 -83 -49t-82 -50q48 3 84 3h143z" />
    <glyph glyph-name="threesuperior" unicode="&#xb3;" horiz-adv-x="436" 
d="M39 563q2 71 48.5 110t129.5 39q84 0 131 -38q41 -32 41 -83q0 -55 -53 -79q69 -24 69 -93q0 -63 -51.5 -101t-136.5 -38q-99 0 -149 48q-41 41 -41 101q0 4 1 13h113v-2v-4q0 -65 72 -65q70 0 70 49q0 50 -76 50q-12 0 -31 -1v76q11 -2 21 -2q80 0 80 40q0 41 -60 41
q-64 0 -65 -61h-113z" />
    <glyph glyph-name="acute" unicode="&#xb4;" horiz-adv-x="537" 
d="M444 735l-157 -144h-108l88 144h177z" />
    <glyph glyph-name="mu" unicode="&#xb5;" horiz-adv-x="537" 
d="M27 -184v699h157v-263q0 -60 13 -85q26 -46 73 -46q84 0 84 134v260h157v-515h-157v64q-27 -74 -87 -74q-52 0 -83 61v-235h-157z" />
    <glyph glyph-name="paragraph" unicode="&#xb6;" horiz-adv-x="644" 
d="M257 -175v521h-14q-91 0 -144 57q-47 50 -47 126q0 112 89 159q52 28 157 28h273v-72h-49v-819h-92v819h-82v-819h-91z" />
    <glyph glyph-name="periodcentered" unicode="&#xb7;" horiz-adv-x="314" 
d="M249 439v-183h-185v183h185z" />
    <glyph glyph-name="cedilla" unicode="&#xb8;" horiz-adv-x="537" 
d="M302 0l-39 -64q26 5 41 5q40 0 64.5 -20.5t24.5 -53.5q0 -41 -34.5 -66.5t-89.5 -25.5q-59 0 -123 25l20 44q52 -18 86 -18q47 0 47 36t-44 36q-15 0 -38 -8l-23 22l57 88h51z" />
    <glyph glyph-name="onesuperior" unicode="&#xb9;" horiz-adv-x="437" 
d="M317 705v-419h-125v253h-58h-50v81q67 2 100 24q27 18 34 61h99z" />
    <glyph glyph-name="ordmasculine" unicode="&#xba;" horiz-adv-x="429" 
d="M385 301h-341v64h341v-64zM215 422q-76 0 -120 47q-39 42 -39 104q0 67 44 109t114 42q71 0 115 -41.5t44 -108.5q0 -68 -44 -110t-114 -42zM214 651q-54 0 -54 -78t55 -78q54 0 54 78t-55 78z" />
    <glyph glyph-name="guillemotright" unicode="&#xbb;" horiz-adv-x="579" 
d="M100 475h58l137 -202v-13l-137 -202h-58l-63 52l103 157l-103 156zM347 475h59l136 -202v-13l-136 -202h-59l-62 52l102 157l-103 156z" />
    <glyph glyph-name="onequarter" unicode="&#xbc;" horiz-adv-x="840" 
d="M267 673v-360l-60 -50h-60v277l-76 -55l-55 69l154 119h97zM673 673l-396 -673h-119l396 673h119zM775 406v-260h48v-78h-48v-28l-55 -40h-66v68h-190v62l200 276h111zM654 273l-93 -127h93v127z" />
    <glyph glyph-name="onehalf" unicode="&#xbd;" horiz-adv-x="874" 
d="M267 673v-360l-60 -50h-60v277l-76 -55l-55 69l154 119h97zM675 673l-397 -673h-119l396 673h120zM551 366q72 50 151 50q57 0 95 -33.5t38 -83.5q0 -55 -59 -110q-6 -5 -29 -26l-46 -40l-25 -22h175v-43l-50 -58h-267l1 92l56 47q28 24 62 53q14 11 19 16q51 49 51 78
q0 5 -1 10t-7 13q-2 2 -3 4q-15 14 -38 14q-19 0 -59 -25q-5 -3 -8 -5z" />
    <glyph glyph-name="threequarters" unicode="&#xbe;" horiz-adv-x="865" 
d="M39 670q52 16 86 16q68 0 111 -31.5t46 -83.5q-2 -27 -12 -45q-21 -34 -72 -46q42 -5 72 -32q31 -28 31 -64q0 -53 -46 -87.5t-117 -34.5q-57 0 -86 9l-36 40v43q53 -17 79 -17q52 0 73 20q13 12 13 32q0 25 -29 41t-76 16h-7v73h51q46 0 46 38q0 21 -19 33.5t-50 12.5
q-15 0 -58 -11v78zM697 673l-396 -673h-120l397 673h119zM801 406v-260h48v-78h-48v-28l-55 -40h-66v68h-190v62l199 276h112zM680 273l-92 -127h92v127z" />
    <glyph glyph-name="questiondown" unicode="&#xbf;" horiz-adv-x="599" 
d="M383 280v-16q0 -71 -22 -112q-17 -33 -77 -72q-38 -25 -51.5 -42.5t-13.5 -42.5q0 -28 20 -46.5t52 -18.5q86 0 86 104v2h176q-5 -126 -84 -193q-70 -58 -182 -58q-119 0 -190 67q-61 58 -61 145q0 74 48 119q28 25 92 65q46 28 49 99h158zM298 525q33 0 55.5 -22.5
t22.5 -55.5q0 -32 -22.5 -55t-55.5 -23q-32 0 -55 23t-23 55q0 33 23 55.5t55 22.5z" />
    <glyph glyph-name="Agrave" unicode="&#xc0;" horiz-adv-x="718" 
d="M454 716l268 -716h-194l-46 131h-248l-46 -131h-192l268 716h190zM439 265l-34 97q-30 88 -46 161q-20 -78 -49 -163l-33 -95h162zM147 918h193l101 -138h-122z" />
    <glyph glyph-name="Aacute" unicode="&#xc1;" horiz-adv-x="718" 
d="M454 716l268 -716h-194l-46 131h-248l-46 -131h-192l268 716h190zM439 265l-34 97q-30 88 -46 161q-20 -78 -49 -163l-33 -95h162zM567 918l-172 -138h-122l102 138h192z" />
    <glyph glyph-name="Acircumflex" unicode="&#xc2;" horiz-adv-x="718" 
d="M454 716l268 -716h-194l-46 131h-248l-46 -131h-192l268 716h190zM439 265l-34 97q-30 88 -46 161q-20 -78 -49 -163l-33 -95h162zM552 780h-130l-65 74l-65 -74h-126l119 138h149z" />
    <glyph glyph-name="Atilde" unicode="&#xc3;" horiz-adv-x="718" 
d="M454 716l268 -716h-194l-46 131h-248l-46 -131h-192l268 716h190zM439 265l-34 97q-30 88 -46 161q-20 -78 -49 -163l-33 -95h162zM556 916q-14 -67 -32 -91q-31 -41 -76 -41q-40 0 -103 24q-43 17 -58 17q-32 0 -41 -43h-77q16 131 113 131q31 0 118 -33q21 -8 36 -8
q35 0 42 44h78z" />
    <glyph glyph-name="Adieresis" unicode="&#xc4;" horiz-adv-x="718" 
d="M454 716l268 -716h-194l-46 131h-248l-46 -131h-192l268 716h190zM439 265l-34 97q-30 88 -46 161q-20 -78 -49 -163l-33 -95h162zM252 929q33 0 55.5 -22.5t22.5 -55.5q0 -32 -23 -55t-55 -23t-55 23t-23 55q0 33 22.5 55.5t55.5 22.5zM466 929q33 0 55.5 -22.5
t22.5 -55.5q0 -32 -22.5 -55t-55.5 -23q-32 0 -55 23t-23 55q0 33 23 55.5t55 22.5z" />
    <glyph glyph-name="Aring" unicode="&#xc5;" horiz-adv-x="718" 
d="M454 716l268 -716h-194l-46 131h-248l-46 -131h-192l268 716h190zM439 265l-34 97q-30 88 -46 161q-20 -78 -49 -163l-33 -95h162zM359 976q57 0 97 -31.5t40 -76.5t-40 -76.5t-97 -31.5t-97 31.5t-40 76.5t40 76.5t97 31.5zM359 921q-24 0 -41 -15.5t-17 -37.5t17 -37.5
t41 -15.5t41 15.5t17 37.5t-17 37.5t-41 15.5z" />
    <glyph glyph-name="AE" unicode="&#xc6;" horiz-adv-x="1020" 
d="M971 716v-154h-334v-119h312v-147h-312v-142h343v-154h-520v127h-220l-57 -127h-200l336 716h652zM460 261v307h-31l-133 -307h164z" />
    <glyph glyph-name="Ccedilla" unicode="&#xc7;" horiz-adv-x="746" 
d="M386 -18l-28 -45q27 6 42 6q39 0 64 -21t25 -54q0 -40 -35 -66t-89 -26q-59 0 -123 25l20 45q52 -19 85 -19q48 0 48 36q0 37 -44 37q-15 0 -39 -8l-22 21l49 72q-143 21 -221 119q-83 103 -83 255q0 157 95 264q99 111 267 111q140 0 233 -87q80 -75 87 -184h-182
q-11 49 -34 74q-39 43 -107 43q-84 0 -130 -67q-39 -59 -39 -155q0 -111 50 -170q44 -52 117 -52q75 0 114 55q21 30 29 88h187q-10 -148 -114 -229q-88 -68 -219 -68h-3z" />
    <glyph glyph-name="Egrave" unicode="&#xc8;" horiz-adv-x="688" 
d="M639 716v-154h-386v-119h353v-147h-353v-142h395v-154h-582v716h573zM154 918h192l102 -138h-123z" />
    <glyph glyph-name="Eacute" unicode="&#xc9;" horiz-adv-x="688" 
d="M639 716v-154h-386v-119h353v-147h-353v-142h395v-154h-582v716h573zM548 918l-171 -138h-123l102 138h192z" />
    <glyph glyph-name="Ecircumflex" unicode="&#xca;" horiz-adv-x="688" 
d="M639 716v-154h-386v-119h353v-147h-353v-142h395v-154h-582v716h573zM546 780h-130l-65 74l-65 -74h-126l119 138h149z" />
    <glyph glyph-name="Edieresis" unicode="&#xcb;" horiz-adv-x="688" 
d="M639 716v-154h-386v-119h353v-147h-353v-142h395v-154h-582v716h573zM243 929q32 0 55 -22.5t23 -55.5q0 -32 -23 -55t-55 -23q-33 0 -55.5 23t-22.5 55q0 33 22.5 55.5t55.5 22.5zM457 929q33 0 55.5 -22.5t22.5 -55.5q0 -32 -22.5 -55t-55.5 -23q-32 0 -55 23t-23 55
q0 33 23 55.5t55 22.5z" />
    <glyph glyph-name="Igrave" unicode="&#xcc;" horiz-adv-x="318" 
d="M252 716v-716h-187v716h187zM-31 918h189l87 -138h-119z" />
    <glyph glyph-name="Iacute" unicode="&#xcd;" horiz-adv-x="318" 
d="M253 716v-716h-187v716h187zM349 918l-157 -138h-119l87 138h189z" />
    <glyph glyph-name="Icircumflex" unicode="&#xce;" horiz-adv-x="318" 
d="M252 716v-716h-187v716h187zM337 780h-126l-54 74l-55 -74h-122l105 138h149z" />
    <glyph glyph-name="Idieresis" unicode="&#xcf;" horiz-adv-x="318" 
d="M253 716v-716h-187v716h187zM66 929q32 0 55 -22.5t23 -55.5q0 -32 -23 -55t-55 -23q-33 0 -55.5 23t-22.5 55q0 33 22.5 55.5t55.5 22.5zM256 929q33 0 55.5 -22.5t22.5 -55.5q0 -32 -23 -55t-55 -23t-55 23t-23 55q0 33 22.5 55.5t55.5 22.5z" />
    <glyph glyph-name="Eth" unicode="&#xd0;" horiz-adv-x="760" 
d="M66 716h305q157 0 246 -80q109 -98 109 -273q0 -181 -102 -280q-86 -83 -253 -83h-305v319h-61v107h61v290zM253 562v-136h157v-107h-157v-165h103q88 0 129 45q51 55 51 158q0 117 -69 170q-47 35 -125 35h-89z" />
    <glyph glyph-name="Ntilde" unicode="&#xd1;" horiz-adv-x="751" 
d="M687 716v-716h-182l-193 325l-41 73q-11 18 -30 61q7 -79 7 -182v-277h-182v716h189l178 -303q52 -90 80 -150q-8 105 -8 185v268h182zM577 916q-13 -67 -32 -91q-31 -41 -76 -41q-40 0 -103 24q-43 17 -58 17q-31 0 -41 -43h-77q16 131 113 131q32 0 118 -33
q21 -8 36 -8q35 0 42 44h78z" />
    <glyph glyph-name="Ograve" unicode="&#xd2;" horiz-adv-x="777" 
d="M391 734q167 0 266 -118q85 -103 85 -258q0 -179 -110 -284q-96 -92 -241 -92q-170 0 -270 118q-86 102 -86 258q0 179 106 280q102 96 250 96zM390 580q-81 0 -126 -68q-39 -58 -39 -153q0 -111 50 -171q44 -52 116 -52q76 0 119 59.5t43 166.5q0 109 -50 167
q-43 51 -113 51zM195 918h192l102 -138h-123z" />
    <glyph glyph-name="Oacute" unicode="&#xd3;" horiz-adv-x="777" 
d="M391 734q167 0 266 -118q85 -103 85 -258q0 -179 -110 -284q-96 -92 -241 -92q-170 0 -270 118q-86 102 -86 258q0 179 106 280q102 96 250 96zM390 580q-81 0 -126 -68q-39 -58 -39 -153q0 -111 50 -171q44 -52 116 -52q76 0 119 59.5t43 166.5q0 109 -50 167
q-43 51 -113 51zM586 918l-172 -138h-122l102 138h192z" />
    <glyph glyph-name="Ocircumflex" unicode="&#xd4;" horiz-adv-x="777" 
d="M391 734q167 0 266 -118q85 -103 85 -258q0 -179 -110 -284q-96 -92 -241 -92q-170 0 -270 118q-86 102 -86 258q0 179 106 280q102 96 250 96zM390 580q-81 0 -126 -68q-39 -58 -39 -153q0 -111 50 -171q44 -52 116 -52q76 0 119 59.5t43 166.5q0 109 -50 167
q-43 51 -113 51zM582 780h-130l-65 74l-65 -74h-126l119 138h149z" />
    <glyph glyph-name="Otilde" unicode="&#xd5;" horiz-adv-x="777" 
d="M391 734q167 0 266 -118q85 -103 85 -258q0 -179 -110 -284q-96 -92 -241 -92q-170 0 -270 118q-86 102 -86 258q0 179 106 280q102 96 250 96zM390 580q-81 0 -126 -68q-39 -58 -39 -153q0 -111 50 -171q44 -52 116 -52q76 0 119 59.5t43 166.5q0 109 -50 167
q-43 51 -113 51zM589 916q-13 -67 -32 -91q-31 -41 -76 -41q-40 0 -102 24q-44 17 -59 17q-31 0 -40 -43h-78q17 131 113 131q32 0 119 -33q20 -8 36 -8q35 0 41 44h78z" />
    <glyph glyph-name="Odieresis" unicode="&#xd6;" horiz-adv-x="777" 
d="M391 734q167 0 266 -118q85 -103 85 -258q0 -179 -110 -284q-96 -92 -241 -92q-170 0 -270 118q-86 102 -86 258q0 179 106 280q102 96 250 96zM390 580q-81 0 -126 -68q-39 -58 -39 -153q0 -111 50 -171q44 -52 116 -52q76 0 119 59.5t43 166.5q0 109 -50 167
q-43 51 -113 51zM284 929q32 0 55 -22.5t23 -55.5q0 -32 -23 -55t-55 -23q-33 0 -55.5 23t-22.5 55q0 33 22.5 55.5t55.5 22.5zM498 929q32 0 55 -22.5t23 -55.5q0 -32 -23 -55t-55 -23q-33 0 -55.5 23t-22.5 55q0 33 22.5 55.5t55.5 22.5z" />
    <glyph glyph-name="multiply" unicode="&#xd7;" horiz-adv-x="451" 
d="M340 431l78 -77l-115 -116l117 -116l-78 -79l-117 117l-117 -117l-78 79l116 116l-114 116l78 77l115 -114z" />
    <glyph glyph-name="Oslash" unicode="&#xd8;" horiz-adv-x="777" 
d="M671 598q72 -97 72 -242q0 -177 -111 -282q-95 -92 -239 -92q-130 0 -219 69l-82 -90l-68 60l86 94q-74 101 -74 243q0 179 111 284q96 92 243 92q127 0 218 -71l80 88l66 -60zM538 462l-246 -291q37 -35 103 -35q75 0 116.5 62t41.5 174q0 52 -15 90zM242 251l246 293
q-40 36 -98 36q-82 0 -126 -68q-39 -59 -39 -156q0 -55 17 -105z" />
    <glyph glyph-name="Ugrave" unicode="&#xd9;" horiz-adv-x="733" 
d="M678 716v-426q0 -143 -59 -214q-78 -94 -252 -94q-185 0 -263 106q-49 67 -49 204v424h187v-438q0 -75 30.5 -108.5t98.5 -33.5q63 0 92 33.5t29 108.5v438h186zM169 918h192l102 -138h-123z" />
    <glyph glyph-name="Uacute" unicode="&#xda;" horiz-adv-x="733" 
d="M678 716v-426q0 -143 -59 -214q-78 -94 -252 -94q-185 0 -263 106q-49 67 -49 204v424h187v-438q0 -75 30.5 -108.5t98.5 -33.5q63 0 92 33.5t29 108.5v438h186zM563 918l-171 -138h-123l102 138h192z" />
    <glyph glyph-name="Ucircumflex" unicode="&#xdb;" horiz-adv-x="733" 
d="M678 716v-426q0 -143 -59 -214q-78 -94 -252 -94q-185 0 -263 106q-49 67 -49 204v424h187v-438q0 -75 30.5 -108.5t98.5 -33.5q63 0 92 33.5t29 108.5v438h186zM559 780h-130l-65 74l-65 -74h-126l119 138h149z" />
    <glyph glyph-name="Udieresis" unicode="&#xdc;" horiz-adv-x="733" 
d="M678 716v-426q0 -143 -59 -214q-78 -94 -252 -94q-185 0 -263 106q-49 67 -49 204v424h187v-438q0 -75 30.5 -108.5t98.5 -33.5q63 0 92 33.5t29 108.5v438h186zM261 929q33 0 55.5 -22.5t22.5 -55.5q0 -32 -23 -55t-55 -23t-55 23t-23 55q0 33 22.5 55.5t55.5 22.5z
M475 929q33 0 55.5 -22.5t22.5 -55.5q0 -32 -22.5 -55t-55.5 -23q-32 0 -55 23t-23 55q0 33 23 55.5t55 22.5z" />
    <glyph glyph-name="Yacute" unicode="&#xdd;" horiz-adv-x="665" 
d="M690 716l-264 -447v-269h-187v269l-263 447h212l83 -152q34 -62 63 -138q35 89 68 149l79 141h209zM530 918l-171 -138h-123l102 138h192z" />
    <glyph glyph-name="Thorn" unicode="&#xde;" horiz-adv-x="695" 
d="M65 716h188v-99h108q142 0 205 -42q98 -66 98 -199q0 -110 -73 -177q-65 -58 -189 -58h-150v-141h-187v716zM252 465v-177h123q107 0 107 88q0 89 -114 89h-116z" />
    <glyph glyph-name="germandbls" unicode="&#xdf;" horiz-adv-x="622" 
d="M280 129q23 -4 39 -4q47 0 75 29.5t28 78.5q0 107 -126 107h-12h-4v101q13 -1 20 -1q93 0 93 79q0 33 -22.5 53.5t-59.5 20.5q-49 0 -69 -34q-13 -22 -13 -75v-484h-170v451q0 119 38 175q66 100 220 100q115 0 181 -60q58 -51 58 -131q0 -98 -88 -139q59 -14 93 -61
t34 -116q0 -102 -71 -171q-60 -58 -160 -58q-39 0 -84 10v129z" />
    <glyph glyph-name="agrave" unicode="&#xe0;" horiz-adv-x="587" 
d="M122 735h178l87 -144h-107zM559 0h-173q-8 25 -9 49q-48 -63 -170 -63q-91 0 -140 48q-43 42 -43 111q0 95 84 134q36 16 148 37l118 22v31q-2 57 -79 57q-42 0 -61.5 -14.5t-25.5 -51.5h-161q9 173 250 173q128 0 192 -46q30 -23 41 -51.5t11 -86.5q0 -10 -1 -62v-11
l-1 -86v-47t-1 -38v-22q0 -56 21 -83zM376 237l-78 -17q-61 -14 -81 -28t-20 -42q0 -61 69 -61q58 0 90 41q18 22 19 70z" />
    <glyph glyph-name="aacute" unicode="&#xe1;" horiz-adv-x="587" 
d="M488 735l-158 -144h-108l88 144h178zM559 0h-173q-8 25 -9 49q-48 -63 -170 -63q-91 0 -140 48q-43 42 -43 111q0 95 84 134q36 16 148 37l118 22v31q-2 57 -79 57q-42 0 -61.5 -14.5t-25.5 -51.5h-161q9 173 250 173q128 0 192 -46q30 -23 41 -51.5t11 -86.5
q0 -10 -1 -62v-11l-1 -86v-47t-1 -38v-22q0 -56 21 -83zM376 237l-78 -17q-61 -14 -81 -28t-20 -42q0 -61 69 -61q58 0 90 41q18 22 19 70z" />
    <glyph glyph-name="acircumflex" unicode="&#xe2;" horiz-adv-x="587" 
d="M494 591h-129l-62 81l-62 -81h-125l115 144h149zM559 0h-173q-8 25 -9 49q-48 -63 -170 -63q-91 0 -140 48q-43 42 -43 111q0 95 84 134q36 16 148 37l118 22v31q-2 57 -79 57q-42 0 -61.5 -14.5t-25.5 -51.5h-161q9 173 250 173q128 0 192 -46q30 -23 41 -51.5t11 -86.5
q0 -10 -1 -62v-11l-1 -86v-47t-1 -38v-22q0 -56 21 -83zM376 237l-78 -17q-61 -14 -81 -28t-20 -42q0 -61 69 -61q58 0 90 41q18 22 19 70z" />
    <glyph glyph-name="atilde" unicode="&#xe3;" horiz-adv-x="587" 
d="M480 729q-12 -71 -35 -98.5t-70 -27.5q-38 0 -87 20q-37 16 -52 16q-27 0 -35 -41h-73q11 62 25 85q29 45 79 45q33 0 106 -33q18 -7 33 -7q28 0 35 41h74zM559 0h-173q-8 25 -9 49q-48 -63 -170 -63q-91 0 -140 48q-43 42 -43 111q0 95 84 134q36 16 148 37l118 22v31
q-2 57 -79 57q-42 0 -61.5 -14.5t-25.5 -51.5h-161q9 173 250 173q128 0 192 -46q30 -23 41 -51.5t11 -86.5q0 -10 -1 -62v-11l-1 -86v-47t-1 -38v-22q0 -56 21 -83zM376 237l-78 -17q-61 -14 -81 -28t-20 -42q0 -61 69 -61q58 0 90 41q18 22 19 70z" />
    <glyph glyph-name="adieresis" unicode="&#xe4;" horiz-adv-x="587" 
d="M192 748q32 0 55 -22.5t23 -55.5q0 -32 -23 -55t-55 -23q-33 0 -55.5 23t-22.5 55q0 33 22.5 55.5t55.5 22.5zM406 748q32 0 55 -22.5t23 -55.5q0 -32 -23 -55t-55 -23q-33 0 -55.5 23t-22.5 55q0 33 22.5 55.5t55.5 22.5zM559 0h-173q-8 25 -9 49q-48 -63 -170 -63
q-91 0 -140 48q-43 42 -43 111q0 95 84 134q36 16 148 37l118 22v31q-2 57 -79 57q-42 0 -61.5 -14.5t-25.5 -51.5h-161q9 173 250 173q128 0 192 -46q30 -23 41 -51.5t11 -86.5q0 -10 -1 -62v-11l-1 -86v-47t-1 -38v-22q0 -56 21 -83zM376 237l-78 -17q-61 -14 -81 -28
t-20 -42q0 -61 69 -61q58 0 90 41q18 22 19 70z" />
    <glyph glyph-name="aring" unicode="&#xe5;" horiz-adv-x="587" 
d="M306 783q57 0 97 -31.5t40 -76.5t-40 -76.5t-97 -31.5t-97 31.5t-40 76.5t40 76.5t97 31.5zM306 728q-24 0 -41 -15.5t-17 -37.5t17 -37.5t41 -15.5t41 15.5t17 37.5t-17 37.5t-41 15.5zM559 0h-173q-8 25 -9 49q-48 -63 -170 -63q-91 0 -140 48q-43 42 -43 111
q0 95 84 134q36 16 148 37l118 22v31q-2 57 -79 57q-42 0 -61.5 -14.5t-25.5 -51.5h-161q9 173 250 173q128 0 192 -46q30 -23 41 -51.5t11 -86.5q0 -10 -1 -62v-11l-1 -86v-47t-1 -38v-22q0 -56 21 -83zM376 237l-78 -17q-61 -14 -81 -28t-20 -42q0 -61 69 -61q58 0 90 41
q18 22 19 70z" />
    <glyph glyph-name="ae" unicode="&#xe6;" horiz-adv-x="933" 
d="M897 161q-23 -86 -98 -134q-66 -41 -154 -41q-133 0 -196 78q-81 -78 -228 -78q-197 0 -197 158q0 62 36.5 97t123.5 56l199 48v23q-1 58 -84 58q-80 0 -89 -68h-164q8 175 251 175q128 0 180 -62q61 62 161 62q130 0 204 -90q64 -78 64 -201v-21h-375q3 -121 105 -121
q70 0 101 61h160zM739 312q-9 106 -103 106t-105 -106h208zM383 254l-106 -31q-80 -23 -80 -72q0 -64 76 -64q52 0 81 29t29 80v58z" />
    <glyph glyph-name="ccedilla" unicode="&#xe7;" horiz-adv-x="588" 
d="M563 204q-9 -96 -81 -158q-63 -54 -172 -59l-31 -50q25 5 42 5q39 0 64.5 -20.5t25.5 -52.5q0 -42 -34 -68t-90 -26q-60 0 -124 25l20 44q50 -18 83 -18q52 0 52 37t-47 37q-15 0 -36 -9l-24 21l48 75q-72 12 -116 40q-114 76 -114 230q0 132 88 209q76 67 191 67
q114 0 186 -64q62 -55 66 -138h-165q-10 78 -87 78q-106 0 -106 -152q0 -144 106 -144q80 0 91 91h164z" />
    <glyph glyph-name="egrave" unicode="&#xe8;" horiz-adv-x="610" 
d="M572 159q-12 -46 -46 -85q-77 -88 -213 -88q-123 0 -199 68q-85 76 -85 201q0 131 88 210q76 68 189 68q137 0 211 -90q65 -79 65 -207v-16h-386q2 -56 33 -87.5t84 -31.5q65 0 99 58h160zM415 317q-13 101 -107 101q-95 0 -110 -101h217zM133 735h178l87 -144h-107z" />
    <glyph glyph-name="eacute" unicode="&#xe9;" horiz-adv-x="610" 
d="M572 159q-12 -46 -46 -85q-77 -88 -213 -88q-123 0 -199 68q-85 76 -85 201q0 131 88 210q76 68 189 68q137 0 211 -90q65 -79 65 -207v-16h-386q2 -56 33 -87.5t84 -31.5q65 0 99 58h160zM415 317q-13 101 -107 101q-95 0 -110 -101h217zM499 735l-158 -144h-108l88 144
h178z" />
    <glyph glyph-name="ecircumflex" unicode="&#xea;" horiz-adv-x="610" 
d="M572 159q-12 -46 -46 -85q-77 -88 -213 -88q-123 0 -199 68q-85 76 -85 201q0 131 88 210q76 68 189 68q137 0 211 -90q65 -79 65 -207v-16h-386q2 -56 33 -87.5t84 -31.5q65 0 99 58h160zM415 317q-13 101 -107 101q-95 0 -110 -101h217zM509 591h-130l-61 81l-62 -81
h-126l116 144h149z" />
    <glyph glyph-name="edieresis" unicode="&#xeb;" horiz-adv-x="610" 
d="M572 159q-12 -46 -46 -85q-77 -88 -213 -88q-123 0 -199 68q-85 76 -85 201q0 131 88 210q76 68 189 68q137 0 211 -90q65 -79 65 -207v-16h-386q2 -56 33 -87.5t84 -31.5q65 0 99 58h160zM415 317q-13 101 -107 101q-95 0 -110 -101h217zM212 743q32 0 55 -23t23 -55
q0 -33 -23 -55.5t-55 -22.5q-33 0 -55.5 22.5t-22.5 55.5q0 32 22.5 55t55.5 23zM426 743q33 0 55.5 -23t22.5 -55q0 -33 -22.5 -55.5t-55.5 -22.5q-32 0 -55 22.5t-23 55.5q0 32 23 55t55 23z" />
    <glyph glyph-name="igrave" unicode="&#xec;" horiz-adv-x="288" 
d="M228 519v-519h-171v519h171zM-29 735h174l81 -144h-104z" />
    <glyph glyph-name="iacute" unicode="&#xed;" horiz-adv-x="287" 
d="M229 519v-519h-170v519h170zM316 735l-151 -144h-104l80 144h175z" />
    <glyph glyph-name="icircumflex" unicode="&#xee;" horiz-adv-x="287" 
d="M229 519v-519h-170v519h170zM322 591h-126l-54 81l-55 -81h-122l105 144h149z" />
    <glyph glyph-name="idieresis" unicode="&#xef;" horiz-adv-x="287" 
d="M229 519v-519h-170v519h170zM53 743q32 0 55 -23t23 -55q0 -33 -23 -55.5t-55 -22.5q-33 0 -55.5 22.5t-22.5 55.5q0 32 22.5 55t55.5 23zM241 743q33 0 55.5 -23t22.5 -55q0 -33 -22.5 -55.5t-55.5 -22.5q-32 0 -55 22.5t-23 55.5q0 32 23 55t55 23z" />
    <glyph glyph-name="eth" unicode="&#xf0;" horiz-adv-x="607" 
d="M186 622l78 34l-41 53l89 52l55 -62l82 33l38 -53l-78 -32q33 -44 87 -134q46 -77 64 -131t18 -116q0 -136 -84 -213q-74 -68 -188 -68q-133 0 -210 85q-67 74 -67 189q0 120 75 199q64 67 154 67q50 0 95 -32q-22 58 -54 108l-82 -34zM303 409q-48 0 -74.5 -39
t-26.5 -110q0 -150 102 -150t102 151q0 148 -103 148z" />
    <glyph glyph-name="ntilde" unicode="&#xf1;" horiz-adv-x="630" 
d="M223 519v-69q62 83 170 83q104 0 152 -69q31 -46 31 -142v-322h-171v294q0 41 -8 61q-16 39 -71 39q-60 0 -84 -46q-13 -24 -13 -71v-277h-170v519h164zM486 729q-12 -71 -35 -98.5t-70 -27.5q-38 0 -86 20q-38 16 -53 16q-27 0 -34 -41h-74q11 62 25 85q29 45 80 45
q32 0 106 -33q17 -7 32 -7q28 0 36 41h73z" />
    <glyph glyph-name="ograve" unicode="&#xf2;" horiz-adv-x="607" 
d="M304 -14q-131 0 -208 86q-67 75 -67 188q0 130 86 207q75 66 188 66q132 0 209 -85q66 -73 66 -187q0 -131 -86 -208q-75 -67 -188 -67zM302 409q-48 0 -74 -39t-26 -110q0 -150 102 -150t102 151q0 148 -104 148zM121 735h177l88 -144h-107z" />
    <glyph glyph-name="oacute" unicode="&#xf3;" horiz-adv-x="607" 
d="M304 -14q-131 0 -208 86q-67 75 -67 188q0 130 86 207q75 66 188 66q132 0 209 -85q66 -73 66 -187q0 -131 -86 -208q-75 -67 -188 -67zM302 409q-48 0 -74 -39t-26 -110q0 -150 102 -150t102 151q0 148 -104 148zM490 735l-158 -144h-108l88 144h178z" />
    <glyph glyph-name="ocircumflex" unicode="&#xf4;" horiz-adv-x="607" 
d="M304 -14q-131 0 -208 86q-67 75 -67 188q0 130 86 207q75 66 188 66q132 0 209 -85q66 -73 66 -187q0 -131 -86 -208q-75 -67 -188 -67zM302 409q-48 0 -74 -39t-26 -110q0 -150 102 -150t102 151q0 148 -104 148zM496 591h-129l-62 81l-61 -81h-126l116 144h148z" />
    <glyph glyph-name="otilde" unicode="&#xf5;" horiz-adv-x="607" 
d="M304 -14q-131 0 -208 86q-67 75 -67 188q0 130 86 207q75 66 188 66q132 0 209 -85q66 -73 66 -187q0 -131 -86 -208q-75 -67 -188 -67zM302 409q-48 0 -74 -39t-26 -110q0 -150 102 -150t102 151q0 148 -104 148zM490 729q-12 -71 -35 -98.5t-70 -27.5q-38 0 -86 20
q-38 16 -53 16q-27 0 -34 -41h-74q11 62 25 85q29 45 80 45q32 0 106 -33q17 -7 32 -7q28 0 36 41h73z" />
    <glyph glyph-name="odieresis" unicode="&#xf6;" horiz-adv-x="607" 
d="M304 -14q-131 0 -208 86q-67 75 -67 188q0 130 86 207q75 66 188 66q132 0 209 -85q66 -73 66 -187q0 -131 -86 -208q-75 -67 -188 -67zM302 409q-48 0 -74 -39t-26 -110q0 -150 102 -150t102 151q0 148 -104 148zM197 743q33 0 55.5 -23t22.5 -55q0 -33 -23 -55.5
t-55 -22.5t-55 22.5t-23 55.5q0 32 22.5 55t55.5 23zM411 743q33 0 55.5 -23t22.5 -55q0 -33 -22.5 -55.5t-55.5 -22.5q-32 0 -55 22.5t-23 55.5q0 32 23 55t55 23z" />
    <glyph glyph-name="divide" unicode="&#xf7;" horiz-adv-x="524" 
d="M262 510q32 0 55 -23t23 -56q0 -32 -23 -54.5t-55 -22.5q-33 0 -55.5 22.5t-22.5 54.5q0 33 22.5 56t55.5 23zM482 300v-109h-441v109h441zM262 139q32 0 55 -23t23 -56q0 -32 -23 -55t-55 -23q-33 0 -55.5 23t-22.5 55q0 33 22.5 56t55.5 23z" />
    <glyph glyph-name="oslash" unicode="&#xf8;" horiz-adv-x="607" 
d="M95 73q-66 80 -66 187q0 130 86 207q74 66 187 66q89 0 155 -39l55 62l58 -50l-54 -63q62 -77 62 -182q0 -130 -86 -208q-74 -67 -186 -67q-85 0 -151 38l-60 -69l-58 50zM204 193l160 202q-1 1 -4 2q-4 3 -5 4q-25 15 -51 15q-70 0 -97 -75q-11 -31 -11 -95q0 -34 8 -53
zM407 325l-161 -204q22 -18 60 -18q48 0 77 41q28 41 28 127q0 27 -4 54z" />
    <glyph glyph-name="ugrave" unicode="&#xf9;" horiz-adv-x="630" 
d="M132 735h177l88 -144h-108zM572 519v-519h-171v70q-49 -84 -162 -84q-99 0 -149 65q-35 45 -35 143v325h170v-277q0 -67 13 -86q20 -31 68 -31q59 0 84 49q11 23 11 84v261h171z" />
    <glyph glyph-name="uacute" unicode="&#xfa;" horiz-adv-x="630" 
d="M494 735l-158 -144h-108l88 144h178zM572 519v-519h-171v70q-49 -84 -162 -84q-99 0 -149 65q-35 45 -35 143v325h170v-277q0 -67 13 -86q20 -31 68 -31q59 0 84 49q11 23 11 84v261h171z" />
    <glyph glyph-name="ucircumflex" unicode="&#xfb;" horiz-adv-x="630" 
d="M504 591h-130l-61 81l-62 -81h-126l116 144h149zM572 519v-519h-171v70q-49 -84 -162 -84q-99 0 -149 65q-35 45 -35 143v325h170v-277q0 -67 13 -86q20 -31 68 -31q59 0 84 49q11 23 11 84v261h171z" />
    <glyph glyph-name="udieresis" unicode="&#xfc;" horiz-adv-x="630" 
d="M572 519v-519h-171v70q-49 -84 -162 -84q-99 0 -149 65q-35 45 -35 143v325h170v-277q0 -67 13 -86q20 -31 68 -31q59 0 84 49q11 23 11 84v261h171zM211 743q33 0 55.5 -23t22.5 -55q0 -33 -22.5 -55.5t-55.5 -22.5q-32 0 -55 22.5t-23 55.5q0 32 23 55t55 23zM425 743
q33 0 56 -23t23 -55q0 -33 -23 -55.5t-56 -22.5q-32 0 -54.5 22.5t-22.5 55.5q0 32 22.5 55t54.5 23z" />
    <glyph glyph-name="yacute" unicode="&#xfd;" horiz-adv-x="539" 
d="M452 735l-158 -144h-107l87 144h178zM546 519l-188 -524q-39 -108 -84 -142t-148 -34q-55 0 -125 12l27 135q22 -8 57 -8q55 0 70 23q16 23 16 51q0 6 -3 13l-177 474h181l72 -230q13 -43 28 -121q20 89 32 127l68 224h174z" />
    <glyph glyph-name="thorn" unicode="&#xfe;" horiz-adv-x="632" 
d="M229 716v-258q54 75 147 75q108 0 171 -86q55 -75 55 -191q0 -131 -69 -206q-59 -64 -152 -64q-95 0 -152 74v-235h-170v891h170zM327 396q-49 0 -76 -37t-27 -103q0 -65 27 -101.5t76 -36.5q102 0 102 138q0 140 -102 140z" />
    <glyph glyph-name="ydieresis" unicode="&#xff;" horiz-adv-x="539" 
d="M546 519l-188 -524q-39 -108 -84 -142t-148 -34q-55 0 -125 12l27 135q22 -8 57 -8q55 0 70 23q16 23 16 51q0 6 -3 13l-177 474h181l72 -230q13 -43 28 -121q20 89 32 127l68 224h174zM167 743q33 0 55.5 -23t22.5 -55q0 -33 -23 -55.5t-55 -22.5t-55 22.5t-23 55.5
q0 32 22.5 55t55.5 23zM381 743q33 0 55.5 -23t22.5 -55q0 -33 -22.5 -55.5t-55.5 -22.5q-32 0 -55 22.5t-23 55.5q0 32 23 55t55 23z" />
    <glyph glyph-name="florin" unicode="&#x192;" horiz-adv-x="644" 
d="M542 493l-18 -104h-98l-63 -365q-18 -104 -55 -145q-49 -54 -179 -54q-30 0 -71 2l19 123q17 -1 28 -1q48 0 60.5 15.5t26.5 93.5l58 331h-78l18 104h79l17 98q17 96 57 137q51 52 167 52q38 0 82 -2l-22 -123q-8 -1 -41 -1q-34 0 -47 -14.5t-21 -62.5l-15 -84h96z" />
    <glyph glyph-name="uni02C9" unicode="&#x2c9;" horiz-adv-x="537" 
d="M433 704v-83h-329v83h329z" />
    <glyph glyph-name="anoteleia" unicode="&#x387;" horiz-adv-x="314" 
d="M249 442v-184h-185v184h185z" />
    <glyph glyph-name="uni060C" unicode="&#x60c;" horiz-adv-x="258" 
d="M150 149q34 -8 50 -34q11 -18 11 -44q0 -24 -15 -44q-23 -32 -62 -32q-35 0 -57.5 25t-22.5 64q0 83 75 167h42l24 -20q-19 -28 -30 -50q-10 -19 -15 -32z" />
    <glyph glyph-name="uni0615" unicode="&#x615;" 
d="M108 833v-114q42 59 115 59q45 0 72 -26t27 -70v-46q0 -23 -17 -39q-16 -16 -38 -16h-267v64h28v188h80zM252 686q0 17 -11 26q-8 9 -24 9q-27 0 -55 -20q-30 -21 -52 -56h135q7 0 7 7v34z" />
    <glyph glyph-name="uni061B" unicode="&#x61b;" horiz-adv-x="258" 
d="M149 344q62 -13 62 -75q0 -33 -22.5 -56t-54.5 -23q-35 0 -57.5 25t-22.5 64q0 83 75 167h42l24 -20q-20 -29 -30 -49q-11 -23 -16 -33zM134 146q32 0 55 -23t23 -55q0 -33 -23 -56t-55 -23q-33 0 -55.5 23t-22.5 56q0 32 22.5 55t55.5 23z" />
    <glyph glyph-name="uni061F" unicode="&#x61f;" horiz-adv-x="423" 
d="M211 184l1 8q1 32 1 46q0 51 -17.5 85.5t-66.5 78.5q-50 44 -69.5 78.5t-19.5 80.5q0 78 63 124q50 36 120 36q63 0 108.5 -42.5t57.5 -114.5l-105 -38q-14 70 -54 70q-38 0 -38 -40q0 -28 35 -66q56 -58 76.5 -98.5t20.5 -94.5q0 -18 -2 -61l-63 -52h-48zM271 151
q33 0 56 -22.5t23 -54.5q0 -33 -23 -56t-56 -23q-32 0 -55 23t-23 56q0 32 23 54.5t55 22.5z" />
    <glyph glyph-name="uni0621" unicode="&#x621;" horiz-adv-x="538" 
d="M166 81q-28 18 -49 57q-26 56 -26 108q0 112 72 170q61 49 157 49q36 0 92 -12v-121q-43 8 -66 8q-54 0 -77.5 -24t-23.5 -80q0 -47 25 -73.5t69 -26.5q6 0 12 1q76 11 135 11q9 0 27 -1h4v-53l-62 -77q-66 -4 -134 -23q-94 -24 -191 -90l-75 118q57 35 111 59z" />
    <glyph glyph-name="uni0622" unicode="&#x622;" horiz-adv-x="292" 
d="M-23 826q37 75 95 75q30 0 77 -23l10 -5q25 -12 41 -12q24 0 50 35l44 -33q-45 -68 -104 -68q-37 0 -79 23q-26 13 -37 13q-21 0 -57 -36zM224 716v-678l-78 -63h-76v741h154z" />
    <glyph glyph-name="uni0623" unicode="&#x623;" horiz-adv-x="292" 
d="M84 856q-13 29 -13 51q0 45 26.5 73t69.5 28q28 0 59 -10v-63q-24 7 -37 7q-38 0 -38 -43q0 -18 7 -29q11 -14 31 -14h70v-31l-27 -33h-184v64h36zM223 716v-678l-78 -63h-76v741h154z" />
    <glyph glyph-name="uni0624" unicode="&#x624;" horiz-adv-x="556" 
d="M212 595q-12 28 -12 51q0 44 25.5 72.5t67.5 28.5q28 0 62 -10v-63q-26 7 -39 7q-37 0 -37 -43q0 -18 8 -29q10 -14 30 -14h70v-31l-26 -33h-184v64h35zM341 -1q-33 -8 -62 -8q-101 0 -168 85q-56 70 -56 159q0 102 62 168q66 69 173 69q81 0 136 -40q74 -52 74 -147
v-247v-2q0 -135 -92 -210q-77 -64 -194 -64l-26 2l-63 79v53q3 -1 11 -2q26 -5 46 -5q85 2 125 44q24 25 34 66zM346 284q0 26 -17 43q-16 16 -40 16q-38 0 -60 -27.5t-22 -76.5q0 -54 26 -87.5t68 -33.5q21 0 45 7v159z" />
    <glyph glyph-name="uni0625" unicode="&#x625;" horiz-adv-x="265" 
d="M224 716v-678l-78 -63h-77v741h155zM63 -237q-13 30 -13 52q0 44 26 72t67 28q30 0 62 -9v-63q-25 7 -37 7q-38 0 -38 -43q0 -19 7 -29q10 -15 31 -15h70v-30l-27 -34h-184v64h36z" />
    <glyph glyph-name="uni0626" unicode="&#x626;" horiz-adv-x="822" 
d="M250 57q0 -95 46 -132t166 -37q49 0 77 7q2 0 7 1q33 10 49 21q28 21 28 54q0 26 -18 39t-78 32q-94 30 -136.5 81.5t-42.5 134.5q0 112 74 168q61 46 160 46q64 0 117 -17v-115q-49 12 -87 12q-52 0 -83 -25t-31 -66q0 -40 20 -59t95 -50q85 -35 119 -67q44 -43 44 -109
q0 -117 -106 -174q-77 -41 -186 -41h-88q-110 0 -187 48q-113 73 -113 229v74l77 62h77v-117zM105 319q-13 29 -13 51q0 45 26 73t67 28q29 0 62 -9v-63q-26 6 -38 6q-37 0 -37 -43q0 -18 7 -28q11 -15 31 -15h70v-31l-27 -33h-184v64h36z" />
    <glyph glyph-name="uni0627" unicode="&#x627;" horiz-adv-x="292" 
d="M223 716v-678l-78 -63h-76v741h154z" />
    <glyph glyph-name="uni0628" unicode="&#x628;" horiz-adv-x="1003" 
d="M934 460v-336q0 -46 -30 -80q-37 -44 -94 -44h-550q-70 0 -123 45q-68 58 -68 149v131l78 63h76v-194q0 -30 21 -49q19 -16 40 -16h481q15 0 15 14v317h154zM502 -46q32 0 55 -23t23 -56q0 -32 -23 -55t-55 -23q-33 0 -55.5 23t-22.5 55q0 33 22.5 56t55.5 23z" />
    <glyph glyph-name="uni0629" unicode="&#x629;" horiz-adv-x="556" 
d="M243 680q32 0 55 -23t23 -55t-23 -55t-55 -23q-33 0 -55.5 23t-22.5 55q0 33 22.5 55.5t55.5 22.5zM422 680q32 0 55 -23t23 -55t-23 -55t-55 -23q-33 0 -55.5 23t-22.5 55q0 33 22.5 55.5t55.5 22.5zM500 487v-309q0 -92 -70 -144q-57 -43 -148 -43q-120 0 -185 87
q-42 63 -42 146q0 112 75 186q67 66 162 66q49 0 90 -22l42 33h76zM346 336q-28 8 -46 8q-42 0 -68 -32t-26 -86q0 -49 21 -77.5t55 -28.5q29 0 48 19q16 17 16 40v157z" />
    <glyph glyph-name="uni062A" unicode="&#x62a;" horiz-adv-x="1003" 
d="M412 487q33 0 55.5 -23t22.5 -55q0 -33 -22.5 -55.5t-55.5 -22.5q-32 0 -55 22.5t-23 55.5q0 32 23 55t55 23zM591 487q33 0 55.5 -23t22.5 -55q0 -33 -22.5 -55.5t-55.5 -22.5q-32 0 -55 22.5t-23 55.5q0 32 23 55t55 23zM934 460v-336q0 -46 -30 -80q-37 -44 -94 -44
h-550q-70 0 -123 45q-68 58 -68 149v131l78 63h76v-194q0 -30 21 -49q19 -16 40 -16h481q15 0 15 14v317h154z" />
    <glyph glyph-name="uni062B" unicode="&#x62b;" horiz-adv-x="1003" 
d="M502 628q29 0 49.5 -21t20.5 -50t-20.5 -49.5t-49.5 -20.5t-50 20.5t-21 49.5t20.5 50t50.5 21zM413 487q32 0 55 -23t23 -55q0 -33 -23 -55.5t-55 -22.5q-33 0 -55.5 22.5t-22.5 55.5q0 32 22.5 55t55.5 23zM591 487q32 0 55 -23t23 -55q0 -33 -23 -55.5t-55 -22.5
q-33 0 -55.5 22.5t-22.5 55.5q0 32 22.5 55t55.5 23zM934 460v-336q0 -46 -30 -80q-37 -44 -94 -44h-550q-70 0 -123 45q-68 58 -68 149v131l78 63h76v-194q0 -30 21 -49q19 -16 40 -16h481q15 0 15 14v317h154z" />
    <glyph glyph-name="uni062C" unicode="&#x62c;" horiz-adv-x="684" 
d="M192 443q105 30 160 30q117 0 199 -73q79 -75 79 -174v-102q0 -51 -37 -89q-36 -35 -88 -35h-170q-125 0 -125 -122q0 -127 181 -127q59 0 113 17v-54l-67 -83q-32 -9 -75 -9q-145 0 -228 75q-78 71 -78 194q0 127 99 190q76 48 192 48h114q14 0 14 14v66q0 54 -45 93
t-108 39q-49 0 -130 -21v123zM392 -46q32 0 55 -23t23 -56q0 -32 -23 -55t-55 -23q-33 0 -55.5 23t-22.5 55q0 33 23 56t55 23z" />
    <glyph glyph-name="uni062D" unicode="&#x62d;" horiz-adv-x="715" 
d="M210 443q94 29 174 29q119 0 201 -75q76 -70 76 -171v-102q0 -51 -37 -89q-37 -35 -87 -35h-202q-125 0 -125 -122q0 -127 181 -127q59 0 113 17v-53l-66 -81q-37 -12 -79 -12q-143 0 -226 76q-77 71 -77 193q0 127 99 190q76 48 192 48h145q15 0 15 14v66q0 56 -46.5 94
t-113.5 38q-55 0 -137 -21v123z" />
    <glyph glyph-name="uni062E" unicode="&#x62e;" horiz-adv-x="715" 
d="M382 680q32 0 55 -22.5t23 -55.5t-23 -55.5t-55 -22.5q-33 0 -55.5 23t-22.5 55t22.5 55t55.5 23zM210 443q94 29 173 29q120 0 202 -75q76 -70 76 -171v-102q0 -51 -37 -89q-37 -35 -87 -35h-202q-125 0 -125 -122q0 -127 181 -127q59 0 113 17v-53l-66 -81
q-37 -12 -78 -12q-144 0 -226 76q-78 71 -78 193q0 127 99 189q76 49 192 49h145q15 0 15 14v66q0 56 -46.5 94t-112.5 38q-57 0 -138 -21v123z" />
    <glyph glyph-name="uni062F" unicode="&#x62f;" horiz-adv-x="537" 
d="M140 466q26 6 72 6q123 0 198 -77q67 -69 67 -175v-96q0 -55 -40 -91q-36 -33 -84 -33h-314v129h270q14 0 14 14v65q0 61 -37.5 100t-97.5 39q-31 0 -48 -4v123z" />
    <glyph glyph-name="uni0630" unicode="&#x630;" horiz-adv-x="537" 
d="M220 680q33 0 55.5 -22.5t22.5 -55.5t-22.5 -55.5t-55.5 -22.5q-32 0 -55 23t-23 55t23 55t55 23zM140 466q26 6 72 6q123 0 198 -77q67 -69 67 -175v-96q0 -55 -40 -91q-36 -33 -84 -33h-314v129h270q14 0 14 14v65q0 61 -37.5 100t-97.5 39q-31 0 -48 -4v123z" />
    <glyph glyph-name="uni0631" unicode="&#x631;" horiz-adv-x="433" 
d="M364 460v-422q0 -136 -88 -208q-51 -43 -121 -60q-35 -8 -78 -8l-26 2l-63 79v53q3 -1 11 -2q26 -5 46 -5q83 2 123 41q41 41 41 126v404h155z" />
    <glyph glyph-name="uni0632" unicode="&#x632;" horiz-adv-x="434" 
d="M287 680q32 0 55 -22.5t23 -55.5q0 -32 -23 -55t-55 -23q-33 0 -56 23t-23 55t23 55t56 23zM364 460v-422q0 -133 -85 -206q-50 -43 -119 -61q-36 -9 -83 -9l-26 2l-63 79v53q3 -1 11 -2q26 -5 46 -5q83 2 123 42q41 41 41 125v404h155z" />
    <glyph glyph-name="uni0633" unicode="&#x633;" horiz-adv-x="1560" 
d="M1491 460v-336q0 -51 -36.5 -87.5t-87.5 -36.5h-225l-42 47h-3q-37 -47 -97 -47h-245q-13 -126 -109 -189q-79 -50 -189 -50h-88q-138 0 -220 75q-80 73 -80 202v153l78 62h76v-196q0 -92 43 -129.5t147 -37.5t146 36q44 39 44 131v288h154v-216h199q14 0 14 14v260h154
v-232q0 -13 1 -42h197q15 0 15 14v317h154z" />
    <glyph glyph-name="uni0634" unicode="&#x634;" horiz-adv-x="1560" 
d="M1048 821q29 0 50 -20.5t21 -50.5q0 -29 -21 -49.5t-50 -20.5t-49.5 20.5t-20.5 49.5q0 30 20.5 50.5t49.5 20.5zM959 680q33 0 55.5 -22.5t22.5 -55.5q0 -32 -22.5 -55t-55.5 -23q-32 0 -55 23t-23 55t23 55t55 23zM1137 680q33 0 55.5 -23t22.5 -55t-23 -55t-55 -23
t-55 22.5t-23 55.5t22.5 55.5t55.5 22.5zM1491 460v-336q0 -51 -36.5 -87.5t-87.5 -36.5h-225l-42 47h-3q-37 -47 -97 -47h-245q-13 -126 -109 -189q-79 -50 -189 -50h-88q-138 0 -220 75q-80 73 -80 202v153l78 62h76v-196q0 -92 43 -129.5t147 -37.5t146 36q44 39 44 131
v288h154v-216h199q14 0 14 14v260h154v-232q0 -13 1 -42h197q15 0 15 14v317h154z" />
    <glyph glyph-name="uni0635" unicode="&#x635;" horiz-adv-x="1397" 
d="M757 338q134 135 305 135q122 0 204 -76q75 -69 75 -173v-100q0 -54 -41 -92q-36 -32 -83 -32h-462q-13 -131 -117 -194q-76 -45 -181 -45h-88q-161 0 -244 100q-56 69 -56 177v153l78 62h76v-196q0 -92 43 -129.5t147 -37.5t146 36q44 39 44 131v403h155zM1187 207
q0 56 -41 94q-44 40 -108 40q-68 0 -137 -46q-83 -57 -145 -166h417q14 0 14 14v64z" />
    <glyph glyph-name="uni0636" unicode="&#x636;" horiz-adv-x="1397" 
d="M992 680q33 0 55.5 -22.5t22.5 -55.5q0 -32 -22.5 -55t-55.5 -23q-32 0 -55 23t-23 55t23 55t55 23zM757 338q134 135 305 135q122 0 204 -76q75 -69 75 -173v-100q0 -54 -41 -92q-36 -32 -83 -32h-462q-13 -131 -117 -194q-76 -45 -181 -45h-88q-161 0 -244 100
q-56 69 -56 177v153l78 62h76v-196q0 -92 43 -129.5t147 -37.5t146 36q44 39 44 131v403h155zM1187 207q0 56 -41 94q-44 40 -108 40q-68 0 -137 -46q-83 -57 -145 -166h417q14 0 14 14v64z" />
    <glyph glyph-name="uni0637" unicode="&#x637;" horiz-adv-x="964" 
d="M324 716v-379q126 136 299 136q126 0 208 -73q77 -69 77 -176v-100q0 -49 -33 -84q-38 -40 -91 -40h-666l-63 78v51h115v587h154zM754 207q0 63 -49 100q-42 34 -100 34q-60 0 -120 -34q-97 -56 -162 -178h417q14 0 14 14v64z" />
    <glyph glyph-name="uni0638" unicode="&#x638;" horiz-adv-x="964" 
d="M324 716v-379q126 136 299 136q126 0 208 -73q77 -69 77 -176v-100q0 -49 -33 -84q-38 -40 -91 -40h-666l-63 78v51h115v587h154zM560 680q32 0 54.5 -22.5t22.5 -55.5q0 -32 -22.5 -55t-54.5 -23q-33 0 -56 23t-23 55t23 55t56 23zM754 207q0 63 -49 100q-42 34 -100 34
q-60 0 -120 -34q-97 -56 -162 -178h417q14 0 14 14v64z" />
    <glyph glyph-name="uni0639" unicode="&#x639;" horiz-adv-x="601" 
d="M169 90q-33 44 -45 78q-14 39 -14 84q1 108 82 169q67 51 161 51q72 0 126 -17v-122q-58 11 -100 11q-62 0 -88.5 -25t-26.5 -83q0 -107 110 -107h187v-51l-63 -78h-163q-69 -5 -97 -32.5t-28 -89.5q0 -127 181 -127q59 0 113 17v-54l-65 -80q-37 -12 -80 -12
q-143 0 -226 76q-77 71 -77 193q0 136 113 199z" />
    <glyph glyph-name="uni063A" unicode="&#x63a;" horiz-adv-x="601" 
d="M334 680q32 0 54.5 -22.5t22.5 -55.5t-22.5 -55.5t-54.5 -22.5q-33 0 -56 23t-23 55q0 33 23 55.5t56 22.5zM169 90q-33 44 -45 78q-14 39 -14 84q1 108 82 170q67 50 162 50q71 0 125 -17v-122q-59 11 -100 11q-62 0 -88.5 -25t-26.5 -83q0 -107 110 -107h187v-51
l-63 -78h-163q-69 -5 -97 -32.5t-28 -89.5q0 -127 181 -127q59 0 113 17v-54l-65 -80q-37 -12 -79 -12q-144 0 -226 76q-78 71 -78 193q0 136 113 199z" />
    <glyph glyph-name="uni0640" unicode="&#x640;" horiz-adv-x="178" 
d="M181 129v-129h-185v129h185z" />
    <glyph glyph-name="uni0641" unicode="&#x641;" horiz-adv-x="1035" 
d="M769 680q33 0 55.5 -22.5t22.5 -55.5t-22.5 -55.5t-55.5 -22.5q-32 0 -55 23t-23 55t23 55t55 23zM563 129q-27 59 -27 123q0 102 76 165q65 55 157 55q95 0 155 -54q56 -50 56 -132v-1v-161q0 -53 -38 -89q-36 -35 -86 -35h-596q-82 0 -138 58q-53 57 -53 136v131l78 63
h76v-194q0 -22 13 -41q19 -24 48 -24h279zM826 284q0 25 -17 42t-41 17q-36 0 -58.5 -29t-22.5 -76q0 -109 103 -109h22q14 0 14 14v141z" />
    <glyph glyph-name="uni0642" unicode="&#x642;" horiz-adv-x="812" 
d="M456 680q33 0 55.5 -22.5t22.5 -55.5q0 -32 -22.5 -55t-55.5 -23q-32 0 -55 23t-23 55t23 55t55 23zM635 680q33 0 55.5 -22.5t22.5 -55.5q0 -32 -22.5 -55t-55.5 -23q-32 0 -55 23t-23 55t23 55t55 23zM598 -1q-35 -8 -67 -8q-82 0 -143 62q-76 77 -76 182q0 127 89 193
q62 44 146 44q76 0 131 -36q79 -53 79 -151v-247q0 -155 -111 -229q-79 -48 -189 -48h-88q-141 0 -225 79q-75 72 -75 198v84l78 63h76v-128q0 -91 43 -129t147 -38q88 0 129 24.5t56 84.5zM603 284q0 24 -14 40q-17 19 -43 19q-37 0 -59 -27q-23 -29 -23 -77
q0 -53 26.5 -87t68.5 -34q19 0 44 7v159z" />
    <glyph glyph-name="uni0643" unicode="&#x643;" horiz-adv-x="1003" 
d="M934 716v-592q0 -55 -42 -93q-35 -31 -82 -31h-550q-80 0 -134 56q-57 56 -57 138v131l78 63h76v-194q0 -27 18 -47q18 -18 43 -18h481q8 0 12 5q3 4 3 9v573h154zM423 388q-10 18 -15 39q-3 11 -4 27v2q0 57 35.5 89.5t96.5 32.5q32 0 60 -7v-68q-22 6 -41 6
q-59 0 -59 -56v-3q0 -21 9 -36q16 -26 56 -26h89v-29l-36 -45h-261v74h70z" />
    <glyph glyph-name="uni0644" unicode="&#x644;" horiz-adv-x="826" 
d="M757 716v-678q0 -120 -69 -193q-84 -84 -231 -84h-88q-139 0 -221 76q-79 74 -79 201v153l78 62h76v-196q0 -92 43 -129.5t147 -37.5t146 36q44 38 44 131v659h154z" />
    <glyph glyph-name="uni0645" unicode="&#x645;" horiz-adv-x="632" 
d="M163 129q-31 61 -31 126q0 102 76 164q65 53 159 53q120 0 177 -80q33 -47 33 -107v-161q0 -59 -46 -97q-34 -27 -78 -27h-230q-14 0 -14 -14v-297l-78 -62h-76v379q0 50 33.5 86.5t79.5 36.5h-5zM423 284q0 35 -27 52q-13 7 -29 7q-83 0 -83 -105q0 -109 112 -109h13
q14 0 14 14v141z" />
    <glyph glyph-name="uni0646" unicode="&#x646;" horiz-adv-x="826" 
d="M410 472q33 0 55.5 -22.5t22.5 -55.5t-23 -55.5t-55 -22.5t-55 23t-23 55t22.5 55t55.5 23zM757 460v-422q0 -128 -79 -202q-83 -75 -221 -75h-88q-154 0 -236 91q-64 72 -64 186v153l78 62h76v-196q0 -103 56 -140q42 -27 134 -27q105 0 147 37q43 38 43 130v403h154z
" />
    <glyph glyph-name="uni0647" unicode="&#x647;" horiz-adv-x="556" 
d="M500 487v-309q0 -92 -70 -144q-57 -43 -148 -43q-120 0 -185 87q-42 63 -42 146q0 112 75 186q67 66 162 66q49 0 90 -22l42 33h76zM346 336q-28 8 -46 8q-42 0 -68 -32t-26 -86q0 -49 21 -77.5t55 -28.5q29 0 48 19q16 17 16 40v157z" />
    <glyph glyph-name="uni0648" unicode="&#x648;" horiz-adv-x="556" 
d="M341 -1q-33 -8 -62 -8q-101 0 -168 85q-56 70 -56 159q0 102 62 168q66 69 173 69q81 0 136 -40q74 -52 74 -147v-247v-2q0 -135 -92 -210q-77 -64 -194 -64l-26 2l-63 79v53q3 -1 11 -2q26 -5 46 -5q85 2 125 44q24 25 34 66zM346 284q0 26 -17 43q-16 16 -40 16
q-38 0 -60 -27.5t-22 -76.5q0 -54 26 -87.5t68 -33.5q21 0 45 7v159z" />
    <glyph glyph-name="uni0649" unicode="&#x649;" horiz-adv-x="795" 
d="M223 57q0 -95 46.5 -132t165.5 -37q161 0 161 84q0 25 -17.5 38t-77.5 32q-94 30 -136.5 81t-42.5 135q0 111 74 168q60 46 159 46q64 0 118 -17v-115q-50 12 -87 12q-52 0 -83.5 -25t-31.5 -66q0 -39 20.5 -58.5t94.5 -49.5q85 -36 119 -68q45 -43 45 -109
q0 -118 -107 -175q-76 -40 -186 -40h-88q-109 0 -187 48q-113 73 -113 229v74l78 62h76v-117z" />
    <glyph glyph-name="uni064A" unicode="&#x64a;" horiz-adv-x="795" 
d="M223 57q0 -95 46.5 -132t165.5 -37q161 0 161 84q0 25 -18.5 38.5t-79.5 32.5q-92 29 -134 80.5t-42 134.5q0 111 74 168q60 46 159 46q64 0 118 -17v-115q-50 12 -87 12q-52 0 -83.5 -25t-31.5 -66q0 -40 20.5 -59t94.5 -50q85 -35 119 -67q45 -43 45 -109
q0 -118 -107 -175q-76 -40 -186 -40h-88q-109 0 -187 48q-113 73 -113 229v74l78 62h76v-117zM318 -297q32 0 55 -23t23 -56q0 -32 -23 -54.5t-55 -22.5q-33 0 -55.5 22.5t-22.5 54.5q0 33 22.5 56t55.5 23zM497 -297q32 0 55 -23t23 -56q0 -32 -23 -54.5t-55 -22.5
q-33 0 -55.5 22.5t-22.5 54.5q0 33 22.5 56t55.5 23z" />
    <glyph glyph-name="uni064B" unicode="&#x64b;" 
d="M233 691l-213 -59l-20 25v31l233 64v-61zM233 582l-213 -59l-20 24v31l233 65v-61z" />
    <glyph glyph-name="uni064C" unicode="&#x64c;" 
d="M215 609q-31 23 -31 65q0 35 24.5 58.5t59.5 23.5t57.5 -24t22.5 -59q0 -49 -41 -84.5t-97 -35.5q-66 0 -113 46l-48 -44h-23l-26 23l110 96q42 -66 98 -66q4 0 7 1zM267 632q28 16 28 41q0 35 -28 35q-29 0 -29 -31q0 -34 29 -45z" />
    <glyph glyph-name="uni064D" unicode="&#x64d;" 
d="M233 -149l-213 -59l-20 25v30l233 65v-61zM233 -259l-213 -58l-20 24v31l233 64v-61z" />
    <glyph glyph-name="uni064E" unicode="&#x64e;" 
d="M233 612l-213 -58l-20 24v31l233 64v-61z" />
    <glyph glyph-name="uni064F" unicode="&#x64f;" 
d="M106 616q-22 25 -22 56q0 35 24 59t59 24t57.5 -24t22.5 -61q0 -78 -114 -108l-113 -30l-20 24v31zM166 632q28 15 28 41q0 34 -28 34q-29 0 -29 -31q0 -34 29 -44z" />
    <glyph glyph-name="uni0650" unicode="&#x650;" 
d="M233 -185l-213 -58l-20 24v31l233 65v-62z" />
    <glyph glyph-name="uni0651" unicode="&#x651;" 
d="M299 718v-125q0 -16 -12 -33q-16 -18 -39 -18h-58l-19 20h-1q-6 -7 -15 -13q-12 -7 -27 -7h-77q-24 0 -39 19q-12 16 -12 32v75l32 26h32v-93q0 -3 2 -5t5 -2h38q5 0 6 2q3 1 3 7v91h63v-100h47q3 0 5 2q2 1 2 5v117h64z" />
    <glyph glyph-name="uni0652" unicode="&#x652;" 
d="M82 695q34 0 57.5 -24.5t23.5 -58.5q0 -35 -22 -56t-59 -21t-59.5 21t-22.5 56q0 34 24 58.5t58 24.5zM82 582q30 0 30 33q0 32 -30 32q-31 0 -31 -32q0 -33 31 -33z" />
    <glyph glyph-name="uni0653" unicode="&#x653;" 
d="M23 611q37 76 95 76q28 0 77 -23l10 -5q26 -12 40 -12q24 0 51 35l44 -34q-46 -67 -104 -67q-37 0 -80 23q-25 13 -37 13q-20 0 -57 -36z" />
    <glyph glyph-name="uni0654" unicode="&#x654;" 
d="M36 652q-12 28 -12 51q0 45 26 73t67 28q29 0 62 -9v-63q-25 6 -39 6q-36 0 -36 -43q0 -18 7 -28q11 -15 31 -15h70v-31l-27 -33h-184v64h35z" />
    <glyph glyph-name="uni0655" unicode="&#x655;" 
d="M36 -228q-13 27 -13 52q0 45 26.5 72.5t68.5 27.5q29 0 61 -9v-63q-25 7 -39 7q-37 0 -37 -43q0 -18 8 -29q10 -15 30 -15h70v-31l-27 -33h-184v64h36z" />
    <glyph glyph-name="uni0656" unicode="&#x656;" 
d="M0 -82h64v-184l-32 -25h-32v209z" />
    <glyph glyph-name="uni0657" unicode="&#x657;" 
d="M98 633q62 -13 62 -75q0 -33 -22.5 -56t-54.5 -23q-35 0 -57.5 25t-22.5 64q0 83 75 167h42l24 -20q-20 -29 -30 -49q-11 -23 -16 -33z" />
    <glyph glyph-name="uni0658" unicode="&#x658;" 
d="M64 694v-103q0 -40 59 -40q58 0 58 40v160h64v-161q0 -93 -122 -93q-65 0 -94 23.5t-29 76.5v72l31 25h33z" />
    <glyph glyph-name="uni0660" unicode="&#x660;" horiz-adv-x="351" 
d="M183 396l124 -122v-57l-122 -123l-153 150z" />
    <glyph glyph-name="uni0661" unicode="&#x661;" horiz-adv-x="338" 
d="M246 674v-611l-78 -63h-76v674h154z" />
    <glyph glyph-name="uni0662" unicode="&#x662;" horiz-adv-x="561" 
d="M92 460q0 117 67 176q58 50 158 50q99 0 175 -37v-124q-73 27 -130 27q-116 0 -116 -105v-384l-78 -63h-76v460z" />
    <glyph glyph-name="uni0663" unicode="&#x663;" horiz-adv-x="773" 
d="M246 674v-240q31 -8 55 -8q33 0 44 11q10 11 10 43v194h128v-202q0 -14 -2 -30q-1 -3 -1 -5q40 -10 57 -10q31 0 43 11q11 11 11 44v192h127v-198q0 -50 -13 -86q-12 -31 -39 -54q-45 -38 -122 -38q-87 0 -135 27q-46 -27 -99 -27q-15 0 -51 4q-8 1 -13 2v-241l-78 -63
h-76v674h154z" />
    <glyph glyph-name="uni0664" unicode="&#x664;" horiz-adv-x="550" 
d="M164 349q-77 51 -77 139q0 102 71 155q58 43 151 43q65 0 133 -26v-126q-60 18 -107 18q-45 0 -72.5 -19.5t-27.5 -51.5q0 -23 18 -38.5t44 -15.5h134v-50l-62 -79q-82 0 -120 -28q-31 -22 -31 -66q0 -29 17 -47q27 -28 89 -28h161v-50l-62 -79h-138q-102 0 -163 57
q-58 54 -58 139q0 52 29 93q26 38 71 60z" />
    <glyph glyph-name="uni0665" unicode="&#x665;" horiz-adv-x="581" 
d="M329 587q107 -32 166 -151q47 -92 47 -196q0 -126 -73 -192q-64 -57 -174 -57q-126 0 -191 74q-56 64 -56 173q0 124 58 222q56 97 150 127h73zM295 465q-41 -19 -70 -94q-24 -64 -25 -121q0 -61 19 -92q23 -38 76 -38q94 0 94 134q0 63 -29.5 129t-64.5 82z" />
    <glyph glyph-name="uni0666" unicode="&#x666;" horiz-adv-x="561" 
d="M69 649q76 37 175 37q115 0 173 -65q52 -58 52 -161v-397l-78 -63h-76v447q0 105 -116 105q-57 0 -130 -27v124z" />
    <glyph glyph-name="uni0667" unicode="&#x667;" horiz-adv-x="592" 
d="M562 673l-133 -549q-9 -40 -24 -66q-23 -43 -60 -59q-7 -4 -12 -4h-77q-5 0 -11 4q-34 14 -56 53q-16 29 -26 72l-133 549h153l113 -506l113 506h153z" />
    <glyph glyph-name="uni0668" unicode="&#x668;" horiz-adv-x="592" 
d="M256 679h77q2 -1 6 -2t6 -2q24 -9 41 -29q28 -32 43 -96l133 -550h-153l-113 507l-113 -507h-153l133 550q11 46 29 76q20 35 53 49q2 1 7 3q3 0 4 1z" />
    <glyph glyph-name="uni0669" unicode="&#x669;" horiz-adv-x="542" 
d="M266 264q-106 0 -167 60q-53 54 -53 145q0 94 56 154q59 63 156 63q74 0 127 -32q84 -52 84 -152v-439l-78 -63h-77v264h-48zM314 500q0 25 -17 42q-15 17 -39 17q-31 0 -50.5 -22.5t-19.5 -57.5q0 -48 24.5 -68t82.5 -20h19v109z" />
    <glyph glyph-name="uni066A" unicode="&#x66a;" horiz-adv-x="603" 
d="M131 688l97 -96v-45l-95 -96l-120 117zM567 673l-397 -673h-119l396 673h120zM479 238l97 -96v-45l-95 -97l-120 118z" />
    <glyph glyph-name="uni066B" unicode="&#x66b;" horiz-adv-x="257" 
d="M111 -4q-34 8 -50 34q-11 18 -11 44q0 24 15 44q23 32 62 32q35 0 57.5 -25t22.5 -64q0 -83 -75 -167h-41l-25 20q20 29 30 49q11 22 15 33z" />
    <glyph glyph-name="uni066C" unicode="&#x66c;" horiz-adv-x="257" 
d="M171 251l24 -20q-21 -31 -30 -50q-10 -18 -16 -32q35 -8 50 -33q12 -18 12 -45q0 -25 -15 -44q-23 -32 -62 -32q-35 0 -57.5 25t-22.5 64q0 83 75 167h42z" />
    <glyph glyph-name="uni066D" unicode="&#x66d;" horiz-adv-x="517" 
d="M324 682v-131l112 48l39 -124l-124 -29l79 -105l-105 -76l-67 103l-66 -103l-107 76l80 105l-124 29l39 124l112 -48v77l67 54h65z" />
    <glyph glyph-name="uni066E" unicode="&#x66e;" horiz-adv-x="1003" 
d="M934 460v-336q0 -46 -30 -80q-37 -44 -94 -44h-550q-70 0 -123 45q-68 58 -68 149v131l78 63h76v-194q0 -30 21 -49q19 -16 40 -16h481q15 0 15 14v317h154z" />
    <glyph glyph-name="uni066F" unicode="&#x66f;" horiz-adv-x="812" 
d="M598 -1q-35 -8 -67 -8q-82 0 -143 62q-76 77 -76 182q0 127 89 193q62 44 146 44q76 0 131 -36q79 -53 79 -151v-247q0 -155 -111 -229q-79 -48 -189 -48h-88q-141 0 -225 79q-75 72 -75 198v84l78 63h76v-128q0 -91 43 -129t147 -38q88 0 129 24.5t56 84.5zM603 284
q0 24 -14 40q-17 19 -43 19q-37 0 -59 -27q-23 -29 -23 -77q0 -53 26.5 -87t68.5 -34q19 0 44 7v159z" />
    <glyph glyph-name="uni0670" unicode="&#x670;" 
d="M0 742h64v-183l-32 -26h-32v209z" />
    <glyph glyph-name="uni0671" unicode="&#x671;" horiz-adv-x="292" 
d="M104 886q56 75 121 75q37 0 63 -22t26 -54q0 -39 -33 -64.5t-83 -25.5q-37 0 -91 18q-37 13 -47 13q-19 0 -57 -36l-39 30q37 75 96 75q22 0 44 -9zM164 866q30 -10 51 -10q41 0 41 26q0 25 -28 25q-31 0 -64 -41zM223 716v-678l-78 -63h-76v741h154z" />
    <glyph glyph-name="uni0674" unicode="&#x674;" 
d="M36 652q-12 28 -12 51q0 45 26 73t67 28q29 0 62 -9v-63q-25 6 -39 6q-36 0 -36 -43q0 -18 7 -28q11 -15 31 -15h70v-31l-27 -33h-184v64h35z" />
    <glyph glyph-name="uni0679" unicode="&#x679;" horiz-adv-x="1049" 
d="M460 640l-1 -114q42 59 114 59q46 0 73 -26t27 -70v-46q0 -23 -17 -39t-38 -16h-267v64h28v188h81zM603 493q0 17 -11 26q-9 9 -24 9q-27 0 -55 -20q-30 -20 -52 -56h135q7 0 7 7v34zM934 460v-336q0 -46 -29 -80q-38 -44 -95 -44h-550q-70 0 -123 45q-68 58 -68 149v131
l78 63h76v-194q0 -29 21 -49q19 -16 40 -16h481q15 0 15 14v317h154z" />
    <glyph glyph-name="uni067E" unicode="&#x67e;" horiz-adv-x="1003" 
d="M934 460v-336q0 -46 -30 -80q-37 -44 -94 -44h-550q-70 0 -123 45q-68 58 -68 149v131l78 63h76v-194q0 -30 21 -49q19 -16 40 -16h481q15 0 15 14v317h154zM413 -46q32 0 55 -23t23 -55q0 -33 -23 -56t-55 -23q-33 0 -55.5 23t-22.5 56q0 32 22.5 55t55.5 23zM591 -46
q32 0 55 -23t23 -55q0 -33 -23 -56t-55 -23t-55 23t-23 56q0 32 22.5 55t55.5 23zM502 -203q29 0 50 -20.5t21 -49.5t-21 -49.5t-50 -20.5t-50 20.5t-21 49.5t21 49.5t50 20.5z" />
    <glyph glyph-name="uni0686" unicode="&#x686;" horiz-adv-x="715" 
d="M209 443q94 29 174 29q119 0 201 -75q76 -70 76 -171v-102q0 -49 -34 -85q-37 -39 -90 -39h-202q-62 -4 -89 -27q-36 -30 -36 -94q0 -59 36 -97t91 -38q13 0 26 3v-43l-67 -82q-112 0 -177 78q-63 75 -63 177q0 125 76 187q79 65 215 65h145q15 0 15 14v66q0 56 -46.5 94
t-113.5 38q-56 0 -137 -21v123zM393 -46q33 0 56 -23t23 -55q0 -33 -23 -55.5t-56 -22.5q-32 0 -54.5 22.5t-22.5 55.5q0 32 22.5 55t54.5 23zM571 -46q33 0 55.5 -23t22.5 -55q0 -33 -22.5 -55.5t-55.5 -22.5q-32 0 -55 22.5t-23 55.5q0 32 23 55t55 23zM483 -202
q29 0 49.5 -21t20.5 -50t-20.5 -49.5t-49.5 -20.5q-30 0 -50.5 20.5t-20.5 49.5t20.5 50t50.5 21z" />
    <glyph glyph-name="uni0688" unicode="&#x688;" horiz-adv-x="537" 
d="M221 777v-114q41 58 115 58q45 0 71.5 -26t26.5 -70v-45q0 -23 -17 -40q-16 -16 -37 -16h-267v64h27v189h81zM364 630q0 34 -36 34q-58 0 -104 -76h134q6 0 6 7v35zM140 466q26 6 72 6q123 0 198 -77q67 -69 67 -175v-96q0 -55 -40 -91q-36 -33 -84 -33h-314v129h270
q14 0 14 14v65q0 61 -37.5 100t-97.5 39q-31 0 -48 -4v123z" />
    <glyph glyph-name="uni0691" unicode="&#x691;" horiz-adv-x="433" 
d="M151 776l-1 -114q40 59 114 59q46 0 72.5 -26t26.5 -70v-46q0 -23 -17 -40q-16 -15 -38 -15h-267v64h28v188h82zM293 629q0 35 -33 35q-58 0 -108 -76h134q7 0 7 7v34zM365 460v-422q0 -132 -83 -204q-51 -46 -124 -63q-35 -9 -80 -9l-26 2l-63 79v53q3 -1 11 -2
q26 -5 46 -5q83 2 123 42q41 40 41 125v404h155z" />
    <glyph glyph-name="uni0698" unicode="&#x698;" horiz-adv-x="433" 
d="M218 821q30 0 50.5 -20.5t20.5 -50.5q0 -29 -21 -49.5t-50 -20.5t-49.5 20.5t-20.5 49.5q0 30 20.5 50.5t49.5 20.5zM129 680q33 0 55.5 -22.5t22.5 -55.5q0 -32 -22.5 -55t-55.5 -23q-32 0 -55 23t-23 55q0 33 23 55.5t55 22.5zM307 680q33 0 55.5 -22.5t22.5 -55.5
q0 -32 -22.5 -55t-55.5 -23q-32 0 -55 23t-23 55q0 33 23 55.5t55 22.5zM365 460v-422q0 -132 -84 -205q-50 -45 -124 -63q-36 -8 -79 -8l-26 2l-63 79v53q3 -1 11 -2q26 -5 46 -5q86 2 126 45q38 40 38 122v404h155z" />
    <glyph glyph-name="uni06A1" unicode="&#x6a1;" horiz-adv-x="1035" 
d="M563 129q-27 59 -27 123q0 102 76 165q65 55 157 55q95 0 155 -54q56 -50 56 -132v-1v-161q0 -53 -38 -89q-36 -35 -86 -35h-596q-82 0 -138 58q-53 57 -53 136v131l78 63h76v-194q0 -22 13 -41q19 -24 48 -24h279zM826 284q0 25 -17 42t-41 17q-36 0 -58.5 -29
t-22.5 -76q0 -109 103 -109h22q14 0 14 14v141z" />
    <glyph glyph-name="uni06A4" unicode="&#x6a4;" horiz-adv-x="1035" 
d="M769 821q29 0 49.5 -20.5t20.5 -50.5q0 -29 -20.5 -49.5t-49.5 -20.5q-30 0 -50.5 20.5t-20.5 49.5q0 30 20.5 50.5t50.5 20.5zM680 680q32 0 55 -22.5t23 -55.5q0 -32 -23 -55t-55 -23q-33 0 -55.5 23t-22.5 55t22.5 55t55.5 23zM858 680q32 0 55 -23t23 -55t-23 -55
t-55 -23q-33 0 -55.5 23t-22.5 55q0 33 22.5 55.5t55.5 22.5zM563 129q-27 59 -27 123q0 102 76 165q65 55 157 55q95 0 155 -54q56 -50 56 -132v-1v-161q0 -53 -38 -89q-36 -35 -86 -35h-596q-82 0 -138 58q-53 57 -53 136v131l78 63h76v-194q0 -22 13 -41q19 -24 48 -24
h279zM826 284q0 25 -17 42t-41 17q-36 0 -58.5 -29t-22.5 -76q0 -109 103 -109h22q14 0 14 14v141z" />
    <glyph glyph-name="uni06A9" unicode="&#x6a9;" horiz-adv-x="989" 
d="M874 731v-145l-173 -108q105 -50 166 -136q61 -93 67 -218q0 -47 -31 -82q-38 -42 -94 -42h-549q-64 0 -115 38q-76 58 -76 156v138l75 61h79v-199q0 -31 21 -49q17 -16 40 -16h480q14 0 14 13q0 57 -48 118q-87 107 -224 118q-8 1 -8 10v125z" />
    <glyph glyph-name="uni06AF" unicode="&#x6af;" horiz-adv-x="989" 
d="M498 656l376 218v-95l-376 -217v94zM874 731v-145l-173 -108q105 -50 166 -136q61 -93 67 -218q0 -47 -31 -82q-38 -42 -94 -42h-549q-64 0 -115 38q-76 58 -76 156v138l75 61h79v-199q0 -31 21 -49q17 -16 40 -16h480q14 0 14 13q0 57 -48 118q-87 107 -224 118
q-8 1 -8 10v125z" />
    <glyph glyph-name="uni06BA" unicode="&#x6ba;" horiz-adv-x="826" 
d="M757 460v-422q0 -128 -79 -202q-83 -75 -221 -75h-88q-154 0 -236 91q-64 72 -64 186v153l78 62h76v-196q0 -103 56 -140q42 -27 134 -27q105 0 147 37q43 38 43 130v403h154z" />
    <glyph glyph-name="uni06BE" unicode="&#x6be;" horiz-adv-x="824" 
d="M259 449q119 51 228 51q131 0 211 -88q71 -77 71 -192v-96q0 -58 -43 -94q-35 -30 -81 -30h-242q-46 0 -69 14h-4q-24 -14 -70 -14h-142l-63 78v51h128q-12 23 -16 42q-6 22 -6 49q0 54 30 95q26 35 68 54v80zM615 203q0 180 -177 180q-26 0 -58 -3q55 -16 88 -59
q35 -44 35 -101q0 -26 -7 -51q-8 -28 -15 -40h120q7 0 11 5q3 3 3 9v60zM331 147q28 6 38 27q9 15 9 41q0 27 -14 48q-14 18 -33 18q-21 0 -34.5 -19.5t-13.5 -50.5q0 -53 48 -64z" />
    <glyph glyph-name="uni06C0" unicode="&#x6c0;" horiz-adv-x="556" 
d="M232 595q-12 28 -12 51q0 46 26.5 73.5t69.5 27.5q27 0 59 -9v-63q-25 7 -38 7q-38 0 -38 -44q0 -17 8 -28q11 -15 31 -15h70v-31l-27 -33h-184v64h35zM500 487v-309q0 -92 -70 -144q-57 -43 -148 -43q-120 0 -185 87q-42 63 -42 146q0 112 75 186q67 66 162 66
q49 0 90 -22l42 33h76zM346 336q-28 8 -46 8q-42 0 -68 -32t-26 -86q0 -49 21 -77.5t55 -28.5q29 0 48 19q16 17 16 40v157z" />
    <glyph glyph-name="uni06C1" unicode="&#x6c1;" horiz-adv-x="556" 
d="M500 487v-309q0 -92 -70 -144q-57 -43 -148 -43q-120 0 -185 87q-42 63 -42 146q0 112 75 186q67 66 162 66q49 0 90 -22l42 33h76zM346 336q-28 8 -46 8q-42 0 -68 -32t-26 -86q0 -49 21 -77.5t55 -28.5q29 0 48 19q16 17 16 40v157z" />
    <glyph glyph-name="uni06C2" unicode="&#x6c2;" horiz-adv-x="556" 
d="M228 595q-13 28 -13 51q0 45 27 73t70 28q32 0 70 -13v-67q-30 14 -49 14q-38 0 -38 -43q0 -15 6 -26q9 -17 32 -17h82v-31l-27 -33h-196v64h36zM500 487v-309q0 -92 -70 -144q-57 -43 -148 -43q-120 0 -185 87q-42 63 -42 146q0 112 75 186q67 66 162 66q49 0 90 -22
l42 33h76zM346 336q-28 8 -46 8q-42 0 -68 -32t-26 -86q0 -49 21 -77.5t55 -28.5q29 0 48 19q16 17 16 40v157z" />
    <glyph glyph-name="uni06C3" unicode="&#x6c3;" horiz-adv-x="556" 
d="M243 680q32 0 55 -23t23 -55t-23 -55t-55 -23q-33 0 -55.5 23t-22.5 55q0 33 22.5 55.5t55.5 22.5zM422 680q32 0 55 -23t23 -55t-23 -55t-55 -23q-33 0 -55.5 23t-22.5 55q0 33 22.5 55.5t55.5 22.5zM500 487v-309q0 -92 -70 -144q-57 -43 -148 -43q-120 0 -185 87
q-42 63 -42 146q0 112 75 186q67 66 162 66q49 0 90 -22l42 33h76zM346 336q-28 8 -46 8q-42 0 -68 -32t-26 -86q0 -49 21 -77.5t55 -28.5q29 0 48 19q16 17 16 40v157z" />
    <glyph glyph-name="uni06CC" unicode="&#x6cc;" horiz-adv-x="795" 
d="M223 57q0 -95 46.5 -132t165.5 -37q161 0 161 84q0 25 -17.5 38t-77.5 32q-94 30 -136.5 81t-42.5 135q0 111 74 168q60 46 159 46q64 0 118 -17v-115q-50 12 -87 12q-52 0 -83.5 -25t-31.5 -66q0 -39 20.5 -58.5t94.5 -49.5q85 -36 119 -68q45 -43 45 -109
q0 -118 -107 -175q-76 -40 -186 -40h-88q-109 0 -187 48q-113 73 -113 229v74l78 62h76v-117z" />
    <glyph glyph-name="uni06D2" unicode="&#x6d2;" horiz-adv-x="738" 
d="M527 516v-35q0 -115 -74 -172q-34 -26 -124 -64q-7 -3 -30 -12q-58 -23 -81 -40q-26 -22 -26 -42q0 -22 24 -22h511v-51l-62 -78h-459q-73 0 -121 44q-44 41 -44 104q0 88 88 145q31 19 107 52q9 4 16 7q8 4 28 12q35 13 50 23q43 26 43 94v35h154z" />
    <glyph glyph-name="uni06D3" unicode="&#x6d3;" horiz-adv-x="739" 
d="M147 580q-13 29 -13 50q0 45 26 73.5t68 28.5q29 0 61 -10v-63q-25 7 -37 7q-38 0 -38 -43q0 -19 8 -29q9 -14 30 -14h70v-31l-27 -33h-184v64h36zM528 516v-35q0 -115 -74 -172q-34 -26 -124 -64q-7 -3 -30 -12q-58 -23 -81 -40q-26 -22 -26 -42q0 -22 24 -22h511v-51
l-62 -78h-459q-73 0 -121 44q-44 41 -44 104q0 88 88 145q31 19 107 52q9 4 16 7q8 4 28 12q35 13 50 23q43 26 43 94v35h154z" />
    <glyph glyph-name="uni06D4" unicode="&#x6d4;" horiz-adv-x="161" 
d="M164 129v-129h-168v129h168z" />
    <glyph glyph-name="uni06F0" unicode="&#x6f0;" horiz-adv-x="351" 
d="M183 396l124 -122v-57l-122 -123l-153 150z" />
    <glyph glyph-name="uni06F1" unicode="&#x6f1;" horiz-adv-x="338" 
d="M246 674v-611l-78 -63h-76v674h154z" />
    <glyph glyph-name="uni06F2" unicode="&#x6f2;" horiz-adv-x="561" 
d="M92 460q0 117 67 176q58 50 158 50q99 0 175 -37v-124q-73 27 -130 27q-116 0 -116 -105v-384l-78 -63h-76v460z" />
    <glyph glyph-name="uni06F3" unicode="&#x6f3;" horiz-adv-x="773" 
d="M246 674v-240q31 -8 55 -8q33 0 44 11q10 11 10 43v194h128v-202q0 -14 -2 -30q-1 -3 -1 -5q40 -10 57 -10q31 0 43 11q11 11 11 44v192h127v-198q0 -50 -13 -86q-12 -31 -39 -54q-45 -38 -122 -38q-87 0 -135 27q-46 -27 -99 -27q-15 0 -51 4q-8 1 -13 2v-241l-78 -63
h-76v674h154z" />
    <glyph glyph-name="uni06F4" unicode="&#x6f4;" horiz-adv-x="598" 
d="M246 603q62 55 146 55q55 0 100 -10v-120q-40 9 -72 9q-120 0 -174 -127q72 -21 141 -21q92 0 156 19v-54l-56 -78q-61 -13 -113 -13q-63 0 -128 19v-221l-75 -61h-79v674h154v-71z" />
    <glyph glyph-name="uni06F5" unicode="&#x6f5;" horiz-adv-x="603" 
d="M306 51h-5q-37 -64 -101 -64q-71 0 -112.5 55.5t-41.5 152.5q0 230 168 358l-18 16l19 73l46 45q44 -19 135 -105q78 -73 122 -174.5t44 -208.5q0 -117 -60 -174q-41 -38 -89 -38q-67 0 -107 64zM299 197h10q34 -75 59 -75q47 0 47 91q0 75 -33 150.5t-78 103.5
q-45 -26 -78.5 -102.5t-33.5 -152.5q0 -90 47 -90q27 0 60 75z" />
    <glyph glyph-name="uni06F6" unicode="&#x6f6;" horiz-adv-x="545" 
d="M198 316q-81 53 -81 168q0 104 70 158q58 44 151 44q44 0 95 -13l-1 -130q-32 9 -67 9q-101 0 -101 -79q0 -70 61 -70q95 25 179 25h4v-60l-59 -74q-46 -2 -88 -23q-49 -23 -88 -69q-52 -60 -74 -139l-77 -63h-92q17 109 59 189q45 81 109 127z" />
    <glyph glyph-name="uni06F7" unicode="&#x6f7;" horiz-adv-x="592" 
d="M562 673l-133 -549q-9 -40 -24 -66q-23 -43 -60 -59q-7 -4 -12 -4h-77q-5 0 -11 4q-34 14 -56 53q-16 29 -26 72l-133 549h153l113 -506l113 506h153z" />
    <glyph glyph-name="uni06F8" unicode="&#x6f8;" horiz-adv-x="592" 
d="M256 679h77q2 -1 6 -2t6 -2q24 -9 41 -29q28 -32 43 -96l133 -550h-153l-113 507l-113 -507h-153l133 550q11 46 29 76q20 35 53 49q2 1 7 3q3 0 4 1z" />
    <glyph glyph-name="uni06F9" unicode="&#x6f9;" horiz-adv-x="542" 
d="M266 264q-106 0 -167 60q-53 54 -53 145q0 94 56 154q59 63 156 63q74 0 127 -32q84 -52 84 -152v-439l-78 -63h-77v264h-48zM314 500q0 25 -17 42q-15 17 -39 17q-31 0 -50.5 -22.5t-19.5 -57.5q0 -48 24.5 -68t82.5 -20h19v109z" />
    <glyph glyph-name="endash" unicode="&#x2013;" horiz-adv-x="470" 
d="M433 320v-129h-396v129h396z" />
    <glyph glyph-name="emdash" unicode="&#x2014;" horiz-adv-x="941" 
d="M904 320v-129h-867v129h867z" />
    <glyph glyph-name="quoteleft" unicode="&#x2018;" horiz-adv-x="257" 
d="M171 716l24 -20q-20 -29 -30 -49q-11 -23 -16 -33q34 -8 50 -33q12 -17 12 -45q0 -24 -15 -44q-23 -32 -62 -32q-35 0 -57.5 25t-22.5 64q0 83 75 167h42z" />
    <glyph glyph-name="quoteright" unicode="&#x2019;" horiz-adv-x="257" 
d="M111 562q-34 8 -50 34q-11 18 -11 44q0 24 15 44q23 32 62 32q35 0 57.5 -25t22.5 -64q0 -82 -75 -167h-41l-25 21q19 26 30 49l4 7q8 16 11 25z" />
    <glyph glyph-name="quotesinglbase" unicode="&#x201a;" horiz-adv-x="257" 
d="M111 -4q-34 8 -50 34q-11 18 -11 44q0 24 15 44q23 32 62 32q35 0 57.5 -25t22.5 -64q0 -83 -75 -167h-41l-25 20q20 29 30 49q11 22 15 33z" />
    <glyph glyph-name="quotedblleft" unicode="&#x201c;" horiz-adv-x="465" 
d="M171 716l24 -20q-20 -29 -30 -49q-11 -23 -16 -33q14 -3 24 -9q16 -8 26 -24q12 -17 12 -45q0 -24 -15 -44q-23 -32 -62 -32q-35 0 -57.5 25t-22.5 64q0 83 75 167h42zM378 716l25 -20q-21 -29 -31 -49q-10 -23 -15 -33q61 -13 61 -75q0 -33 -22 -56t-55 -23
q-34 0 -56.5 25t-22.5 64q0 83 74 167h42z" />
    <glyph glyph-name="quotedblright" unicode="&#x201d;" horiz-adv-x="465" 
d="M111 562q-34 8 -50 34q-11 18 -11 44q0 24 15 44q23 32 62 32q35 0 57.5 -25t22.5 -64q0 -82 -75 -167h-41l-25 21q19 26 30 49l4 7q8 16 11 25zM319 562q-34 8 -49 33q-12 18 -12 45q0 24 14 44q23 32 63 32q35 0 57.5 -25t22.5 -64q0 -82 -75 -167h-42l-24 21
q18 26 30 49l3 7q8 16 12 25z" />
    <glyph glyph-name="quotedblbase" unicode="&#x201e;" horiz-adv-x="465" 
d="M111 -4q-34 8 -50 34q-11 18 -11 44q0 24 15 44q23 32 62 32q35 0 57.5 -25t22.5 -64q0 -83 -75 -167h-41l-25 20q20 29 30 49q11 22 15 33zM319 -4q-34 8 -49 33q-12 18 -12 45q0 24 14 44q23 32 63 32q35 0 57.5 -25t22.5 -64q0 -83 -75 -167h-42l-24 20q20 29 30 49z
" />
    <glyph glyph-name="bullet" unicode="&#x2022;" horiz-adv-x="436" 
d="M219 334q55 0 93.5 -38.5t38.5 -93.5q0 -56 -38.5 -94.5t-93.5 -38.5t-94 39t-39 94t39 93.5t94 38.5z" />
    <glyph glyph-name="ellipsis" unicode="&#x2026;" horiz-adv-x="703" 
d="M103 151q33 0 56 -22.5t23 -54.5q0 -33 -23 -56t-56 -23q-32 0 -55 23t-23 56q0 32 23 54.5t55 22.5zM333 151q32 0 54.5 -22.5t22.5 -54.5q0 -33 -22.5 -56t-54.5 -23q-33 0 -56 23t-23 56q0 32 23 54.5t56 22.5zM600 151q33 0 55.5 -22.5t22.5 -54.5q0 -33 -23 -56
t-55 -23t-55 23t-23 56q0 32 23 54.5t55 22.5z" />
    <glyph glyph-name="guilsinglleft" unicode="&#x2039;" horiz-adv-x="331" 
d="M232 475l63 -52l-103 -156l103 -157l-63 -52h-58l-137 202v13l137 202h58z" />
    <glyph glyph-name="guilsinglright" unicode="&#x203a;" horiz-adv-x="331" 
d="M100 475h58l137 -202v-13l-137 -202h-58l-63 52l103 157l-103 156z" />
    <glyph glyph-name="fraction" unicode="&#x2044;" horiz-adv-x="571" 
d="M539 673l-396 -673h-120l396 673h120z" />
    <glyph glyph-name="Euro" unicode="&#x20ac;" horiz-adv-x="641" 
d="M150 439q17 124 84 186t178 62q68 0 117 -27v-126q-70 29 -118 29q-35 0 -58 -16q-41 -27 -51 -108h158v-85h-165q-1 -5 -1 -20q0 -17 1 -28h165v-87h-158q12 -55 46 -78.5t101 -23.5q49 0 100 14v-56l-63 -78q-38 -6 -74 -6q-104 0 -169 52q-69 58 -91 176h-60v87h51
q-2 7 -2 33q0 13 1 15h-50v85h58z" />
    <glyph glyph-name="trademark" unicode="&#x2122;" horiz-adv-x="728" 
d="M279 673v-73h-92v-226l-41 -33h-41v259h-91v73h265zM682 673v-299l-41 -33h-41v241l-78 -241h-71l-73 241h-2v-241h-79v332h121l71 -230l76 230h117z" />
    <glyph glyph-name="uni2153" unicode="&#x2153;" horiz-adv-x="847" 
d="M267 673v-360l-60 -50h-60v277l-76 -55l-55 69l154 119h97zM673 673l-396 -673h-119l396 673h119zM567 405q50 15 88 15q66 0 108.5 -31.5t46.5 -83.5q-2 -27 -13 -45q-21 -35 -72 -46q42 -6 73 -31q30 -29 30 -65q0 -53 -46.5 -87.5t-118.5 -34.5q-54 0 -84 9l-35 41v41
q54 -16 79 -16q51 0 72 21q13 11 13 31q0 26 -29.5 41.5t-78.5 15.5h-2h-2v73h51q47 0 47 38q0 21 -19 34t-50 13q-16 0 -58 -11v78z" />
    <glyph glyph-name="uni2154" unicode="&#x2154;" horiz-adv-x="871" 
d="M31 632q71 49 151 49q57 0 95 -33t38 -84q0 -37 -23.5 -70t-88.5 -87l-21 -18l-26 -23h175v-42l-50 -59h-267l1 92l56 48q25 21 58 48q17 15 24 21q50 50 50 78q0 4 -1 10q-2 5 -9 14q0 1 -1 2q-16 14 -38 14h-1q-17 -1 -62 -27q-2 -1 -5 -2zM706 673l-396 -673h-120
l397 673h119zM591 405q50 15 88 15q66 0 109 -32t46 -83q-2 -29 -13 -45q-20 -35 -71 -46q41 -5 72 -31q31 -29 31 -65q0 -53 -46.5 -87.5t-119.5 -34.5q-54 0 -83 9l-36 41v41q55 -16 79 -16q52 0 73 21q13 12 13 31q0 26 -29.5 41.5t-78.5 15.5h-2h-2v73h50q47 0 47 39
q0 20 -19 33t-49 13q-16 0 -59 -11v78z" />
    <glyph glyph-name="oneeighth" unicode="&#x215b;" horiz-adv-x="888" 
d="M267 673v-360l-60 -50h-60v277l-76 -55l-55 69l154 119h97zM673 673l-396 -673h-119l396 673h119zM644 209q-42 18 -64 52q-18 24 -18 51q0 52 40 81q41 25 110 25q61 0 100 -28q39 -29 39 -78q0 -26 -21 -56q-23 -28 -62 -47q48 -19 67 -38q32 -27 32 -69q0 -51 -42 -80
q-44 -34 -119 -34q-70 0 -113 29q-48 30 -48 87q0 35 32 64q31 25 67 41zM709 260q16 7 24 23q9 14 9 32q0 14 -7 21q-10 9 -28 9q-14 0 -22 -6q-13 -7 -13 -25q0 -14 10 -30q11 -16 27 -24zM707 164q-53 -24 -53 -59q0 -40 53 -40q55 0 55 39q0 36 -55 60z" />
    <glyph glyph-name="threeeighths" unicode="&#x215c;" horiz-adv-x="907" 
d="M39 670q52 16 86 16q68 0 111 -31.5t46 -83.5q-2 -27 -12 -45q-21 -34 -72 -46q42 -5 72 -32q31 -28 31 -64q0 -53 -46 -87.5t-117 -34.5q-57 0 -86 9l-36 40v43q53 -17 79 -17q52 0 73 20q13 12 13 32q0 25 -29 41t-76 16h-7v73h51q46 0 46 38q0 21 -19 33.5t-50 12.5
q-15 0 -58 -11v78zM693 673l-397 -673h-119l396 673h120zM663 209q-42 18 -64 52q-18 24 -18 51q0 52 40 81q40 25 109 25q62 0 101 -28q39 -29 39 -78q0 -26 -21 -56q-23 -28 -62 -47q47 -19 67 -38q32 -27 32 -69q0 -51 -42 -80q-44 -34 -119 -34q-70 0 -113 29
q-48 30 -48 87q0 35 32 64q30 25 67 41zM728 260q16 7 24 23q9 14 9 32q0 14 -8 21q-9 9 -27 9q-14 0 -22 -6q-13 -7 -13 -25q0 -14 9 -30q12 -16 28 -24zM726 164q-53 -24 -53 -59q0 -40 53 -40q55 0 55 39q0 36 -55 60z" />
    <glyph glyph-name="fiveeighths" unicode="&#x215d;" horiz-adv-x="932" 
d="M718 673l-396 -673h-120l397 673h119zM288 673v-84h-155l-4 -53h21q78 0 121.5 -36t43.5 -102q0 -150 -164 -150q-45 0 -99 13l-36 42v40q62 -19 102 -19q91 0 91 67q0 69 -101 69q-13 0 -28 -1q-13 0 -36 -4q-13 -2 -22 -3l15 221h251zM688 209q-41 18 -64 52
q-17 24 -17 51q0 53 40 81q39 25 109 25q62 0 101 -28q39 -29 39 -78q0 -26 -22 -56q-22 -28 -62 -47q99 -40 99 -109q0 -49 -45 -80.5t-116 -31.5q-70 0 -112 29q-48 30 -48 87q0 35 32 64q28 25 66 41zM754 260q16 8 23 23q9 13 9 32q0 13 -7 21q-10 9 -27 9q-14 0 -23 -6
q-12 -7 -12 -25q0 -13 9 -30q12 -16 28 -24zM752 164q-53 -23 -53 -59q0 -40 53 -40q54 0 54 39q0 36 -54 60z" />
    <glyph glyph-name="seveneighths" unicode="&#x215e;" horiz-adv-x="858" 
d="M646 673l-396 -673h-119l396 673h119zM316 672v-68l-128 -302l-53 -43h-81l140 321h-182v92h304zM615 209q-42 18 -64 52q-18 25 -18 51q0 52 41 81q39 25 109 25q61 0 100 -28q40 -29 40 -78q0 -26 -22 -56q-23 -28 -63 -47q48 -19 68 -38q32 -27 32 -69q0 -51 -42 -80
q-44 -34 -119 -34q-71 0 -113 29q-47 30 -47 87q0 35 31 64q29 24 67 41zM680 260q16 8 24 23q9 13 9 32q0 14 -8 21q-9 9 -27 9q-13 0 -22 -6q-13 -7 -13 -25q0 -15 9 -30q13 -16 28 -24zM678 164q-53 -23 -53 -58q0 -41 53 -41q55 0 55 39q0 35 -55 60z" />
    <glyph glyph-name="minus" unicode="&#x2212;" horiz-adv-x="534" 
d="M487 191h-441v109h441v-109z" />
    <glyph glyph-name="lessequal" unicode="&#x2264;" horiz-adv-x="525" 
d="M484 628v-118l-287 -142l287 -124v-119l-442 203v71zM482 108v-108h-441v108h441z" />
    <glyph glyph-name="greaterequal" unicode="&#x2265;" horiz-adv-x="524" 
d="M41 628l441 -229v-71l-441 -203v119l286 124l-286 142v118zM482 108v-108h-441v108h441z" />
    <glyph glyph-name="uni25CC" unicode="&#x25cc;" horiz-adv-x="545" 
d="M271 511q25 0 25 -25t-25 -25t-25 25t25 25zM191 495q25 0 25 -25t-25 -25t-25 25t25 25zM352 495q25 0 25 -25t-25 -25t-25 25t25 25zM123 449q25 0 25 -25q0 -24 -25 -24t-25 24q0 25 25 25zM420 449q25 0 25 -25q0 -24 -25 -24t-25 24q0 25 25 25zM78 381q24 0 24 -25
t-24 -25q-25 0 -25 25t25 25zM464 381q25 0 25 -25t-25 -25t-25 25t25 25zM62 301q25 0 25 -25t-25 -25t-25 25t25 25zM483 299q25 0 25 -25t-25 -25t-25 25t25 25zM78 221q24 0 24 -24q0 -25 -24 -25q-25 0 -25 25q0 24 25 24zM464 218q25 0 25 -25t-25 -25t-25 25t25 25z
M123 152q25 0 25 -24q0 -25 -25 -25t-25 25q0 24 25 24zM420 149q25 0 25 -25t-25 -25t-25 25t25 25zM191 104q25 0 25 -25t-25 -25t-25 25t25 25zM352 104q25 0 25 -25t-25 -25t-25 25t25 25zM271 87q25 0 25 -24q0 -25 -25 -25t-25 25q0 24 25 24z" />
    <glyph glyph-name="uniE004" unicode="&#xe004;" 
d="M150 695q56 74 121 74q37 0 63 -22t26 -53q0 -39 -33 -65t-82 -26q-38 0 -94 19q-35 12 -45 12q-20 0 -57 -35l-39 30q37 75 95 75q23 0 45 -9zM210 675q31 -10 51 -10q41 0 41 26q0 24 -28 24q-34 0 -64 -40z" />
    <glyph glyph-name="uniE005" unicode="&#xe005;" 
d="M180 947v-183l-32 -26h-32v209h64zM299 700v-126q0 -16 -12 -33q-16 -18 -39 -18h-58l-19 21h-1q-6 -7 -15 -14q-12 -7 -27 -7h-77q-24 0 -39 19q-12 16 -12 32v76l32 25h32v-93q0 -3 2 -5t5 -2h38q5 0 6 2q3 2 3 7v91h63v-100h47q3 0 5 2t2 5v118h64z" />
    <glyph glyph-name="uniE006" unicode="&#xe006;" 
d="M136 848q-22 25 -22 56q0 35 24 59t60 24q34 0 56.5 -24t22.5 -61q0 -78 -114 -108l-112 -31l-21 25v30zM197 864q27 14 27 40q0 35 -27 35q-30 0 -30 -31q0 -34 30 -44zM299 701v-125q0 -17 -12 -33q-16 -18 -39 -18h-58l-19 20h-1q-6 -7 -15 -13q-12 -7 -27 -7h-77
q-24 0 -39 18q-12 17 -12 33v75l32 26h32v-94q0 -3 2 -4q1 -3 5 -3h38q4 0 6 3q3 2 3 7v91h63v-101h47q2 0 4 2h1q2 2 2 5v118h64z" />
    <glyph glyph-name="uniE007" unicode="&#xe007;" 
d="M217 837q-30 23 -30 65q0 34 24.5 57.5t59.5 23.5q34 0 57 -24t23 -60q0 -49 -41.5 -83.5t-100.5 -35.5q-65 1 -110 47l-50 -46l-27 2l-22 22l112 97q42 -66 98 -66q3 0 7 1zM269 860q28 15 28 41q0 34 -27 34q-30 0 -30 -31q0 -34 29 -44zM336 720v-125q0 -17 -12 -33
q-16 -18 -40 -18h-58l-18 20h-2q-6 -7 -15 -14q-12 -6 -27 -6h-77q-23 0 -39 18q-12 18 -12 33v75l33 25h31v-93q0 -3 3 -5q1 -2 4 -2h38q5 0 6 2q3 3 3 7v91h64v-100h47q1 0 4 2h1q2 2 2 5v118h64z" />
    <glyph glyph-name="uniE008" unicode="&#xe008;" 
d="M262 888v-61l-212 -59l-21 24v31zM299 706v-125q0 -17 -12 -33q-16 -19 -39 -19h-58l-19 21h-1q-6 -7 -15 -14q-12 -7 -27 -7h-77q-24 0 -39 19q-12 17 -12 33v75l32 25h32v-93q0 -3 2 -5q1 -2 5 -2h38q4 0 6 2q3 2 3 7v91h63v-100h47q2 0 4 1l1 1q2 2 2 5v118h64z" />
    <glyph glyph-name="uniE009" unicode="&#xe009;" 
d="M262 992v-61l-210 -58l-20 25v31zM262 883v-61l-212 -59l-21 25v30zM299 701v-125q0 -17 -12 -33q-16 -18 -39 -18h-58l-19 20h-1q-6 -7 -15 -13q-12 -7 -27 -7h-77q-24 0 -39 18q-12 17 -12 33v75l32 26h32v-94q0 -3 2 -4q1 -3 5 -3h38q4 0 6 3q3 2 3 7v91h63v-101h47
q2 0 4 2h1q2 2 2 5v118h64z" />
    <glyph glyph-name="uniE00A" unicode="&#xe00a;" 
d="M299 861v-125q0 -17 -12 -33q-16 -19 -39 -19h-58l-19 21h-1q-6 -7 -15 -14q-12 -7 -27 -7h-77q-24 0 -39 19q-12 17 -12 33v75l32 25h32v-93q0 -3 2 -5q1 -2 5 -2h38q4 0 6 2q3 2 3 7v91h63v-100h47q2 0 4 1l1 1q2 2 2 5v118h64zM262 569l-213 -59l-20 24v31l233 65v-61
z" />
    <glyph glyph-name="uniE00B" unicode="&#xe00b;" 
d="M299 970v-125q0 -17 -12 -33q-16 -18 -39 -18h-58l-19 20h-1q-6 -7 -15 -13q-12 -7 -27 -7h-77q-24 0 -39 18q-12 17 -12 33v75l32 26h32v-93q0 -4 2 -5q1 -2 5 -2h38q5 0 6 2q3 2 3 7v91h63v-100h47q2 0 5 1q2 2 2 6v117h64zM261 673l-213 -59l-20 24v31l233 65v-61z
M261 563l-213 -58l-20 24v31l233 65v-62z" />
    <glyph glyph-name="uniE00C" unicode="&#xe00c;" 
d="M78 156q33 0 55.5 -22.5t22.5 -55.5q0 -32 -22.5 -55t-55.5 -23q-32 0 -55 23t-23 55q0 33 23 55.5t55 22.5z" />
    <glyph glyph-name="uniE00F" unicode="&#xe00f;" horiz-adv-x="1886" 
d="M757 716v-678q0 -120 -69 -193q-84 -84 -231 -84h-88q-139 0 -221 76q-79 75 -79 201v153l78 62h76v-196q0 -92 42.5 -129.5t147.5 -37.5q104 0 146 36q44 38 44 131v659h154zM1044 716v-573q0 -4 1 -7q4 -7 13 -7h195q4 0 9 3q4 4 4 11v317h154v-336q0 -45 -28 -79
q-38 -45 -95 -45h-283q-50 0 -87 35q-37 37 -37 89v592h154zM1817 460v-422q0 -136 -87 -208q-51 -43 -122 -60q-35 -8 -77 -8l-26 2l-64 79v53q3 -1 11 -2q26 -5 46 -5q83 2 123 42q42 39 42 125v404h154zM1065 -46q32 0 54.5 -23t22.5 -56q0 -32 -22.5 -55t-54.5 -23
q-33 0 -56 23t-23 55q0 33 23 56t56 23zM1244 -46q32 0 55 -23t23 -56q0 -32 -23 -55t-55 -23q-33 0 -56 23t-23 55q0 33 23 56t56 23z" />
    <glyph glyph-name="uniE010" unicode="&#xe010;" horiz-adv-x="618" 
d="M324 690q-2 -5 -8 -5t-6 12q0 8 3 12h2q-2 -4 -2 -7q0 -9 7 -9q4 0 4 7q0 3 -1 9l4 4q2 -7 2 -17q2 -2 4 -2q4 0 4 4q0 2 -1 6q-2 5 -2 7q0 4 2 5h1q0 -2 2 -7q3 -5 3 -12q0 -10 -10 -10q-5 0 -8 3zM218 659l-4 2q34 15 41 27q-13 7 -13 13q0 14 17 14q8 0 8 -10
q0 -7 -3 -14l6 -2l-2 -6q-3 1 -7 2q-1 1 -2 1q-11 -15 -41 -27zM501 243q23 4 67 27q1 0 2 1l3 -3l-8 -34q-45 -29 -101 -29q-53 0 -68 31q-9 -29 -35 -29q-27 0 -34 27q-45 -47 -78 -47q-10 0 -21 3v-44q0 -35 40 -35q37 0 136 37q4 2 8 3q50 19 61 19q19 0 19 -23
q0 -27 -38 -55l-4 6q24 20 24 35q0 7 -7 7q-5 0 -13 -2q-16 -5 -60 -21q-92 -35 -128 -35q-25 0 -37 14q2 -28 11 -38q37 -17 37 -21q0 -7 -5.5 -15t-9.5 -8q-5 0 -16 6q-20 10 -36 10q-18 0 -55 -21q-39 -21 -57 -21q-20 0 -32.5 19.5t-12.5 50.5t17.5 56.5t44.5 34.5h2
l2 -4q-21 -8 -36.5 -33.5t-15.5 -52.5q0 -43 29 -43q24 0 65 23q34 19 51 22q-4 17 -4 48v88q-22 15 -37 48q-3 -2 -15 -21q-37 -62 -62 -62q-20 0 -32.5 20t-12.5 51q0 30 17.5 56t44.5 35h2l1 -5q-20 -7 -35.5 -33t-15.5 -53q0 -42 29 -42q22 0 43 31q2 4 10 18
q21 32 31 32q8 0 15 -16l1 -1q8 -18 16 -24v115l-56 -1q-99 0 -99 40q0 36 37 54q8 4 26 12q46 19 46 46l-1 187q0 13 18 29h2l1 -219q0 -33 26 -49v38q0 16 19 28h2v-75h5q8 -1 12 -1q71 0 140 31v24q0 14 20 28h1l1 -42q20 11 27 11q6 0 6 -6q0 -3 -3 -11q-1 -4 -1 -9
q0 -14 13 -21q32 75 74 75q19 0 33 -12.5t14 -29.5q0 -27 -29 -47.5t-68 -20.5q-15 0 -26 5q-3 -4 -8 -11l-4 -6h-3q1 11 5 23q-16 13 -20 39l-10 -6v-70l123 3q44 0 44 -27q0 -12 -10 -25l-4 1q0 22 -30 22l-123 -3v-68q0 -44 60 -44q-14 21 -14 41q0 23 15.5 40t35.5 17
q27 0 55 -23l-2 -9q-19 5 -35 5q-35 0 -50 -25q2 -24 28 -41zM452 515h-4l-5 169q-2 3 -2 6q0 13 10 23h3q20 -29 20 -58q0 -1 -1 -2h-1l-10 10l4 -112q0 -25 -14 -36zM247 702q3 -3 11 -7q1 4 1 7q0 5 -4 5q-3 0 -8 -5zM267 618q-3 -6 -8 -29q-12 -59 -29 -59q-25 0 -25 62
q0 19 3 34h1l2 -3q-1 -9 -1 -15q0 -52 20 -52q11 0 23 50q11 46 24 46q5 0 5 -11q0 -8 -2 -24q-3 -12 -3 -24q0 -36 18 -36q35 0 35 56q0 24 -4 44q2 13 14 23h2q7 -18 6 -75v-12q0 -37 25 -37q24 0 34 21q-1 13 -12 46q-13 37 -13 40q0 4 6 15q2 3 3 4h2l2 -2q1 -2 2 -2
q18 -23 19 -29l-1 -1l-8 3q2 -11 8 -29q7 -24 7 -37q0 -22 -13 -38.5t-32 -16.5q-34 0 -43 33q-11 -33 -37 -33q-33 0 -33 58q0 14 3 30zM251 460l7 12l20 8q57 21 96 29l-6 -12q-34 -5 -102 -32zM547 461q-6 24 -23 24q-30 0 -58 -49h12q45 0 69 25zM208 375v36
q-35 10 -44 45q-12 -19 -55 -34q-34 -12 -39 -24q9 -24 99 -24zM229 406v-31q32 0 102 3q33 1 55 1v58q-66 -31 -142 -31h-15zM346 250q8 -11 20 -11q27 0 24 58v10q0 21 -1 43l-161 -4v-127q10 -5 21 -5q34 0 77 48q6 6 10 6t8 -12q2 -4 2 -6zM252 269l6 11q6 3 21 8
q57 22 96 30l-7 -12q-32 -5 -94 -29q-14 -5 -22 -8zM126 309h3q-6 -17 -6 -29q0 -11 5 -11t7 7h1q0 -22 -14 -22q-9 0 -9 17q0 23 13 38zM340 175l14 14l21 -19l-21 -22l-14 15l-15 -15l-19 22l19 19zM552 85q-5 3 -21 5q-33 5 -33 26q0 19 12 34t27 15q35 0 35 -54
q0 -46 -34 -84.5t-74 -38.5q-20 0 -34 14t-14 35q0 32 26 54l3 -6q-14 -12 -14 -31q0 -37 34 -37q23 0 47.5 19t39.5 49zM554 116q-1 0 -3 5q-9 17 -19 17q-15 0 -15 -11q0 -5 18 -8q13 -2 19 -3zM124 96q-4 -3 -7 -3q-5 0 -5 9q0 10 9 10q6 0 13 -11q3 16 13 16q8 0 8 -7
q0 -3 -2 -8v-4h-1q-1 5 -4 6q-8 0 -10 -27l-2 -2q0 21 -12 21zM335 51v2q5 -2 11 -2q10 0 20 7q-12 6 -20 6q-3 0 -5 -1l-2 1q0 11 15 11q3 0 10 -2q8 -3 13 -4q6 0 6 -2q0 -7 -10 -14.5t-21 -7.5q-9 0 -17 6zM386 22l8 7q5 -6 5 -19q0 -11 -12 -11q-7 0 -11 6q-4 -6 -11 -6
t-10 6q-12 -7 -36 -7q-12 0 -27 2v2h11q44 0 55 17h2q0 -9 7 -9q8 0 8 11h2q0 -11 13 -11q-2 11 -4 12z" />
    <glyph glyph-name="uniE015" unicode="&#xe015;" horiz-adv-x="706" 
d="M223 174v-117q0 -92 43 -129.5t147 -37.5q89 0 130.5 24.5t54.5 85.5h-50l-66 82v47h322v-129h-49q-13 -128 -113 -191q-77 -48 -185 -48h-88q-125 0 -205 62q-95 74 -95 215v74l78 62h76z" />
    <glyph glyph-name="uniE016" unicode="&#xe016;" horiz-adv-x="706" 
d="M223 174v-117q0 -92 43 -129.5t147 -37.5q89 0 130.5 24.5t54.5 85.5h-50l-66 82v47h322v-129h-49q-13 -128 -113 -191q-77 -48 -185 -48h-88q-125 0 -205 62q-95 74 -95 215v74l78 62h76zM318 -297q32 0 55 -23t23 -56q0 -32 -23 -54.5t-55 -22.5q-33 0 -55.5 22.5
t-22.5 54.5q0 33 22.5 56t55.5 23zM497 -297q32 0 55 -23t23 -56q0 -32 -23 -54.5t-55 -22.5q-33 0 -55.5 22.5t-22.5 54.5q0 33 22.5 56t55.5 23z" />
    <glyph glyph-name="uniE017" unicode="&#xe017;" horiz-adv-x="637" 
d="M105 319q-13 29 -13 51q0 45 26 73t67 28q29 0 62 -9v-63q-26 6 -38 6q-37 0 -37 -43q0 -18 7 -28q11 -15 31 -15h70v-31l-27 -33h-184v64h36zM246 174v-117q0 -92 43.5 -129.5t146.5 -37.5q89 0 130.5 24.5t54.5 85.5h-50l-66 82v47h323v-129h-50q-13 -128 -113 -191
q-77 -48 -185 -48h-88q-125 0 -205 62q-95 74 -95 215v74l78 62h76z" />
    <glyph glyph-name="uniE018" unicode="&#xe018;" horiz-adv-x="981" 
d="M934 460v-322q0 -4 1 -9h50v-129h-33l-42 46h-3q-38 -46 -97 -46h-550q-69 0 -121 44q-70 58 -70 150v131l78 63h76v-194q0 -31 22 -50q17 -15 39 -15h476q10 0 16 7q4 6 4 13v311h154z" />
    <glyph glyph-name="uniE019" unicode="&#xe019;" horiz-adv-x="377" 
d="M330 460v-322q0 -4 1 -9h49v-129h-31l-44 46h-2q-38 -46 -98 -46h-209v129h160q9 0 14 6q6 5 6 14v311h154z" />
    <glyph glyph-name="uniE01F" unicode="&#xe01f;" horiz-adv-x="889" 
d="M165 673h48q60 0 106 -94q35 -70 35 -128q0 -72 -43.5 -113t-120.5 -41q-78 0 -121 41t-43 114q0 105 63 174q16 18 39.5 32.5t36.5 14.5zM703 673l-396 -673h-120l397 673h119zM194 592h-8q-22 -8 -41.5 -49.5t-19.5 -82.5q0 -81 65 -81q25 0 41 13q23 19 24 70
q0 33 -15 69q-18 48 -46 61zM661 403h60q30 -5 54 -48q9 -18 17 -50l73 -305h-112l-62 277l-61 -277h-113l74 305q8 33 20 54q20 40 50 44z" />
    <glyph glyph-name="uniE020" unicode="&#xe020;" horiz-adv-x="725" 
d="M539 673l-396 -673h-120l396 673h120zM139 673v-358l-57 -45h-58v403h115zM494 403h60q30 -5 53 -48q9 -17 18 -50l73 -305h-112l-62 277l-62 -277h-112l74 305q8 34 19 54q20 40 51 44z" />
    <glyph glyph-name="uniE021" unicode="&#xe021;" horiz-adv-x="687" 
d="M133 673v-358l-57 -45h-58v403h115zM539 673l-396 -673h-120l396 673h120zM388 232q0 181 183 181q33 0 89 -16v-82q-27 6 -51 6q-50 0 -78.5 -29.5t-28.5 -81.5v-164l-56 -46h-58v232z" />
    <glyph glyph-name="uniE022" unicode="&#xe022;" horiz-adv-x="675" 
d="M127 673v-358l-57 -45h-58v403h115zM539 673l-397 -673h-119l396 673h120zM451 218q-40 32 -40 85q0 52 36.5 84t96.5 32q44 0 89 -14v-72q-22 7 -45 7q-70 0 -70 -46q0 -40 45 -40h63v-25l-35 -35h-9q-31 0 -59 -20q-20 -17 -20 -46q0 -25 14 -40q19 -18 63 -18h74v-25
l-35 -45h-83q-69 0 -107 38q-35 35 -35 86q0 32 17 58q12 19 40 36z" />
    <glyph glyph-name="uniE023" unicode="&#xe023;" horiz-adv-x="885" 
d="M539 673l-396 -673h-120l396 673h120zM139 673v-358l-57 -45h-58v403h115zM543 403v-121q6 -1 18 -1q18 0 31 5q18 8 18 40v81h90v-84v-5q0 -18 -3 -33q19 -4 31 -4q29 0 39 9t10 34v83h87v-99q0 -34 -8 -54q-7 -18 -24 -32q-27 -22 -78 -22q-69 0 -94 20
q-28 -20 -69 -20q-15 0 -33 3q-9 1 -15 2v-159l-56 -46h-58v403h114z" />
    <glyph glyph-name="uniE024" unicode="&#xe024;" horiz-adv-x="880" 
d="M698 673l-397 -673h-119l396 673h120zM373 673l-74 -306q-7 -31 -17 -49q-23 -44 -54 -49h-59q-30 4 -51 45q-11 21 -19 53l-74 306h112l62 -277l62 277h112zM648 403h60q31 -5 54 -48q9 -18 17 -50l73 -305h-112l-62 277l-61 -277h-112l73 305q9 35 20 54q20 40 50 44z
" />
    <glyph glyph-name="uniE025" unicode="&#xe025;" horiz-adv-x="941" 
d="M161 673v-122h18q19 0 30 4q19 9 19 41v81h90v-84q0 -25 -3 -38q18 -4 30 -4q29 0 39 8.5t10 34.5v83h88v-100q0 -33 -8 -53q-8 -19 -24 -32q-27 -22 -78 -22q-71 0 -94 20q-27 -20 -69 -20q-15 0 -34 2q-8 1 -14 2v-159l-57 -45h-58v403h115zM759 673l-396 -673h-120
l397 673h119zM716 403h60q30 -5 53 -48q10 -18 17 -50l74 -305h-112l-62 277l-62 -277h-112l74 305q7 32 19 54q21 40 51 44z" />
    <glyph glyph-name="uniE026" unicode="&#xe026;" horiz-adv-x="900" 
d="M161 673v-122h18q19 0 30 4q19 9 19 41v81h90v-84q0 -25 -3 -38q18 -4 30 -4q29 0 39 8.5t10 34.5v83h88v-100q0 -33 -8 -53q-8 -19 -24 -32q-27 -22 -78 -22q-71 0 -94 20q-27 -20 -69 -20q-15 0 -34 2q-8 1 -14 2v-159l-57 -45h-58v403h115zM765 673l-396 -673h-120
l396 673h120zM677 218q-40 32 -40 85q0 52 36.5 84t96.5 32q43 0 89 -14v-72q-22 7 -45 7q-70 0 -70 -46q0 -40 45 -40h63v-25l-35 -35h-9q-31 0 -59 -20q-20 -17 -20 -46q0 -25 14 -40q19 -18 63 -18h73v-25l-34 -45h-83q-69 0 -107 38q-35 35 -35 86q0 32 17 58
q12 19 40 36z" />
    <glyph glyph-name="uniE027" unicode="&#xe027;" horiz-adv-x="911" 
d="M45 502q0 181 186 181q33 0 87 -16v-82q-27 6 -52 6q-50 0 -78 -29.5t-28 -81.5v-164l-57 -46h-58v232zM575 673l-397 -673h-119l397 673h119zM572 403v-121q6 -1 18 -1q18 0 31 5q19 8 19 40v81h89v-84q1 -3 1 -5q0 -19 -4 -33q19 -4 31 -4q29 0 38.5 9t9.5 34v83h88
v-99q0 -33 -7 -54q-9 -19 -25 -32q-27 -22 -77 -22q-71 0 -95 20q-27 -20 -69 -20q-15 0 -33 3q-9 1 -15 2v-159l-56 -46h-59v403h115z" />
    <glyph glyph-name="uniE028" unicode="&#xe028;" 
d="M78 156q33 0 55.5 -22.5t22.5 -55.5q0 -32 -22.5 -55t-55.5 -23q-32 0 -55 23t-23 55q0 33 23 55.5t55 22.5z" />
    <glyph glyph-name="uniE030" unicode="&#xe030;" horiz-adv-x="981" 
d="M934 460v-322q0 -4 1 -9h50v-129h-33l-42 46h-3q-38 -46 -97 -46h-550q-69 0 -121 44q-70 58 -70 150v131l78 63h76v-194q0 -31 22 -50q17 -15 39 -15h476q10 0 16 7q4 6 4 13v311h154z" />
    <glyph glyph-name="uniE031" unicode="&#xe031;" horiz-adv-x="377" 
d="M330 460v-322q0 -4 1 -9h49v-129h-31l-44 46h-2q-38 -46 -98 -46h-209v129h160q9 0 14 6q6 5 6 14v311h154z" />
    <glyph glyph-name="uniE032" unicode="&#xe032;" horiz-adv-x="399" 
d="M330 460v-336q0 -44 -29 -79q-38 -45 -96 -45h-209v129h165q6 0 10 3q5 4 5 11v317h154z" />
    <glyph glyph-name="uniE033" unicode="&#xe033;" horiz-adv-x="1035" 
d="M602 129q-29 60 -29 123q0 97 67 160q65 60 160 60q99 0 164 -66q62 -62 62 -154q0 -66 -29 -123h42v-129h-144q-62 0 -93 18h-6q-31 -18 -94 -18h-405q-81 0 -138 59q-53 56 -53 135v131l78 63h76v-194q0 -25 15 -43q18 -22 46 -22h281zM799 131q74 16 74 107
q0 40 -16 70q-23 35 -58 35q-32 0 -53 -29q-22 -30 -22 -76q0 -92 75 -107z" />
    <glyph glyph-name="uniE034" unicode="&#xe034;" horiz-adv-x="624" 
d="M179 129q-29 58 -29 123q0 60 27 110q30 51 83 80.5t117 29.5q96 0 162 -64q65 -63 65 -156q0 -66 -29 -123h53v-129h-156q-62 0 -93 18h-6q-31 -18 -94 -18h-283v129h183zM376 131q75 15 75 107q-1 46 -21.5 75.5t-53.5 29.5q-32 0 -53 -30t-21 -75q0 -91 74 -107z" />
    <glyph glyph-name="uniE035" unicode="&#xe035;" horiz-adv-x="650" 
d="M177 129q-12 29 -18 53q-9 33 -9 70q0 73 39 127q68 93 194 93q90 0 148 -49q63 -53 63 -138v-161q0 -44 -28 -79q-38 -45 -96 -45h-474v129h181zM440 284q0 31 -24 48q-16 11 -33 11q-49 0 -70 -45q-11 -25 -11 -60q0 -67 41 -95q24 -14 62 -14h21q14 0 14 14v141z" />
    <glyph glyph-name="uniE036" unicode="&#xe036;" horiz-adv-x="785" 
d="M539 0q-116 0 -180 85q-47 65 -47 168q0 79 48 139q69 80 186 80q76 0 132 -36q79 -52 79 -151v-156h32v-129h-34q-11 -103 -79 -166q-83 -73 -219 -73h-88q-150 0 -232 87q-68 72 -68 190v84l78 63h76v-128q0 -91 43 -129t147 -38q89 0 130.5 24.5t54.5 85.5h-59z
M603 284q0 28 -20 45q-16 14 -37 14q-28 0 -49 -17q-34 -28 -34 -87q0 -43 21 -72q28 -38 88 -38h31v155z" />
    <glyph glyph-name="uniE053" unicode="&#xe053;" horiz-adv-x="709" 
d="M695 674v-127q-69 0 -127 -42q-49 -37 -109 -129q-17 -26 -24 -36q-7 12 -22 40q-39 71 -66 101q-44 48 -101 57v-475l-78 -63h-76v674h131q70 0 126 -30q45 -27 86 -76q48 58 101 84q31 15 55.5 18.5t103.5 3.5z" />
    <glyph glyph-name="uniE054" unicode="&#xe054;" horiz-adv-x="647" 
d="M465 651v-188l-297 -334h446v-50l-63 -79h-421q-54 0 -86 30.5t-32 80.5q0 57 61 122z" />
    <glyph glyph-name="uniE060" unicode="&#xe060;" horiz-adv-x="1286" 
d="M790 1108v-182l-32 -27h-32v209h64zM909 861v-125q0 -17 -12 -33q-15 -18 -39 -18h-58l-19 20h-1q-6 -7 -15 -13q-12 -7 -27 -7h-77q-24 0 -39 18q-12 18 -12 33v75l32 26h32v-94q0 -3 2 -4q2 -2 5 -2h38q5 0 6 2q3 2 3 7v91h64v-100h46q2 0 5 1h1q1 2 1 5v118h64z
M1212 613v-489q0 -47 -31 -82q-38 -42 -93 -42h-214l-42 47h-3q-19 -25 -47 -36q-23 -11 -50 -11h-260q-51 0 -93 40q-48 -49 -124 -49q-98 0 -155 83q-45 66 -45 155q0 116 72 183q63 59 163 59q49 0 93 -16l41 33h77v-345q0 -7 4 -10q4 -4 12 -4h171q5 0 8 2q6 4 6 12v470
h154v-439q0 -30 1 -45h187q9 0 12 7q2 4 2 7v470h154zM346 336q-26 6 -45 6q-43 0 -68.5 -30.5t-25.5 -82.5q0 -51 27 -82.5t72 -31.5q18 0 40 5v216z" />
    <glyph glyph-name="uniEA26" unicode="&#xea26;" horiz-adv-x="754" 
d="M297 544q-57 58 -57 116q0 56 42 94.5t104 38.5q61 0 100 -38t39 -98q0 -28 -12 -53q-13 -27 -49 -58q131 -73 189 -157q59 -87 59 -207q0 -146 -111 -241q-94 -81 -220 -81q-15 0 -31 1l-37 46v30q130 0 205 67q71 64 71 175q0 91 -49.5 159t-161.5 132q-8 -5 -26 -17
q-67 -45 -99 -71q-87 -80 -87 -176q0 -51 19 -91q18 -38 50 -52v-31l-34 -45q-68 26 -109.5 90t-41.5 142q0 194 247 325zM384 603q35 23 35 53q0 40 -35 40t-35 -39q0 -31 35 -54zM405 104q-21 -4 -39 -4q-54 0 -94 44t-40 103q0 62 37 102q40 42 105 42q50 0 83 -25
q45 -31 45 -88v-150q0 -71 -60 -116q-48 -37 -111 -37q-10 0 -19 1l-38 46v30q2 0 9 -1q14 -1 26 -2q54 0 79 27q11 12 17 28zM406 272q0 14 -9 24q-10 10 -23 10q-18 0 -31 -11q-16 -16 -16 -47q0 -30 15 -49.5t38 -19.5q11 0 26 5v88z" />
    <glyph glyph-name="uniFBB2" unicode="&#xfbb2;" 
d="M78 718q33 0 55.5 -22.5t22.5 -55.5q0 -32 -22.5 -55t-55.5 -23q-32 0 -55 23t-23 55q0 33 23 55.5t55 22.5z" />
    <glyph glyph-name="uniFBB3" unicode="&#xfbb3;" 
d="M78 -107q33 0 55.5 -23t22.5 -55q0 -33 -22.5 -55.5t-55.5 -22.5q-32 0 -55 22.5t-23 55.5q0 32 23 55t55 23z" />
    <glyph glyph-name="uniFBB4" unicode="&#xfbb4;" 
d="M78 732q33 0 55.5 -22.5t22.5 -55.5q0 -32 -22.5 -55t-55.5 -23q-32 0 -55 23t-23 55q0 33 23 55.5t55 22.5zM257 732q33 0 55.5 -22.5t22.5 -55.5q0 -32 -22.5 -55t-55.5 -23q-32 0 -55 23t-23 55q0 33 23 55.5t55 22.5z" />
    <glyph glyph-name="uniFBB5" unicode="&#xfbb5;" 
d="M78 -119q33 0 55.5 -22.5t22.5 -55.5t-22.5 -55.5t-55.5 -22.5q-32 0 -55 23t-23 55t23 55t55 23zM257 -119q33 0 55.5 -22.5t22.5 -55.5t-22.5 -55.5t-55.5 -22.5q-32 0 -55 23t-23 55t23 55t55 23z" />
    <glyph glyph-name="uniFBB6" unicode="&#xfbb6;" 
d="M167 867q29 0 50 -21t21 -50q0 -30 -21 -50.5t-50 -20.5t-49.5 20.5t-20.5 50.5q0 29 20.5 50t49.5 21zM78 725q33 0 55.5 -22.5t22.5 -55.5q0 -32 -22.5 -55t-55.5 -23q-32 0 -55 23t-23 55q0 33 23 55.5t55 22.5zM256 725q33 0 55.5 -22.5t22.5 -55.5q0 -32 -23 -55
t-55 -23t-55 23t-23 55q0 33 22.5 55.5t55.5 22.5z" />
    <glyph glyph-name="uniFBB7" unicode="&#xfbb7;" 
d="M168 -94q29 0 49.5 -20.5t20.5 -49.5q0 -30 -20.5 -50.5t-49.5 -20.5q-30 0 -50.5 20.5t-20.5 50.5q0 29 20.5 49.5t50.5 20.5zM78 -234q33 0 55.5 -23t22.5 -55q0 -33 -22.5 -55.5t-55.5 -22.5q-32 0 -55 22.5t-23 55.5q0 32 23 55t55 23zM257 -234q33 0 55.5 -23
t22.5 -55q0 -33 -22.5 -55.5t-55.5 -22.5q-32 0 -55 22.5t-23 55.5q0 32 23 55t55 23z" />
    <glyph glyph-name="uniFBB9" unicode="&#xfbb9;" 
d="M80 -119q32 0 55 -22.5t23 -54.5q0 -33 -23 -56t-55 -23q-33 0 -55.5 23t-22.5 56q0 32 22.5 54.5t55.5 22.5zM258 -119q32 0 55 -22.5t23 -54.5q0 -33 -23 -56t-55 -23q-33 0 -55.5 23t-22.5 56q0 32 22.5 54.5t55.5 22.5zM169 -275q29 0 50 -20.5t21 -49.5t-21 -50
t-50 -21t-50 21t-21 50t21 49.5t50 20.5z" />
    <glyph glyph-name="uniFD3E" unicode="&#xfd3e;" horiz-adv-x="580" 
d="M403 716l46 -37q-63 -101 -91 -227h62l-86 -86l-44 44l-44 -44l-84 86h62q32 155 124 264h55zM120 411l86 -87l-44 -43l44 -44l-86 -86v75l-83 36v30l83 31v88zM460 411v-88l83 -31v-30l-83 -36v-75l-86 86l45 44l-45 43zM290 335l55 -55l-55 -54l-54 54zM334 194l86 -84
h-63q28 -97 80 -179l-46 -37h-56q-77 89 -113 216h-60l84 84l44 -43z" />
    <glyph glyph-name="uniFD3F" unicode="&#xfd3f;" horiz-adv-x="580" 
d="M177 716h56q92 -110 124 -264h61l-84 -86l-43 44l-45 -44l-85 86h61q-26 123 -91 227zM120 411l86 -87l-44 -43l44 -44l-86 -86v75l-83 36v30l83 31v88zM461 411v-88l82 -31v-30l-82 -36v-75l-87 86l45 44l-45 43zM291 335l53 -55l-53 -54l-55 54zM334 194l84 -84h-59
q-35 -126 -114 -216h-56l-46 37q54 85 80 179h-62l85 84l45 -43z" />
    <glyph glyph-name="uniFDFD" unicode="&#xfdfd;" horiz-adv-x="2711" 
d="M1690 608q26 36 48 36q13 0 13 -13q0 -17 -17 -32.5t-35 -15.5q-5 0 -16 1q-9 1 -13 1q-25 0 -53 -30q-25 -28 -42 -37l36 -68l-2 -2l-30 24q6 -33 17 -101q22 -130 22 -152q0 -74 -71 -92q-70 -17 -96 -30t-70 -54q-35 -33 -66 -33q-20 0 -33.5 16.5t-13.5 40.5
q0 50 37 113q-35 -12 -64 -12q-37 0 -66 19q-4 -39 -25 -39q-23 0 -69 39q-31 -41 -64 -42q2 -14 2 -25q0 -68 -91 -119q-70 -40 -131 -40q-48 0 -76.5 30.5t-28.5 81.5q0 31 11 64q-10 -6 -26 -10q-70 -17 -96 -30t-70 -54q-35 -33 -66 -33q-20 0 -33.5 16.5t-13.5 40.5
q0 53 49 136q-28 -11 -49 -15q1 -8 1 -15q0 -9 -4 -19l-1 1q-1 9 -8 29q-18 -3 -32 -3q-61 0 -103 68q-6 9 -12 9q-16 0 -91 -60q32 -30 32 -64v-10v-9q-12 -3 -17 -3q-41 0 -60 45q-38 -34 -38 -59q0 -18 20 -115q8 -43 8 -75q0 -27 -6 -63h-3q-3 50 -22 143
q-16 78 -16 108q0 57 45 92l18 15q47 44 100 79q32 21 44 21q10 0 16 -12q21 -43 36.5 -56t47.5 -13q10 0 21 1q-2 6 -5 17q-9 28 -9 42q0 29 16.5 49t40.5 20q21 0 84 -22q46 -17 68 -22q34 -8 69 -8l1 -2l-20 -35q-13 2 -24 2q-17 0 -40 -12q-61 -31 -98 -45q-1 -4 -7 -15
q-39 -75 -39 -112q0 -38 31 -38q21 0 41 17q58 52 88.5 69t88.5 31q40 9 53.5 19t13.5 30q0 52 -47 294l-6 7l11 42h2l14 -26q12 8 50 54q25 29 56 29h13q26 36 48 36q13 0 13 -13q0 -17 -17 -32.5t-35 -15.5q-5 0 -16 1q-9 1 -13 1q-25 0 -53 -30q-25 -28 -42 -37l36 -68
l-2 -2l-30 24q6 -33 17 -101q22 -130 22 -152q0 -48 -29 -72q-13 -37 -13 -66q0 -34 26.5 -56.5t67.5 -22.5q60 0 136 42q64 35 64 62t-26 68l11 40h1q17 -30 22 -30q23 0 42 12.5t51 49.5q14 16 26 16q16 0 55 -35q21 -18 66 -18q51 0 149 49l-44 14q-21 7 -37 7
q-18 0 -22 -10l-48 4q11 52 55 52q17 0 40 -8l62 -20q50 -17 153 -24l1 -1l-28 -36q-27 6 -39 6q-33 0 -87 -22l-88 -37q-34 -65 -34 -103t31 -38q21 0 41 17q58 52 88.5 69t88.5 31q40 9 53.5 19t13.5 30q0 52 -47 294l-6 7l11 42h2l14 -26q12 8 50 54q25 29 56 29h13z
M2210 608q26 36 48 36q13 0 13 -13q0 -17 -16.5 -32.5t-34.5 -15.5q-5 0 -16 1q-9 1 -13 1q-26 0 -53 -30q-40 -43 -65 -43l-1 1q26 14 70 66q25 29 55 29h13zM1995 526h-2q3 11 3 19q0 24 -32 62l2 18q0 4 2 4q7 0 21.5 -27.5t14.5 -42.5q0 -16 -9 -33zM863 615q-4 3 -9 3
q-12 0 -19 -12q19 0 28 9zM1733 615q-4 3 -9 3q-12 0 -19 -12q19 0 28 9zM2254 615q-5 3 -9 3q-12 0 -19 -12q18 0 28 9zM1398 559v-2q-61 -45 -222 -92.5t-253 -47.5h-3v3q189 41 478 139zM641 538q-61 -81 -168 -81q-18 0 -47 3v2q132 17 215 80v-4zM818 109h-2q2 11 2 24
q0 25 -6 58l-48 302l-6 7l11 42h1l54 -101l-2 -2l-29 24q42 -264 42 -288v-1q0 -31 -17 -65zM1692 439l-29 24q42 -264 42 -288v-1q0 -31 -17 -65h-2q2 11 2 24q0 25 -6 58l-48 302l-6 7l11 42h1l54 -101zM2215 123l-2 -1q1 10 1 23q0 25 -5 60l-49 288l-6 7l11 42h2
l54 -101l-2 -2l-29 24l14 -86q27 -164 27 -188v-2q0 -30 -16 -64zM1965 487l-6 2l-1 2q4 20 13 20q5 0 5 -8q0 -47 12 -47q10 0 10 20q0 12 -5 30l8 16q5 -9 7 -33q0 -28 16 -28q4 0 8 3q0 6 -6 20q-7 16 -7 24q0 9 7 16l1 -1q0 -14 8 -34q6 -14 6 -20q0 -24 -21 -25
q-11 0 -16 11q-8 -17 -17 -17q-22 0 -22 49zM1850 429q-18 -42 -73 -68q-25 -12 -61 -18v1q34 12 75.5 40.5t48.5 44.5q-25 0 -25 23q0 13 9 21q0 23 13 23q7 0 17 -6q35 -22 35 -45q0 -16 -21 -16h-9h-9zM1299 405q0 14 10 39.5t15 25.5q1 0 1 -1v-3v-5q0 -1 -1 -5
q-1 -1 -1 -2q0 -3 15 -13q8 -7 8 -20q0 -38 -29 -38q-18 0 -18 22zM1846 448v2q0 15 -7 15q-10 0 -10 -11q0 -2 11 -4zM1877 445q-9 12 -22 19q1 -2 1 -8q0 -4 -1 -9q9 -2 22 -2zM2298 395q-27 2 -27 22q0 12 10 12q28 0 42 -52q10 68 34 68q15 0 15 -20q0 -6 -3 -6h-2
q-3 2 -8 2q-17 0 -32 -66q-2 -11 -3 -14l-6 -2q-3 32 -20 56zM1869 362h2q2 -9 8 -30q5 -16 7 -25q23 22 39 41v-2q0 -3 -1 -8q0 -4 -1 -6q-3 -20 -15 -33q-6 -7 -13 -14q-1 0 -2 -1q1 -3 7 -29q22 -97 57 -97q51 0 51 51q0 53 -16 161v1q-1 1 -1 2q0 2 8 23q5 13 9 24h2
q18 -128 22 -166q5 -46 17.5 -64t38.5 -18q27 0 42 21l-31 196l-9 8l15 42h1l44 -86l-2 -1l-21 13l18 -113q4 -26 4 -36q0 -34 -20.5 -58.5t-47.5 -24.5q-43 0 -58 48q-18 -63 -68 -63q-46 0 -67 92q-7 -21 -29.5 -36.5t-46.5 -15.5q-21 0 -21 20q0 44 63 100l7 7q5 4 6 5
l-8 29v1q0 4 5 22l2 6q2 9 3 14zM547 400l-1 1q5 20 14 20q4 0 4 -7q0 -47 12 -47q11 0 11 20q0 11 -5 30l7 15q6 -8 8 -32q0 -29 15 -29q5 0 9 4q0 6 -6 20l-1 2q-5 11 -5 16q-1 3 -1 6q0 9 7 16l1 -1q0 -14 8 -34q6 -14 6 -20q0 -24 -21 -26q-11 0 -17 12q-7 -17 -17 -17
q-21 0 -21 49zM1315 430q-5 -9 -5 -17t8 -8q18 0 18 9t-21 16zM1454 392l-6 2l-1 1q4 20 13 20q5 0 5 -7q0 -47 12 -47q10 0 10 20q0 12 -5 30l8 15q5 -8 7 -32q0 -29 16 -29q4 0 8 4q0 6 -6 20q-7 16 -7 24q0 9 7 16l1 -1q0 -15 9 -34q5 -14 5 -20q0 -24 -21 -26
q-11 0 -16 12q-8 -17 -17 -17q-22 0 -22 49zM2449 389q0 -1 -1 -3v-5q0 -1 -1 -4v-3q0 -3 14 -13q9 -6 9 -20q0 -38 -29 -38q-19 0 -19 22q0 14 10 40t15 26q2 0 2 -2zM89 377v-3q-1 -3 -1 -5q0 -1 -1 -4v-3q0 -3 14 -13q9 -6 9 -20q0 -38 -29 -38q-19 0 -19 22q0 14 10 40
t16 26q1 0 1 -2zM2475 159q-23 -39 -46 -39q-22 0 -48 39q-14 22 -22 22q-6 0 -25 -22q-6 -8 -10 -12q-36 -41 -36 -45q27 -24 27 -50q0 -53 -36 -53q-24 0 -43.5 15.5t-26.5 40.5h-2q-28 -102 -215 -168q-37 -14 -157 -38q-18 -4 -29 -6v4l56 22q225 91 287 140
q37 28 49 59l10 25q3 9 5 9q35 7 50 19t65 71q25 31 34 31q8 0 27 -29q4 -7 7 -11q17 -24 34 -24q27 0 47 37q10 19 16 19q5 0 5 -5q0 -2 -2 -8q-1 -7 -1 -11q0 -16 18 -16q20 0 35 36q5 14 12 14q3 0 3 -7q0 -31 34 -31q15 0 28 10q-3 11 -26 54q-30 55 -30 68l-10 2l11 40
h1l51 -45l-2 -3l-25 4q2 -9 18 -37q30 -54 30 -79q0 -61 -45 -61q-25 0 -48 31q-15 -42 -43 -42q-20 0 -32 30zM2438 351q-5 -10 -5 -17q0 -9 8 -9q18 0 18 9t-21 17zM78 339q-5 -10 -5 -17q0 -9 9 -9q18 0 18 9t-22 17zM391 225q56 10 141 50q-12 9 -58.5 22.5t-64.5 13.5
q-34 0 -34 -21q0 -5 16 -65zM852 229l26 37l36 -41l-25 -35zM1817 201v-3h7q43 0 59 32q-1 3 -3 12q-3 14 -7 23q-56 -52 -56 -64zM1106 217q24 -16 39 -17q-8 24 -22 24q-8 0 -17 -7zM274 129l14 27l45 -28l-20 -40l-40 25l-12 -27l-42 28l18 38zM2619 98l46 -27l-14 -36
l-47 25zM1947 92q-1 -1 -2 -3q-2 -6 -5 -7q-93 -48 -170 -48q-11 0 -20 1v1q24 7 64 17q73 19 133 39zM2295 41q-23 32 -58 32q-2 0 -8 -1q4 -7 13 -14q23 -20 40 -20q4 0 13 3zM133 -24v1q27 8 64 18q74 19 133 39q0 -1 -2 -4q-2 -5 -5 -7q-92 -48 -170 -48q-11 0 -20 1z
M2428 -38v1q24 7 65 18q74 19 132 38q0 -1 -1 -2q-3 -6 -6 -8q-92 -48 -170 -48q-11 0 -20 1z" />
    </font>
</defs>
</svg>
