<?xml version="1.0" standalone="no"?>
<!DOCTYPE svg PUBLIC "-//W3C//DTD SVG 1.1//EN" "http://www.w3.org/Graphics/SVG/1.1/DTD/svg11.dtd" >
<svg xmlns="http://www.w3.org/2000/svg" xmlns:xlink="http://www.w3.org/1999/xlink" version="1.1">
<metadata>
Created by FontForge 20170731 at Mon Jul  4 13:47:20 2022
 By Aleksey,,,
Copyright (c) 2016 by Alberto Romanos. All rights reserved.
</metadata>
<defs>
<font id="BwModelicaSS01-Bold" horiz-adv-x="1259" >
  <font-face 
    font-family="Bw Modelica SS01"
    font-weight="700"
    font-stretch="normal"
    units-per-em="2048"
    panose-1="0 0 8 0 0 0 0 0 0 0"
    ascent="1597"
    descent="-451"
    x-height="1104"
    cap-height="1516"
    bbox="-1792 -471 2564 2089"
    underline-thickness="102"
    underline-position="-307"
    unicode-range="U+000D-FB02"
  />
<missing-glyph horiz-adv-x="2609" 
d="M182 -20q-15 0 -25 10.5t-10 25.5q0 20 11 31l700 698h-663q-48 0 -48 39q0 14 15 33l696 701h-670q-41 0 -41 38v3q0 38 41 38h758q47 0 47 -41q0 -21 -16 -34l-698 -697h675q17 0 29 -12t12 -29v-669l695 692q13 16 34 16q37 0 37 -45v-663l697 692q13 16 32 16
q15 0 25 -12t10 -27q0 -18 -12 -28l-754 -762q-14 -14 -35 -14q-41 0 -41 47v663l-694 -696q-14 -14 -35 -14q-41 0 -41 47v663l-696 -696q-14 -14 -35 -14z" />
    <glyph glyph-name="fi" unicode="fi" horiz-adv-x="1308" 
d="M141 1270q0 158 98.5 253t258.5 95q147 0 243 -45l-20 -217q-50 22 -135 22q-74 0 -120 -41.5t-46 -109.5v-123h291v-227h-291v-877h-279v1270zM1028 1284q-72 0 -119 46t-47 118t47 119t119 47t118 -47t46 -119t-46 -118t-118 -46zM889 0v1104h278v-1104h-278z" />
    <glyph glyph-name="fl" unicode="fl" horiz-adv-x="1310" 
d="M141 1270q0 158 98.5 253t258.5 95q147 0 243 -45l-20 -217q-50 22 -135 22q-74 0 -120 -41.5t-46 -109.5v-123h291v-227h-291v-877h-279v1270zM889 1597h278v-1597h-278v1597z" />
    <glyph glyph-name=".notdef" horiz-adv-x="2609" 
d="M182 -20q-15 0 -25 10.5t-10 25.5q0 20 11 31l700 698h-663q-48 0 -48 39q0 14 15 33l696 701h-670q-41 0 -41 38v3q0 38 41 38h758q47 0 47 -41q0 -21 -16 -34l-698 -697h675q17 0 29 -12t12 -29v-669l695 692q13 16 34 16q37 0 37 -45v-663l697 692q13 16 32 16
q15 0 25 -12t10 -27q0 -18 -12 -28l-754 -762q-14 -14 -35 -14q-41 0 -41 47v663l-694 -696q-14 -14 -35 -14q-41 0 -41 47v663l-696 -696q-14 -14 -35 -14z" />
    <glyph glyph-name=".null" horiz-adv-x="0" 
 />
    <glyph glyph-name="nonmarkingreturn" horiz-adv-x="682" 
 />
    <glyph glyph-name="CR" unicode="&#xd;" horiz-adv-x="432" 
 />
    <glyph glyph-name="space" unicode=" " horiz-adv-x="505" 
 />
    <glyph glyph-name="exclam" unicode="!" horiz-adv-x="593" 
d="M178 444l-26 1072h290l-24 -1072h-240zM297 -20q-71 0 -118.5 46.5t-47.5 118.5t47.5 119t118.5 47q72 0 119 -47t47 -119t-47 -118.5t-119 -46.5z" />
    <glyph glyph-name="quotedbl" unicode="&#x22;" horiz-adv-x="831" 
d="M125 1155l-6 442h223l-6 -442h-211zM498 1155l-6 442h223l-6 -442h-211z" />
    <glyph glyph-name="numbersign" unicode="#" horiz-adv-x="1523" 
d="M1411 868h-250l-71 -309h253l-45 -182h-249l-88 -377h-203l88 377h-328l-88 -377h-201l88 377h-249l45 182h245l72 309h-248l41 183h250l88 383h201l-88 -383h327l89 383h202l-88 -383h250zM887 559l71 309h-327l-72 -309h328z" />
    <glyph glyph-name="dollar" unicode="$" horiz-adv-x="1331" 
d="M1241 428q0 -171 -117.5 -287.5t-316.5 -148.5v-176h-289v174q-241 36 -397 180l108 195q178 -146 412 -146q143 0 222 47.5t79 134.5q0 85 -78 135t-239 95l-86 24q-101 28 -175 60.5t-136 81t-94 118.5t-32 160q0 176 113 296.5t307 152.5v176h289v-176
q209 -36 365 -162l-129 -201q-169 135 -381 135q-120 0 -192.5 -47.5t-72.5 -126.5q0 -35 14.5 -64t36.5 -48.5t60.5 -38t72.5 -30t87 -26.5l88 -24q75 -20 140 -46t129.5 -66t110 -88.5t73.5 -116t28 -146.5z" />
    <glyph glyph-name="percent" unicode="%" horiz-adv-x="1767" 
d="M453 838q-172 0 -278.5 96t-106.5 252q0 158 106.5 254t278.5 96t277.5 -96t105.5 -254q0 -157 -105.5 -252.5t-277.5 -95.5zM526 -20l-149 90l860 1466l147 -90zM455 1016q68 0 110.5 47t42.5 123q0 77 -42.5 123.5t-110.5 46.5q-72 0 -116 -46t-44 -124q0 -76 44 -123
t116 -47zM1317 -20q-173 0 -279 96t-106 254q0 157 106 252.5t279 95.5q172 0 276.5 -95.5t104.5 -252.5q0 -158 -104.5 -254t-276.5 -96zM1317 160q68 0 110.5 47t42.5 123t-42.5 123t-110.5 47q-72 0 -115 -46.5t-43 -123.5t43 -123.5t115 -46.5z" />
    <glyph glyph-name="ampersand" unicode="&#x26;" horiz-adv-x="1591" 
d="M1309 219q102 0 192 37v-225q-122 -51 -282 -51q-96 0 -171 40t-118 111q-142 -151 -371 -151q-208 0 -337.5 121t-129.5 317q0 136 74.5 240.5t208.5 160.5q-98 50 -151.5 134t-53.5 190q0 177 138 285t362 108q220 0 354.5 -110t134.5 -289v-215h326v-217h-326v-320
q0 -75 41 -120.5t109 -45.5zM670 1296q-95 0 -152 -50.5t-57 -133.5q0 -85 57 -137.5t152 -52.5h211v186q0 86 -57.5 137t-153.5 51zM629 219q109 0 180.5 58.5t71.5 175.5v252h-211q-130 0 -209.5 -68t-79.5 -178q0 -107 69 -173.5t179 -66.5z" />
    <glyph glyph-name="quotesingle" unicode="'" horiz-adv-x="458" 
d="M125 1155l-6 442h223l-6 -442h-211z" />
    <glyph glyph-name="parenleft" unicode="(" horiz-adv-x="690" 
d="M391 -369q-40 62 -76 127.5t-79.5 165t-74.5 201t-52 231t-21 258.5t21 258.5t52 231t74.5 201t79.5 165t76 127.5h258q-35 -61 -61 -110.5t-69 -152.5t-71 -201t-49.5 -237.5t-21.5 -281.5t21.5 -281.5t49.5 -237.5t71 -201t69 -152.5t61 -110.5h-258z" />
    <glyph glyph-name="parenright" unicode=")" horiz-adv-x="690" 
d="M39 -369q36 62 61.5 110.5t69.5 152.5t71.5 201.5t49.5 237.5t22 281t-22 281t-49.5 237.5t-71.5 201.5t-69.5 152.5t-61.5 110.5h260q40 -62 76 -127.5t79.5 -165t74.5 -201t52 -231t21 -258.5t-21 -258.5t-52 -231t-74.5 -201t-79.5 -165t-76 -127.5h-260z" />
    <glyph glyph-name="asterisk" unicode="*" horiz-adv-x="806" 
d="M711 1229l-174 -51l110 -144l-141 -102l-103 149l-102 -149l-141 102l110 144l-172 51l54 166l170 -62l-7 183h177l-5 -181l170 60z" />
    <glyph glyph-name="plus" unicode="+" horiz-adv-x="1142" 
d="M1057 831v-229h-346v-354h-279v354h-346v229h346v357h279v-357h346z" />
    <glyph glyph-name="comma" unicode="," horiz-adv-x="589" 
d="M16 -297l144 561h321l-182 -561h-283z" />
    <glyph glyph-name="hyphen" unicode="-" horiz-adv-x="980" 
d="M129 494v198h725v-198h-725z" />
    <glyph glyph-name="period" unicode="." horiz-adv-x="557" 
d="M279 -20q-75 0 -129 53.5t-54 128.5t54 128.5t129 53.5t128.5 -53.5t53.5 -128.5t-53.5 -128.5t-128.5 -53.5z" />
    <glyph glyph-name="slash" unicode="/" horiz-adv-x="921" 
d="M76 -205l489 1802h281l-490 -1802h-280z" />
    <glyph glyph-name="zero" unicode="0" horiz-adv-x="1320" 
d="M662 -20q-171 0 -302.5 96.5t-203.5 273.5t-72 408t72 408t203.5 273.5t302.5 96.5q259 0 417 -214t158 -564t-158 -564t-417 -214zM662 219q126 0 202 148t76 391t-76 390.5t-202 147.5t-202.5 -147.5t-76.5 -390.5t76.5 -391t202.5 -148z" />
    <glyph glyph-name="one" unicode="1" horiz-adv-x="917" 
d="M451 0v1145l-295 -209l-144 205l508 375h219v-1516h-288z" />
    <glyph glyph-name="two" unicode="2" horiz-adv-x="1214" 
d="M86 0v182l469 508q1 1 29 31.5t36 39.5t35 40.5t38 48t33 47t32.5 53t23.5 51t18 55t5 52.5q0 85 -54.5 136.5t-142.5 51.5q-96 0 -154.5 -62.5t-58.5 -164.5l-293 27q0 198 137 319t361 121q225 0 360.5 -111t135.5 -295q0 -78 -24.5 -152.5t-77 -152t-107 -141
t-142.5 -156.5l-282 -295l651 7v-240h-1028z" />
    <glyph glyph-name="three" unicode="3" horiz-adv-x="1191" 
d="M635 920q212 -4 340.5 -129.5t128.5 -325.5q0 -220 -156.5 -352.5t-421.5 -132.5q-141 0 -265.5 40t-197.5 111l109 211q56 -59 140 -91t182 -32q143 0 227 67t84 177q0 108 -79 172.5t-210 64.5q-116 0 -207 -49l-78 146l418 479h-516v240h893v-181z" />
    <glyph glyph-name="four" unicode="4" horiz-adv-x="1314" 
d="M745 0v293h-702v199l766 1024h225v-984h209v-239h-209v-293h-289zM383 524h371l4 500z" />
    <glyph glyph-name="five" unicode="5" horiz-adv-x="1212" 
d="M510 -20q-298 0 -457 135l86 209q128 -105 344 -105q154 0 248 74.5t94 195.5q0 104 -66.5 168t-176.5 64q-66 0 -126 -20.5t-98 -53.5l-192 27l104 842h779v-240h-531l-51 -338q82 23 166 23q216 0 353.5 -125t137.5 -326q0 -238 -170.5 -384t-443.5 -146z" />
    <glyph glyph-name="six" unicode="6" horiz-adv-x="1206" 
d="M672 928q129 0 236 -56.5t171 -163.5t64 -243q0 -218 -146.5 -351.5t-384.5 -133.5t-384 132t-146 349q0 124 40.5 228t123.5 220l428 607h325l-442 -596q44 8 115 8zM610 219q104 0 168 67t64 177q0 109 -64 177.5t-168 68.5q-103 0 -167 -68.5t-64 -177.5
q0 -110 64 -177t167 -67z" />
    <glyph glyph-name="seven" unicode="7" horiz-adv-x="1105" 
d="M47 1516h1026l-512 -1516h-305l442 1276h-651v240z" />
    <glyph glyph-name="eight" unicode="8" 
d="M913 788q117 -53 181.5 -147t64.5 -217q0 -200 -145 -322t-383 -122q-239 0 -385 120.5t-146 317.5q0 124 64.5 219.5t181.5 150.5q-98 50 -151.5 135.5t-53.5 194.5q0 189 134.5 303.5t355.5 114.5q220 0 353.5 -114t133.5 -300q0 -109 -53.5 -196t-151.5 -138z
M629 1296q-86 0 -138.5 -54t-52.5 -142q0 -89 52.5 -143t138.5 -54t138 54t52 143q0 88 -52 142t-138 54zM629 219q104 0 167.5 60.5t63.5 160.5q0 101 -63.5 163.5t-167.5 62.5t-168 -62.5t-64 -163.5q0 -100 64 -160.5t168 -60.5z" />
    <glyph glyph-name="nine" unicode="9" horiz-adv-x="1206" 
d="M592 1536q238 0 384 -132t146 -349q0 -124 -40.5 -228.5t-123.5 -220.5l-428 -606h-325l442 596q-44 -8 -115 -8q-129 0 -236 56.5t-171 163.5t-64 243q0 218 146.5 351.5t384.5 133.5zM362 1053q0 -109 64 -177.5t168 -68.5q103 0 167 68.5t64 177.5q0 110 -64 176.5
t-167 66.5q-104 0 -168 -66.5t-64 -176.5z" />
    <glyph glyph-name="colon" unicode=":" horiz-adv-x="595" 
d="M299 762q-75 0 -129.5 53.5t-54.5 128.5t54.5 127.5t129.5 52.5q74 0 127 -52.5t53 -127.5t-53 -128.5t-127 -53.5zM299 -20q-75 0 -129.5 53.5t-54.5 128.5t54.5 128.5t129.5 53.5q74 0 127 -53.5t53 -128.5t-53 -128.5t-127 -53.5z" />
    <glyph glyph-name="semicolon" unicode=";" horiz-adv-x="657" 
d="M342 762q-75 0 -128.5 53.5t-53.5 128.5t53.5 127.5t128.5 52.5t128.5 -52.5t53.5 -127.5t-53.5 -128.5t-128.5 -53.5zM55 -297l144 561h321l-184 -561h-281z" />
    <glyph glyph-name="less" unicode="&#x3c;" horiz-adv-x="1177" 
d="M1036 1245v-260l-618 -268l618 -268v-261l-962 439v180z" />
    <glyph glyph-name="equal" unicode="=" horiz-adv-x="1236" 
d="M135 829v230h969v-230h-969zM135 377v229h969v-229h-969z" />
    <glyph glyph-name="greater" unicode="&#x3e;" horiz-adv-x="1177" 
d="M141 1245l963 -438v-180l-963 -439v261l619 268l-619 268v260z" />
    <glyph glyph-name="question" unicode="?" horiz-adv-x="1124" 
d="M430 444q0 83 14 154t32.5 117.5t51 91t56 68t59.5 55.5q37 34 57 55.5t37 56t17 72.5q0 83 -56 132.5t-149 49.5q-91 0 -149.5 -49.5t-65.5 -132.5l-268 12q9 185 141.5 297.5t341.5 112.5q227 0 365.5 -111.5t138.5 -294.5q0 -57 -14 -104t-45 -87.5t-55.5 -64.5
t-70.5 -63q-39 -34 -59.5 -52.5t-51.5 -55.5t-46.5 -70t-28 -82.5t-12.5 -106.5h-240zM549 -20q-72 0 -119 46.5t-47 118.5t47 119t119 47t119 -47t47 -119t-47 -118.5t-119 -46.5z" />
    <glyph glyph-name="at" unicode="@" horiz-adv-x="2304" 
d="M1343 985h269v-534q0 -62 33 -100t88 -38q88 0 141 99t53 250q0 193 -93 337.5t-260 221.5t-386 77q-243 0 -427 -96t-283 -270.5t-99 -403.5q0 -227 97.5 -398.5t281 -266t430.5 -94.5q122 0 281.5 18.5t277.5 50.5l82 -217q-136 -42 -318.5 -67t-332.5 -25
q-247 0 -450.5 72.5t-343.5 203.5t-217 317.5t-77 409.5q0 300 135 528t384 352t579 124q302 0 532.5 -104t358 -298.5t127.5 -453.5q0 -266 -130 -435t-339 -169q-112 0 -196.5 50t-127.5 140q-49 -90 -134.5 -141t-201.5 -51q-189 0 -312.5 128t-123.5 333
q0 207 123 336.5t305 129.5q173 0 270 -127zM1130 313q92 0 147.5 62t55.5 162q0 101 -55.5 163t-147.5 62q-91 0 -145.5 -62t-54.5 -163q0 -100 55 -162t145 -62z" />
    <glyph glyph-name="A" unicode="A" horiz-adv-x="1652" 
d="M827 1536q298 0 480 -163.5t182 -430.5v-942h-289v444h-747v-444h-289v942q0 267 182.5 430.5t480.5 163.5zM453 682h747v248q0 164 -102.5 265t-268.5 101q-170 0 -273 -100.5t-103 -265.5v-248z" />
    <glyph glyph-name="B" unicode="B" horiz-adv-x="1449" 
d="M1081 803q133 -45 209 -140t76 -223q0 -198 -144.5 -319t-383.5 -121h-658v1516h649q204 0 329.5 -110t125.5 -288q0 -101 -52.5 -181.5t-150.5 -133.5zM469 1276v-379h291q103 0 165 52t62 138q0 85 -62.5 137t-162.5 52h-293zM819 240q112 0 181 57.5t69 151.5
q0 95 -68.5 152.5t-177.5 57.5h-354v-419h350z" />
    <glyph glyph-name="C" unicode="C" horiz-adv-x="1572" 
d="M893 -20q-361 0 -583 215.5t-222 566.5q0 230 100 406t282.5 272t420.5 96q372 0 598 -244l-182 -184q-67 86 -174 137t-238 51q-229 0 -368.5 -147.5t-139.5 -388.5q0 -244 141.5 -392.5t370.5 -148.5q285 0 442 240l195 -174q-109 -149 -272.5 -227t-370.5 -78z" />
    <glyph glyph-name="D" unicode="D" horiz-adv-x="1613" 
d="M776 1516q222 0 392 -94t263 -266.5t93 -397.5t-93 -397.5t-263 -266.5t-392 -94h-596v1516h596zM776 240q201 0 324 142.5t123 375.5t-123 375.5t-324 142.5h-307v-1036h307z" />
    <glyph glyph-name="E" unicode="E" horiz-adv-x="1331" 
d="M469 240h758v-240h-1047v1516h1030v-240h-741v-389h676v-238h-676v-409z" />
    <glyph glyph-name="F" unicode="F" horiz-adv-x="1206" 
d="M1137 1276h-668v-430h573v-238h-573v-608h-289v1516h957v-240z" />
    <glyph glyph-name="G" unicode="G" horiz-adv-x="1671" 
d="M1614 854q4 -66 4 -96q0 -352 -203.5 -565t-544.5 -213q-174 0 -319.5 56t-247 157.5t-157.5 246.5t-56 318q0 232 96 408.5t273 273t411 96.5q327 0 537 -168l-190 -180q-117 108 -343 108q-218 0 -351.5 -147.5t-133.5 -390.5t132.5 -391t350.5 -148q188 0 306 107
t137 288h-391v240h690z" />
    <glyph glyph-name="H" unicode="H" horiz-adv-x="1748" 
d="M1280 1516h289v-1516h-289v653h-811v-653h-289v1516h289v-625h811v625z" />
    <glyph glyph-name="I" unicode="I" horiz-adv-x="649" 
d="M180 0v1516h289v-1516h-289z" />
    <glyph glyph-name="J" unicode="J" horiz-adv-x="1200" 
d="M1034 1516v-1006q0 -239 -152.5 -384.5t-404.5 -145.5q-260 0 -438 172l143 192q109 -125 277 -125q129 0 207.5 83t78.5 220v754h-632v240h921z" />
    <glyph glyph-name="K" unicode="K" horiz-adv-x="1447" 
d="M1112 0l-504 655h-139v-655h-289v1516h289v-623h133l481 623h347l-580 -740l608 -776h-346z" />
    <glyph glyph-name="L" unicode="L" horiz-adv-x="1169" 
d="M469 240h670v-240h-959v1516h289v-1276z" />
    <glyph glyph-name="M" unicode="M" horiz-adv-x="2048" 
d="M1915 0h-289l-59 1034l-463 -1034h-160l-463 1030l-59 -1030h-289l103 1524h317l471 -1051l471 1051h317z" />
    <glyph glyph-name="N" unicode="N" horiz-adv-x="1777" 
d="M180 0v1516h180l955 -1027l-6 1027h288v-1516h-178l-954 1026l4 -1026h-289z" />
    <glyph glyph-name="O" unicode="O" horiz-adv-x="1767" 
d="M885 -20q-236 0 -417 96.5t-280.5 273.5t-99.5 408t99.5 408t280.5 273.5t417 96.5q235 0 415.5 -96.5t279.5 -273.5t99 -408t-99 -408t-279.5 -273.5t-415.5 -96.5zM885 219q223 0 359 148t136 391t-136 390.5t-359 147.5t-360.5 -148t-137.5 -390q0 -243 137.5 -391
t360.5 -148z" />
    <glyph glyph-name="P" unicode="P" horiz-adv-x="1382" 
d="M795 1516q239 0 384.5 -135t145.5 -355q0 -229 -148.5 -369.5t-392.5 -140.5h-315v-516h-289v1516h615zM764 756q122 0 193 71t71 189q0 117 -72 188.5t-192 71.5h-295v-520h295z" />
    <glyph glyph-name="Q" unicode="Q" horiz-adv-x="1769" 
d="M1726 0h-342l-71 84q-185 -104 -428 -104q-236 0 -417 96.5t-280.5 273.5t-99.5 408t99.5 408t280.5 273.5t417 96.5q235 0 415.5 -96.5t279.5 -273.5t99 -408q0 -308 -172 -514zM885 219q140 0 252 64l-250 286h327l97 -108q69 129 69 297q0 243 -136 390.5t-359 147.5
t-360.5 -148t-137.5 -390q0 -243 137.5 -391t360.5 -148z" />
    <glyph glyph-name="R" unicode="R" horiz-adv-x="1497" 
d="M1124 0l-346 557h-309v-557h-289v1516h635q239 0 385 -132.5t146 -347.5q0 -146 -74 -256t-207 -168l399 -612h-340zM469 1276v-479h293q129 0 208 66t79 173t-73.5 173.5t-193.5 66.5h-313z" />
    <glyph glyph-name="S" unicode="S" horiz-adv-x="1331" 
d="M659 -20q-159 0 -298.5 48.5t-239.5 141.5l108 195q178 -146 412 -146q143 0 222 47.5t79 134.5q0 85 -78 135t-239 95l-86 24q-101 28 -175 60.5t-136 81t-94 118.5t-32 160q0 207 154.5 334t407.5 127q296 0 512 -174l-129 -201q-169 135 -381 135q-120 0 -192.5 -47.5
t-72.5 -126.5q0 -35 14.5 -64t36.5 -48.5t60.5 -38t72.5 -30t87 -26.5l88 -24q75 -20 140 -46t129.5 -66t110 -88.5t73.5 -116t28 -146.5q0 -201 -160.5 -324.5t-421.5 -123.5z" />
    <glyph glyph-name="T" unicode="T" horiz-adv-x="1273" 
d="M1243 1516v-240h-463v-1276h-288v1276h-461v240h1212z" />
    <glyph glyph-name="U" unicode="U" horiz-adv-x="1650" 
d="M827 -20q-299 0 -482 163t-183 430v943h289v-930q0 -164 103.5 -265.5t272.5 -101.5q167 0 270 101.5t103 265.5v930h289v-943q0 -267 -182 -430t-480 -163z" />
    <glyph glyph-name="V" unicode="V" horiz-adv-x="1552" 
d="M643 0l-647 1516h307l475 -1158l469 1158h309l-645 -1516h-268z" />
    <glyph glyph-name="W" unicode="W" horiz-adv-x="2330" 
d="M2017 1516h307l-522 -1516h-268l-369 1108l-366 -1108h-269l-524 1516h309l365 -1129l350 1129h270l355 -1129z" />
    <glyph glyph-name="X" unicode="X" horiz-adv-x="1406" 
d="M1413 0h-334l-377 561l-374 -561h-334l549 784l-510 732h334l335 -506l336 506h334l-510 -732z" />
    <glyph glyph-name="Y" unicode="Y" horiz-adv-x="1417" 
d="M1087 1516h308l-541 -957v-559h-289v559l-542 957h309l379 -701z" />
    <glyph glyph-name="Z" unicode="Z" horiz-adv-x="1368" 
d="M469 240h827v-240h-1222v180l807 1096h-795v240h1190v-179z" />
    <glyph glyph-name="bracketleft" unicode="[" horiz-adv-x="802" 
d="M166 -369v1966h577v-239h-288v-1487h288v-240h-577z" />
    <glyph glyph-name="backslash" unicode="\" horiz-adv-x="921" 
d="M565 -205l-489 1802h280l490 -1802h-281z" />
    <glyph glyph-name="bracketright" unicode="]" horiz-adv-x="802" 
d="M639 -369h-578v240h287v1487h-287v239h578v-1966z" />
    <glyph glyph-name="asciicircum" unicode="^" horiz-adv-x="1122" 
d="M1032 639h-270l-201 399l-201 -399h-270l336 670h270z" />
    <glyph glyph-name="underscore" unicode="_" horiz-adv-x="1210" 
d="M51 -199v199h1108v-199h-1108z" />
    <glyph glyph-name="grave" unicode="`" horiz-adv-x="1228" 
d="M328 1266l-365 329h326l276 -329h-237z" />
    <glyph glyph-name="a" unicode="a" horiz-adv-x="1392" 
d="M983 1104h268v-1104h-268l-6 166q-124 -186 -371 -186q-227 0 -377.5 157.5t-150.5 409.5q0 256 150.5 416.5t377.5 160.5q247 0 371 -186zM670 219q135 0 219 92t84 242q0 149 -84 241.5t-219 92.5q-136 0 -219.5 -92.5t-83.5 -243.5q0 -149 83.5 -240.5t219.5 -91.5z
" />
    <glyph glyph-name="b" unicode="b" horiz-adv-x="1392" 
d="M786 1124q111 0 208 -42t168 -116.5t112 -183t41 -235.5q0 -251 -151.5 -409t-377.5 -158q-246 0 -370 186l-6 -166h-269v1597h279v-653q124 180 366 180zM723 219q135 0 219 91.5t84 240.5q0 151 -84 243.5t-219 92.5q-136 0 -219.5 -92t-83.5 -242q0 -151 83 -242.5
t220 -91.5z" />
    <glyph glyph-name="c" unicode="c" horiz-adv-x="1122" 
d="M666 -20q-264 0 -426 157.5t-162 415.5q0 257 163.5 414t430.5 157q217 0 379 -127l-158 -188q-91 78 -217 78q-138 0 -223.5 -92t-85.5 -242q0 -151 85 -242.5t226 -91.5q159 0 250 98l157 -184q-153 -153 -419 -153z" />
    <glyph glyph-name="d" unicode="d" horiz-adv-x="1392" 
d="M973 1597h278v-1597h-268l-6 166q-124 -186 -371 -186q-227 0 -377.5 157.5t-150.5 409.5q0 256 150.5 416.5t377.5 160.5q243 0 367 -180v653zM670 219q135 0 219 92t84 242q0 149 -84 241.5t-219 92.5q-136 0 -219.5 -92.5t-83.5 -243.5q0 -149 83.5 -240.5
t219.5 -91.5z" />
    <glyph glyph-name="e" unicode="e" horiz-adv-x="1253" 
d="M1182 569q0 -50 -8 -116h-799q33 -254 264 -254q162 0 270 131l215 -109q-75 -112 -201 -176.5t-280 -64.5q-254 0 -408.5 155t-154.5 410q0 261 151 420t400 159q248 0 399.5 -152.5t151.5 -402.5zM631 905q-109 0 -174 -68t-82 -196h514q-15 127 -81 195.5t-177 68.5z
" />
    <glyph glyph-name="f" unicode="f" horiz-adv-x="745" 
d="M586 1378q-74 0 -120 -41.5t-46 -109.5v-123h291v-227h-291v-877h-279v1270q0 158 98.5 253t258.5 95q147 0 243 -45l-20 -217q-50 22 -135 22z" />
    <glyph glyph-name="g" unicode="g" horiz-adv-x="1392" 
d="M985 1104h268v-1000q0 -261 -179 -418t-474 -157q-302 0 -491 139l61 219q173 -118 422 -118q172 0 277.5 92t105.5 245v54q-124 -180 -367 -180q-227 0 -377.5 160.5t-150.5 416.5q0 126 40.5 232.5t111 179.5t168 114t208.5 41q247 0 371 -186zM672 219q135 0 219 92
t84 242t-84 242t-219 92q-136 0 -219.5 -91.5t-83.5 -240.5q0 -152 83 -244t220 -92z" />
    <glyph glyph-name="h" unicode="h" horiz-adv-x="1341" 
d="M774 1124q198 0 319 -118.5t121 -311.5v-694h-278v649q0 107 -70.5 172.5t-187.5 65.5t-187.5 -65.5t-70.5 -172.5v-649h-279v1597h279v-626q126 153 354 153z" />
    <glyph glyph-name="i" unicode="i" horiz-adv-x="563" 
d="M283 1284q-72 0 -119 46t-47 118t47 119t119 47t117.5 -47t45.5 -119t-45.5 -118t-117.5 -46zM143 0v1104h279v-1104h-279z" />
    <glyph glyph-name="j" unicode="j" horiz-adv-x="563" 
d="M281 1284q-72 0 -119 46t-47 118t47 119t119 47t118.5 -47t46.5 -119t-46.5 -118t-118.5 -46zM143 -451v1555h279v-1555h-279z" />
    <glyph glyph-name="k" unicode="k" horiz-adv-x="1241" 
d="M907 0l-393 465h-94v-465h-279v1597h279v-903h96l365 410h352l-490 -522l517 -582h-353z" />
    <glyph glyph-name="l" unicode="l" horiz-adv-x="565" 
d="M143 0v1597h279v-1597h-279z" />
    <glyph glyph-name="m" unicode="m" horiz-adv-x="2011" 
d="M1434 1124q201 0 324.5 -118.5t123.5 -311.5v-694h-278v649q0 107 -62.5 172.5t-165.5 65.5q-101 0 -163 -65.5t-62 -172.5v-649h-279v649q0 107 -62 172.5t-165 65.5q-101 0 -163 -65.5t-62 -172.5v-649h-279v1104h269l4 -131q118 151 329 151q107 0 193 -43.5
t141 -122.5q59 81 152 123.5t205 42.5z" />
    <glyph glyph-name="n" unicode="n" horiz-adv-x="1341" 
d="M774 1124q198 0 319 -118.5t121 -311.5v-694h-278v649q0 107 -70.5 172.5t-187.5 65.5t-187.5 -65.5t-70.5 -172.5v-649h-279v1104h269l4 -139q63 77 156 118t204 41z" />
    <glyph glyph-name="o" unicode="o" horiz-adv-x="1337" 
d="M670 -20q-266 0 -429 157.5t-163 415.5q0 256 163 413.5t429 157.5q264 0 427 -157.5t163 -413.5q0 -258 -163 -415.5t-427 -157.5zM670 219q135 0 218 91.5t83 242.5t-83 242.5t-218 91.5q-137 0 -220 -91.5t-83 -242.5t83 -242.5t220 -91.5z" />
    <glyph glyph-name="p" unicode="p" horiz-adv-x="1392" 
d="M786 1124q227 0 378 -157.5t151 -409.5q0 -127 -41 -235.5t-112 -183t-168 -116.5t-208 -42q-242 0 -366 180v-611h-279v1555h269l6 -166q124 186 370 186zM723 219q136 0 219.5 92t83.5 244q0 149 -84 240.5t-219 91.5q-137 0 -220 -91.5t-83 -242.5t83 -242.5
t220 -91.5z" />
    <glyph glyph-name="q" unicode="q" horiz-adv-x="1392" 
d="M983 1104h268v-1555h-278v611q-124 -180 -367 -180q-227 0 -377.5 160.5t-150.5 416.5q0 126 40.5 232.5t111 179.5t168 114t208.5 41q247 0 371 -186zM670 219q135 0 219 92t84 242t-84 242t-219 92q-136 0 -219.5 -91.5t-83.5 -240.5q0 -152 83 -244t220 -92z" />
    <glyph glyph-name="r" unicode="r" horiz-adv-x="835" 
d="M414 956q136 168 405 168l-18 -256q-172 0 -276.5 -76t-104.5 -200v-592h-279v1104h269z" />
    <glyph glyph-name="s" unicode="s" horiz-adv-x="1052" 
d="M508 -20q-269 0 -418 131l105 168q140 -82 317 -82q77 0 124.5 29.5t47.5 80.5q0 48 -48 78.5t-140 54.5l-93 25q-75 20 -128.5 43t-97 57t-65.5 83t-22 112q0 164 119 264t315 100q257 0 416 -108l-117 -182q-128 71 -280 71q-76 0 -123 -26.5t-47 -73.5q0 -46 42 -73
t124 -48l92 -27q76 -20 133 -45.5t105.5 -63.5t74 -93.5t25.5 -126.5q0 -157 -127 -252.5t-334 -95.5z" />
    <glyph glyph-name="t" unicode="t" horiz-adv-x="796" 
d="M559 219q107 0 193 37v-225q-122 -51 -283 -51q-151 0 -244.5 96t-93.5 252v1099h279v-323h325v-227h-325v-492q0 -75 41.5 -120.5t107.5 -45.5z" />
    <glyph glyph-name="u" unicode="u" horiz-adv-x="1286" 
d="M643 -20q-233 0 -374.5 126.5t-141.5 333.5v664h279v-649q0 -106 65 -171t172 -65q106 0 171 65t65 171v649h278v-664q0 -207 -141 -333.5t-373 -126.5z" />
    <glyph glyph-name="v" unicode="v" horiz-adv-x="1234" 
d="M479 0l-467 1104h305l301 -787l300 787h305l-465 -1104h-279z" />
    <glyph glyph-name="w" unicode="w" horiz-adv-x="1884" 
d="M1563 1104h305l-406 -1104h-278l-242 762l-242 -762h-278l-406 1104h306l258 -787l247 787h230l248 -787z" />
    <glyph glyph-name="x" unicode="x" horiz-adv-x="1193" 
d="M1186 0h-332l-256 362l-256 -362h-332l422 565l-397 539h332l231 -334l231 334h332l-397 -539z" />
    <glyph glyph-name="y" unicode="y" horiz-adv-x="1300" 
d="M881 1104h278v-1000q0 -261 -165 -418t-437 -157q-269 0 -440 139l61 219q156 -118 373 -118q148 0 239 92t91 245v21q-60 -72 -146 -109.5t-188 -37.5q-188 0 -304 119t-116 313v692h279v-649q0 -106 66 -171t173 -65q106 0 171 65t65 171v649z" />
    <glyph glyph-name="z" unicode="z" horiz-adv-x="1118" 
d="M78 0v180l551 697h-541v227h934l2 -178l-549 -697h572v-229h-969z" />
    <glyph glyph-name="braceleft" unicode="{" horiz-adv-x="858" 
d="M565 -389q-152 0 -244 90t-92 238v391q0 75 -42 120.5t-111 45.5h-13v237h13q69 0 111 46t42 120v391q0 148 92 238t244 90q114 0 232 -27v-225q-55 12 -125 12q-69 0 -111.5 -47t-42.5 -125v-342q0 -92 -48 -161t-126 -89q78 -20 126 -88t48 -161v-342
q0 -78 42.5 -125.5t111.5 -47.5q65 0 125 13v-225q-118 -27 -232 -27z" />
    <glyph glyph-name="bar" unicode="|" horiz-adv-x="620" 
d="M166 -451v2048h289v-2048h-289z" />
    <glyph glyph-name="braceright" unicode="}" horiz-adv-x="858" 
d="M293 -389q-114 0 -232 27v225q60 -13 125 -13q69 0 111.5 47.5t42.5 125.5v342q0 93 48 161t126 88q-78 20 -126 89t-48 161v342q0 78 -42.5 125t-111.5 47q-70 0 -125 -12v225q118 27 232 27q152 0 244 -90t92 -238v-391q0 -74 42 -120t111 -46h13v-237h-13
q-69 0 -111 -45.5t-42 -120.5v-391q0 -148 -92 -238t-244 -90z" />
    <glyph glyph-name="asciitilde" unicode="~" horiz-adv-x="1228" 
d="M823 449q-69 0 -148 29t-148 58t-113 29q-56 0 -90.5 -26t-34.5 -70h-152q0 133 75.5 214t197.5 81q57 0 119 -17.5t107 -39t96 -39t87 -17.5q58 0 91.5 23.5t33.5 68.5h154q0 -137 -75.5 -215.5t-199.5 -78.5z" />
    <glyph glyph-name="uni00A0" unicode="&#xa0;" horiz-adv-x="505" 
 />
    <glyph glyph-name="exclamdown" unicode="&#xa1;" horiz-adv-x="567" 
d="M285 793q-72 0 -120 48t-48 120q0 70 48 116.5t120 46.5q71 0 117.5 -46.5t46.5 -116.5q0 -72 -47 -120t-117 -48zM137 -451l27 1113h239l25 -1113h-291z" />
    <glyph glyph-name="cent" unicode="&#xa2;" horiz-adv-x="1191" 
d="M1085 236q-106 -106 -276 -142v-176h-260v172q-217 35 -344 186.5t-127 378.5q0 225 127.5 376t343.5 186v174h260v-179q133 -30 242 -112l-158 -189q-91 78 -217 78q-138 0 -223.5 -92t-85.5 -242q0 -151 85 -242t226 -91q159 0 250 98z" />
    <glyph glyph-name="sterling" unicode="&#xa3;" horiz-adv-x="1271" 
d="M528 229h637v-229h-1065v225h140v379h-119v230h119v303q0 180 125.5 289.5t332.5 109.5q204 0 330.5 -110.5t126.5 -290.5l-285 -21q0 83 -47.5 132.5t-124.5 49.5t-123.5 -47t-46.5 -125v-290h551v-230h-551v-375z" />
    <glyph glyph-name="currency" unicode="&#xa4;" horiz-adv-x="1312" 
d="M1128 705q0 -130 -63 -238l135 -135l-170 -170l-137 137q-108 -63 -238 -63q-127 0 -233 61l-139 -137l-170 170l135 135q-66 113 -66 240q0 126 66 239l-135 133l170 170l137 -137q109 61 235 61q130 0 238 -63l137 137l170 -170l-135 -135q63 -108 63 -235zM655 442
q104 0 177 77t73 186q0 108 -73 186t-177 78q-102 0 -175.5 -78t-73.5 -186q0 -109 73 -186t176 -77z" />
    <glyph glyph-name="yen" unicode="&#xa5;" horiz-adv-x="1488" 
d="M1430 1516l-445 -787h219v-180h-315v-98h315v-179h-315v-272h-289v272h-315v179h315v98h-315v180h219l-447 787h310l378 -701l377 701h308z" />
    <glyph glyph-name="brokenbar" unicode="&#xa6;" horiz-adv-x="616" 
d="M164 778v819h289v-819h-289zM164 -451v820h289v-820h-289z" />
    <glyph glyph-name="section" unicode="&#xa7;" horiz-adv-x="1257" 
d="M1161 510q0 -162 -100 -279q100 -103 100 -254q0 -201 -148.5 -324.5t-389.5 -123.5q-146 0 -275 48.5t-223 141.5l108 195q163 -145 373 -145q123 0 189.5 47t66.5 133q0 85 -66.5 133t-205.5 92l-78 25q-94 29 -162 62.5t-126.5 83t-88 119.5t-29.5 161q0 163 97 284
q-97 100 -97 248q0 207 144 334t377 127q267 0 471 -174l-127 -201q-156 135 -340 135q-103 0 -164 -47.5t-61 -126.5q0 -35 13 -64t31.5 -48t53 -37.5t64 -30t77.5 -27.5l76 -24q91 -29 161.5 -64.5t137.5 -90t104 -133t37 -175.5zM645 446l76 -24q72 -24 123 -47
q37 43 37 108q0 48 -20 85t-61.5 66t-89.5 49.5t-120 43.5l-78 25q-33 9 -84 28q-41 -44 -41 -108q0 -38 14 -69.5t34 -52.5t57.5 -41t69 -33t83.5 -30z" />
    <glyph glyph-name="dieresis" unicode="&#xa8;" horiz-adv-x="1228" 
d="M272 1284q-72 0 -119 46t-47 118t47 119t119 47t119 -47t47 -119t-47 -118t-119 -46zM774 1284q-72 0 -119 46t-47 118t47 119t119 47t119 -47t47 -119t-47 -118t-119 -46z" />
    <glyph glyph-name="copyright" unicode="&#xa9;" horiz-adv-x="1775" 
d="M889 -20q-237 0 -417.5 96.5t-279 273.5t-98.5 408t98.5 408t279 273.5t417.5 96.5q356 0 573 -214t217 -564t-217 -564t-573 -214zM889 106q283 0 458 179.5t175 472.5t-175 473t-458 180q-286 0 -461.5 -180t-175.5 -473t175.5 -472.5t461.5 -179.5zM903 324
q-201 0 -325.5 118.5t-124.5 311.5q0 192 123 309t325 117q213 0 334 -136l-119 -120q-33 45 -88.5 71.5t-124.5 26.5q-115 0 -185.5 -74t-70.5 -196q0 -123 71.5 -198t188.5 -75q150 0 230 129l129 -116q-125 -168 -363 -168z" />
    <glyph glyph-name="ordfeminine" unicode="&#xaa;" horiz-adv-x="817" 
d="M403 1536q128 0 206.5 -70.5t78.5 -187.5v-418h-168l-2 90q-33 -49 -85.5 -75.5t-113.5 -26.5q-104 0 -167.5 56.5t-63.5 150.5q0 97 78 155t207 58q68 0 141 -15v11q0 65 -40.5 101t-115.5 36q-95 0 -151 -53l-78 104q113 84 274 84zM369 973q60 0 102 44.5t43 119.5
q-62 12 -119 12t-92 -24.5t-35 -65.5q0 -39 26.5 -62.5t74.5 -23.5z" />
    <glyph glyph-name="guillemotleft" unicode="&#xab;" horiz-adv-x="1366" 
d="M735 1024l-356 -471l356 -471h-295l-368 471l368 471h295zM1284 1024l-356 -471l356 -471h-295l-368 471l368 471h295z" />
    <glyph glyph-name="logicalnot" unicode="&#xac;" horiz-adv-x="1232" 
d="M1094 940v-565h-279v338h-692v227h971z" />
    <glyph glyph-name="uni00AD" unicode="&#xad;" horiz-adv-x="980" 
d="M129 494v198h725v-198h-725z" />
    <glyph glyph-name="registered" unicode="&#xae;" horiz-adv-x="837" 
d="M420 1618q145 0 233 -87.5t88 -230.5t-88 -230t-233 -87q-146 0 -234 87t-88 230t88 230.5t234 87.5zM420 1032q117 0 188.5 73.5t71.5 194.5q0 123 -71.5 197t-188.5 74q-119 0 -190.5 -74t-71.5 -197q0 -121 71.5 -194.5t190.5 -73.5zM551 1360q0 -32 -17 -57t-47 -37
l86 -133h-81l-74 120h-58v-120h-73v333h145q54 0 86.5 -29.5t32.5 -76.5zM360 1407v-96h58q27 0 43 13t16 36q0 20 -15 33.5t-38 13.5h-64z" />
    <glyph glyph-name="macron" unicode="&#xaf;" horiz-adv-x="1228" 
d="M84 1278v219h729v-219h-729z" />
    <glyph glyph-name="degree" unicode="&#xb0;" horiz-adv-x="739" 
d="M371 1096q-131 0 -210 72t-79 190q0 117 79.5 188.5t209.5 71.5q129 0 207.5 -71.5t78.5 -188.5q0 -118 -78.5 -190t-207.5 -72zM371 1239q51 0 81.5 32.5t30.5 86.5q0 53 -30.5 86t-81.5 33q-52 0 -84.5 -33t-32.5 -86q0 -54 32 -86.5t85 -32.5z" />
    <glyph glyph-name="plusminus" unicode="&#xb1;" horiz-adv-x="1247" 
d="M762 1004h346v-230h-346v-356h-279v356h-344v230h344v354h279v-354zM139 68v231h969v-231h-969z" />
    <glyph glyph-name="uni00B2" unicode="&#xb2;" horiz-adv-x="749" 
d="M61 811v115l281 303q2 2 22 24t27.5 31.5t26.5 32.5t28 39t21 38t17 42t5 39q0 51 -30.5 80.5t-81.5 29.5q-56 0 -89.5 -37t-33.5 -96l-182 14q0 120 83 193.5t218 73.5q133 0 215 -68t82 -178q0 -87 -51.5 -168t-157.5 -189l-166 -174l387 2v-147h-621z" />
    <glyph glyph-name="uni00B3" unicode="&#xb3;" horiz-adv-x="733" 
d="M395 1366q124 -3 200.5 -78.5t76.5 -195.5q0 -133 -95 -213t-255 -80q-84 0 -159.5 23.5t-119.5 64.5l70 133q71 -74 188 -74q85 0 134.5 40.5t49.5 105.5q0 62 -47 99.5t-123 37.5q-66 0 -120 -31l-50 92l248 283h-307v147h539v-110z" />
    <glyph glyph-name="acute" unicode="&#xb4;" horiz-adv-x="1228" 
d="M219 1266l279 329h323l-364 -329h-238z" />
    <glyph glyph-name="paragraph" unicode="&#xb6;" horiz-adv-x="1273" 
d="M1079 1516v-1967h-209v1766h-176v-1766h-211v1252h-135q-128 0 -206.5 99.5t-78.5 262.5q0 158 92.5 255.5t241.5 97.5h682z" />
    <glyph glyph-name="periodcentered" unicode="&#xb7;" horiz-adv-x="579" 
d="M289 414q-74 0 -128.5 53.5t-54.5 128.5t54.5 128.5t128.5 53.5q75 0 128.5 -53.5t53.5 -128.5t-53.5 -128.5t-128.5 -53.5z" />
    <glyph glyph-name="cedilla" unicode="&#xb8;" horiz-adv-x="1228" 
d="M295 -111q98 -3 156.5 -50.5t58.5 -121.5q0 -85 -73 -136.5t-195 -51.5q-131 0 -205 51l51 103q47 -37 125 -37q52 0 81.5 19t29.5 50q0 29 -28 46.5t-73 17.5q-37 0 -76 -17l-36 66l96 172h158z" />
    <glyph glyph-name="uni00B9" unicode="&#xb9;" horiz-adv-x="567" 
d="M272 811v680l-172 -123l-90 127l305 225h138v-909h-181z" />
    <glyph glyph-name="ordmasculine" unicode="&#xba;" horiz-adv-x="878" 
d="M440 848q-161 0 -258.5 94.5t-97.5 249.5t97.5 249.5t258.5 94.5q160 0 257.5 -94.5t97.5 -249.5t-97.5 -249.5t-257.5 -94.5zM440 999q78 0 127 53t49 140q0 88 -49 142.5t-127 54.5q-79 0 -128.5 -54.5t-49.5 -142.5q0 -87 49 -140t129 -53z" />
    <glyph glyph-name="guillemotright" unicode="&#xbb;" horiz-adv-x="1366" 
d="M377 1024l368 -471l-368 -471h-297l358 471l-358 471h297zM926 1024l368 -471l-368 -471h-297l358 471l-358 471h297z" />
    <glyph glyph-name="onequarter" unicode="&#xbc;" horiz-adv-x="1751" 
d="M440 -20l-149 90l860 1466l147 -90zM272 606v680l-172 -123l-90 127l305 226h138v-910h-181zM1395 0v174h-420v123l459 612h141v-585h123v-150h-123v-174h-180zM1176 317h223l2 301z" />
    <glyph glyph-name="onehalf" unicode="&#xbd;" horiz-adv-x="1773" 
d="M440 -20l-149 90l860 1466l147 -90zM272 606v680l-172 -123l-90 127l305 226h138v-910h-181zM1085 0v115l281 303q2 2 22 24t27.5 31.5t26.5 32.5t28 39t21 38t17 42t5 39q0 51 -30.5 80.5t-81.5 29.5q-56 0 -89.5 -37t-33.5 -96l-182 14q0 120 83 193.5t218 73.5
q133 0 215 -68t82 -178q0 -87 -51.5 -168t-157.5 -189l-166 -174l387 2v-147h-621z" />
    <glyph glyph-name="threequarters" unicode="&#xbe;" horiz-adv-x="1916" 
d="M1317 1536l147 -90l-858 -1466l-149 90zM672 887q0 -133 -95 -213t-255 -80q-84 0 -159.5 23.5t-119.5 64.5l70 133q71 -74 188 -74q85 0 134.5 40.5t49.5 105.5q0 62 -47 99.5t-123 37.5q-66 0 -120 -31l-50 92l248 283h-307v148h539v-111l-230 -244q124 -3 200.5 -78.5
t76.5 -195.5zM1741 324h123v-150h-123v-174h-180v174h-420v123l458 612h142v-585zM1565 317l2 301l-226 -301h224z" />
    <glyph glyph-name="questiondown" unicode="&#xbf;" horiz-adv-x="1112" 
d="M571 793q-72 0 -120 48t-48 120q0 70 48 116.5t120 46.5q71 0 117.5 -46.5t46.5 -116.5q0 -72 -47 -120t-117 -48zM571 -471q-227 0 -366 111t-139 294q0 54 12 98t41 84t48.5 60.5t63.5 61.5q11 11 17 16q41 39 61 59t52.5 61.5t48 77.5t28.5 91.5t13 118.5h239
q0 -90 -14 -167t-32.5 -127.5t-50.5 -98.5t-56 -74t-60 -60q-39 -35 -58 -55.5t-36.5 -55t-17.5 -73.5q0 -83 56 -132.5t150 -49.5q90 0 149 49.5t66 132.5l267 -12q-9 -185 -141 -297.5t-341 -112.5z" />
    <glyph glyph-name="Agrave" unicode="&#xc0;" horiz-adv-x="1652" 
d="M999 1677h-237l-365 330h326zM827 1536q298 0 480 -163.5t182 -430.5v-942h-289v444h-747v-444h-289v942q0 267 182.5 430.5t480.5 163.5zM453 682h747v248q0 164 -102.5 265t-268.5 101q-170 0 -273 -100.5t-103 -265.5v-248z" />
    <glyph glyph-name="Aacute" unicode="&#xc1;" horiz-adv-x="1652" 
d="M1255 2007l-364 -330h-238l279 330h323zM827 1536q298 0 480 -163.5t182 -430.5v-942h-289v444h-747v-444h-289v942q0 267 182.5 430.5t480.5 163.5zM453 682h747v248q0 164 -102.5 265t-268.5 101q-170 0 -273 -100.5t-103 -265.5v-248z" />
    <glyph glyph-name="Acircumflex" unicode="&#xc2;" horiz-adv-x="1652" 
d="M825 1849l-143 -172h-258l268 330h266l269 -330h-256zM827 1536q298 0 480 -163.5t182 -430.5v-942h-289v444h-747v-444h-289v942q0 267 182.5 430.5t480.5 163.5zM453 682h747v248q0 164 -102.5 265t-268.5 101q-170 0 -273 -100.5t-103 -265.5v-248z" />
    <glyph glyph-name="Atilde" unicode="&#xc3;" horiz-adv-x="1652" 
d="M664 1794q-37 0 -60.5 -26t-23.5 -68h-152q0 133 64.5 214t169.5 81q45 0 95.5 -18t86 -39.5t76 -39.5t69.5 -18q39 0 61.5 24.5t22.5 69.5h152q0 -139 -63 -217t-169 -78q-43 0 -93 18t-87 39.5t-78.5 39.5t-70.5 18zM827 1536q298 0 480 -163.5t182 -430.5v-942h-289
v444h-747v-444h-289v942q0 267 182.5 430.5t480.5 163.5zM453 682h747v248q0 164 -102.5 265t-268.5 101q-170 0 -273 -100.5t-103 -265.5v-248z" />
    <glyph glyph-name="Adieresis" unicode="&#xc4;" horiz-adv-x="1652" 
d="M575 1696q-72 0 -118.5 46t-46.5 118t46.5 118.5t118.5 46.5t119 -46.5t47 -118.5t-47 -118t-119 -46zM1077 1696q-72 0 -119 46t-47 118t47 118.5t119 46.5t119 -46.5t47 -118.5t-47 -118t-119 -46zM827 1536q298 0 480 -163.5t182 -430.5v-942h-289v444h-747v-444h-289
v942q0 267 182.5 430.5t480.5 163.5zM453 682h747v248q0 164 -102.5 265t-268.5 101q-170 0 -273 -100.5t-103 -265.5v-248z" />
    <glyph glyph-name="Aring" unicode="&#xc5;" horiz-adv-x="1652" 
d="M827 1608q-109 0 -174 60.5t-65 160.5t65 160.5t174 60.5q108 0 174 -60.5t66 -160.5t-66 -160.5t-174 -60.5zM827 1923q-41 0 -66.5 -25.5t-25.5 -68.5t25.5 -69.5t66.5 -26.5t66 26.5t25 69.5t-25 68.5t-66 25.5zM827 1536q298 0 480 -163.5t182 -430.5v-942h-289v444
h-747v-444h-289v942q0 267 182.5 430.5t480.5 163.5zM453 682h747v248q0 164 -102.5 265t-268.5 101q-170 0 -273 -100.5t-103 -265.5v-248z" />
    <glyph glyph-name="AE" unicode="&#xc6;" horiz-adv-x="1972" 
d="M1212 240h656v-240h-944v444h-480v-444h-286v819q0 314 210.5 505.5t555.5 191.5h927v-240h-639v-389h574v-238h-574v-409zM444 807v-125h480v594q-215 0 -347.5 -129t-132.5 -340z" />
    <glyph glyph-name="Ccedilla" unicode="&#xc7;" horiz-adv-x="1572" 
d="M1536 285q-100 -137 -247 -214t-331 -89l-57 -93q98 -3 156.5 -50.5t58.5 -121.5q0 -85 -73 -136.5t-195 -51.5q-131 0 -205 51l51 103q47 -37 125 -37q52 0 81.5 19t29.5 50q0 29 -28 46.5t-73 17.5q-36 0 -75 -17l-37 66l86 156q-324 28 -519.5 239t-195.5 539
q0 230 100 406t282.5 272t420.5 96q372 0 598 -244l-182 -184q-67 86 -174 137t-238 51q-229 0 -368.5 -147.5t-139.5 -388.5q0 -244 141.5 -392.5t370.5 -148.5q285 0 442 240z" />
    <glyph glyph-name="Egrave" unicode="&#xc8;" horiz-adv-x="1331" 
d="M866 1677h-237l-365 330h326zM469 240h758v-240h-1047v1516h1030v-240h-741v-389h676v-238h-676v-409z" />
    <glyph glyph-name="Eacute" unicode="&#xc9;" horiz-adv-x="1331" 
d="M1122 2007l-364 -330h-238l279 330h323zM469 240h758v-240h-1047v1516h1030v-240h-741v-389h676v-238h-676v-409z" />
    <glyph glyph-name="Ecircumflex" unicode="&#xca;" horiz-adv-x="1331" 
d="M692 1849l-143 -172h-258l268 330h266l269 -330h-256zM469 240h758v-240h-1047v1516h1030v-240h-741v-389h676v-238h-676v-409z" />
    <glyph glyph-name="Edieresis" unicode="&#xcb;" horiz-adv-x="1331" 
d="M442 1696q-72 0 -119 46t-47 118t47 118.5t119 46.5t119 -46.5t47 -118.5t-47 -118t-119 -46zM944 1696q-72 0 -119 46t-47 118t47 118.5t119 46.5t119 -46.5t47 -118.5t-47 -118t-119 -46zM469 240h758v-240h-1047v1516h1030v-240h-741v-389h676v-238h-676v-409z" />
    <glyph glyph-name="Igrave" unicode="&#xcc;" horiz-adv-x="649" 
d="M258 1677l-364 330h325l277 -330h-238zM180 0v1516h289v-1516h-289z" />
    <glyph glyph-name="Iacute" unicode="&#xcd;" horiz-adv-x="649" 
d="M150 1677l278 330h324l-365 -330h-237zM180 0v1516h289v-1516h-289z" />
    <glyph glyph-name="Icircumflex" unicode="&#xce;" horiz-adv-x="649" 
d="M467 1677l-145 172l-144 -172h-258l268 330h267l268 -330h-256zM180 0v1516h289v-1516h-289z" />
    <glyph glyph-name="Idieresis" unicode="&#xcf;" horiz-adv-x="649" 
d="M72 1696q-72 0 -119 46t-47 118t47 118.5t119 46.5t119 -46.5t47 -118.5t-47 -118t-119 -46zM573 1696q-72 0 -118.5 46t-46.5 118t46.5 118.5t118.5 46.5t119 -46.5t47 -118.5t-47 -118t-119 -46zM180 0v1516h289v-1516h-289z" />
    <glyph glyph-name="Eth" unicode="&#xd0;" horiz-adv-x="1613" 
d="M776 1516q222 0 392 -94t263 -266.5t93 -397.5t-93 -397.5t-263 -266.5t-392 -94h-596v662h-160v198h160v656h596zM776 240q201 0 324 142.5t123 375.5t-123 375.5t-324 142.5h-307v-416h340v-198h-340v-422h307z" />
    <glyph glyph-name="Ntilde" unicode="&#xd1;" horiz-adv-x="1777" 
d="M1055 1679q-43 0 -93.5 18t-87.5 39.5t-78.5 39.5t-70.5 18q-37 0 -60.5 -26t-23.5 -68h-152q0 133 64.5 214t169.5 81q45 0 95.5 -18t86.5 -39.5t76.5 -39.5t69.5 -18q39 0 61.5 24.5t22.5 69.5h151q0 -139 -62.5 -217t-168.5 -78zM180 0v1516h180l955 -1027l-6 1027
h288v-1516h-178l-954 1026l4 -1026h-289z" />
    <glyph glyph-name="Ograve" unicode="&#xd2;" horiz-adv-x="1767" 
d="M819 1677l-364 330h325l277 -330h-238zM885 -20q-236 0 -417 96.5t-280.5 273.5t-99.5 408t99.5 408t280.5 273.5t417 96.5q235 0 415.5 -96.5t279.5 -273.5t99 -408t-99 -408t-279.5 -273.5t-415.5 -96.5zM885 219q223 0 359 148t136 391t-136 390.5t-359 147.5
t-360.5 -148t-137.5 -390q0 -243 137.5 -391t360.5 -148z" />
    <glyph glyph-name="Oacute" unicode="&#xd3;" horiz-adv-x="1767" 
d="M711 1677l278 330h324l-365 -330h-237zM885 -20q-236 0 -417 96.5t-280.5 273.5t-99.5 408t99.5 408t280.5 273.5t417 96.5q235 0 415.5 -96.5t279.5 -273.5t99 -408t-99 -408t-279.5 -273.5t-415.5 -96.5zM885 219q223 0 359 148t136 391t-136 390.5t-359 147.5
t-360.5 -148t-137.5 -390q0 -243 137.5 -391t360.5 -148z" />
    <glyph glyph-name="Ocircumflex" unicode="&#xd4;" horiz-adv-x="1767" 
d="M883 1849l-144 -172h-258l269 330h266l268 -330h-256zM885 1536q235 0 415.5 -96.5t279.5 -273.5t99 -408t-99 -408t-279.5 -273.5t-415.5 -96.5q-236 0 -417 96.5t-280.5 273.5t-99.5 408t99.5 408t280.5 273.5t417 96.5zM885 219q223 0 359 148t136 391t-136 390.5
t-359 147.5t-360.5 -148t-137.5 -390q0 -243 137.5 -391t360.5 -148z" />
    <glyph glyph-name="Otilde" unicode="&#xd5;" horiz-adv-x="1767" 
d="M1051 1679q-43 0 -93.5 18t-87.5 39.5t-78.5 39.5t-70.5 18q-37 0 -60.5 -26t-23.5 -68h-152q0 133 64.5 214t169.5 81q45 0 95.5 -18t86.5 -39.5t76.5 -39.5t69.5 -18q39 0 61 24.5t22 69.5h152q0 -139 -62.5 -217t-168.5 -78zM885 -20q-236 0 -417 96.5t-280.5 273.5
t-99.5 408t99.5 408t280.5 273.5t417 96.5q235 0 415.5 -96.5t279.5 -273.5t99 -408t-99 -408t-279.5 -273.5t-415.5 -96.5zM885 219q223 0 359 148t136 391t-136 390.5t-359 147.5t-360.5 -148t-137.5 -390q0 -243 137.5 -391t360.5 -148z" />
    <glyph glyph-name="Odieresis" unicode="&#xd6;" horiz-adv-x="1767" 
d="M633 1696q-72 0 -119 46t-47 118t47 118.5t119 46.5t119 -46.5t47 -118.5t-47 -118t-119 -46zM1135 1696q-72 0 -119 46t-47 118t47 118.5t119 46.5t118.5 -46.5t46.5 -118.5t-46.5 -118t-118.5 -46zM885 -20q-236 0 -417 96.5t-280.5 273.5t-99.5 408t99.5 408
t280.5 273.5t417 96.5q235 0 415.5 -96.5t279.5 -273.5t99 -408t-99 -408t-279.5 -273.5t-415.5 -96.5zM885 219q223 0 359 148t136 391t-136 390.5t-359 147.5t-360.5 -148t-137.5 -390q0 -243 137.5 -391t360.5 -148z" />
    <glyph glyph-name="multiply" unicode="&#xd7;" horiz-adv-x="1073" 
d="M969 975l-260 -260l256 -256l-172 -170l-256 256l-256 -256l-172 170l258 256l-261 260l173 170l258 -258l260 258z" />
    <glyph glyph-name="Oslash" unicode="&#xd8;" horiz-adv-x="1771" 
d="M1536 1233q143 -197 143 -475q0 -231 -99 -408t-279.5 -273.5t-415.5 -96.5q-277 0 -475 131l-134 -131l-178 165l135 134q-145 199 -145 479q0 231 99.5 408t280.5 273.5t417 96.5q277 0 479 -135l135 135l176 -166zM387 758q0 -148 55 -271l729 723q-122 86 -286 86
q-223 0 -360.5 -148t-137.5 -390zM885 219q223 0 359 148t136 391q0 151 -53 266l-727 -723q121 -82 285 -82z" />
    <glyph glyph-name="Ugrave" unicode="&#xd9;" horiz-adv-x="1650" 
d="M762 1677l-365 330h326l276 -330h-237zM827 -20q-299 0 -482 163t-183 430v943h289v-930q0 -164 103.5 -265.5t272.5 -101.5q167 0 270 101.5t103 265.5v930h289v-943q0 -267 -182 -430t-480 -163z" />
    <glyph glyph-name="Uacute" unicode="&#xda;" horiz-adv-x="1650" 
d="M653 1677l279 330h323l-364 -330h-238zM827 -20q-299 0 -482 163t-183 430v943h289v-930q0 -164 103.5 -265.5t272.5 -101.5q167 0 270 101.5t103 265.5v930h289v-943q0 -267 -182 -430t-480 -163z" />
    <glyph glyph-name="Ucircumflex" unicode="&#xdb;" horiz-adv-x="1650" 
d="M825 1849l-143 -172h-258l268 330h266l269 -330h-256zM1200 1516h289v-943q0 -267 -182 -430t-480 -163q-299 0 -482 163t-183 430v943h289v-930q0 -164 103.5 -265.5t272.5 -101.5q167 0 270 101.5t103 265.5v930z" />
    <glyph glyph-name="Udieresis" unicode="&#xdc;" horiz-adv-x="1650" 
d="M575 1696q-72 0 -118.5 46t-46.5 118t46.5 118.5t118.5 46.5t119 -46.5t47 -118.5t-47 -118t-119 -46zM1077 1696q-72 0 -119 46t-47 118t47 118.5t119 46.5t119 -46.5t47 -118.5t-47 -118t-119 -46zM827 -20q-299 0 -482 163t-183 430v943h289v-930q0 -164 103.5 -265.5
t272.5 -101.5q167 0 270 101.5t103 265.5v930h289v-943q0 -267 -182 -430t-480 -163z" />
    <glyph glyph-name="Yacute" unicode="&#xdd;" horiz-adv-x="1417" 
d="M1139 2007l-365 -330h-237l278 330h324zM1087 1516h308l-541 -957v-559h-289v559l-542 957h309l379 -701z" />
    <glyph glyph-name="Thorn" unicode="&#xde;" horiz-adv-x="1382" 
d="M795 1270q239 0 384.5 -134.5t145.5 -355.5q0 -229 -148.5 -369.5t-392.5 -140.5h-315v-270h-289v1516h289v-246h326zM764 510q122 0 193 71t71 189q0 119 -72 190.5t-192 71.5h-295v-522h295z" />
    <glyph glyph-name="germandbls" unicode="&#xdf;" horiz-adv-x="1284" 
d="M922 862q135 -56 210.5 -160.5t75.5 -242.5q0 -215 -139.5 -347t-368.5 -132q-101 0 -172 22l27 229q37 -12 96 -12q120 0 194.5 71.5t74.5 188.5q0 120 -79.5 193t-209.5 73v218q94 0 151.5 58.5t57.5 152.5q0 92 -57.5 148t-151.5 56q-96 0 -153.5 -54t-57.5 -146
v-1178h-279v1204q0 186 135 300t355 114q224 0 360.5 -114t136.5 -300q0 -113 -53.5 -201t-152.5 -141z" />
    <glyph glyph-name="agrave" unicode="&#xe0;" horiz-adv-x="1392" 
d="M858 1266h-237l-365 329h326zM983 1104h268v-1104h-268l-6 166q-124 -186 -371 -186q-227 0 -377.5 157.5t-150.5 409.5q0 256 150.5 416.5t377.5 160.5q247 0 371 -186zM670 219q135 0 219 92t84 242q0 149 -84 241.5t-219 92.5q-136 0 -219.5 -92.5t-83.5 -243.5
q0 -149 83.5 -240.5t219.5 -91.5z" />
    <glyph glyph-name="aacute" unicode="&#xe1;" horiz-adv-x="1392" 
d="M1114 1595l-364 -329h-238l279 329h323zM983 1104h268v-1104h-268l-6 166q-124 -186 -371 -186q-227 0 -377.5 157.5t-150.5 409.5q0 256 150.5 416.5t377.5 160.5q247 0 371 -186zM670 219q135 0 219 92t84 242q0 149 -84 241.5t-219 92.5q-136 0 -219.5 -92.5
t-83.5 -243.5q0 -149 83.5 -240.5t219.5 -91.5z" />
    <glyph glyph-name="acircumflex" unicode="&#xe2;" horiz-adv-x="1392" 
d="M684 1438l-143 -172h-258l268 329h266l268 -329h-256zM983 1104h268v-1104h-268l-6 166q-124 -186 -371 -186q-227 0 -377.5 157.5t-150.5 409.5q0 256 150.5 416.5t377.5 160.5q247 0 371 -186zM670 219q135 0 219 92t84 242q0 149 -84 241.5t-219 92.5
q-136 0 -219.5 -92.5t-83.5 -243.5q0 -149 83.5 -240.5t219.5 -91.5z" />
    <glyph glyph-name="atilde" unicode="&#xe3;" horiz-adv-x="1392" 
d="M522 1382q-37 0 -60.5 -26t-23.5 -68h-151q0 133 64 214t169 81q45 0 95.5 -18t86.5 -39.5t76.5 -39.5t69.5 -18q39 0 61.5 25t22.5 70h151q0 -139 -62.5 -217t-168.5 -78q-55 0 -119 28.5t-119.5 57t-91.5 28.5zM983 1104h268v-1104h-268l-6 166q-124 -186 -371 -186
q-227 0 -377.5 157.5t-150.5 409.5q0 256 150.5 416.5t377.5 160.5q247 0 371 -186zM670 219q135 0 219 92t84 242q0 149 -84 241.5t-219 92.5q-136 0 -219.5 -92.5t-83.5 -243.5q0 -149 83.5 -240.5t219.5 -91.5z" />
    <glyph glyph-name="adieresis" unicode="&#xe4;" horiz-adv-x="1392" 
d="M434 1284q-72 0 -119 46t-47 118t47 119t119 47t119 -47t47 -119t-47 -118t-119 -46zM936 1284q-72 0 -119 46t-47 118t47 119t119 47t119 -47t47 -119t-47 -118t-119 -46zM983 1104h268v-1104h-268l-6 166q-124 -186 -371 -186q-227 0 -377.5 157.5t-150.5 409.5
q0 256 150.5 416.5t377.5 160.5q247 0 371 -186zM670 219q135 0 219 92t84 242q0 149 -84 241.5t-219 92.5q-136 0 -219.5 -92.5t-83.5 -243.5q0 -149 83.5 -240.5t219.5 -91.5z" />
    <glyph glyph-name="aring" unicode="&#xe5;" horiz-adv-x="1392" 
d="M686 1196q-109 0 -174.5 60.5t-65.5 160.5t65.5 160.5t174.5 60.5q108 0 174 -60.5t66 -160.5t-66 -160.5t-174 -60.5zM686 1511q-41 0 -66.5 -25.5t-25.5 -68.5t25.5 -69.5t66.5 -26.5t65.5 26.5t24.5 69.5t-24.5 68.5t-65.5 25.5zM983 1104h268v-1104h-268l-6 166
q-124 -186 -371 -186q-227 0 -377.5 157.5t-150.5 409.5q0 256 150.5 416.5t377.5 160.5q247 0 371 -186zM670 219q135 0 219 92t84 242q0 149 -84 241.5t-219 92.5q-136 0 -219.5 -92.5t-83.5 -243.5q0 -149 83.5 -240.5t219.5 -91.5z" />
    <glyph glyph-name="ae" unicode="&#xe6;" horiz-adv-x="1929" 
d="M1855 569q0 -67 -6 -116h-800q15 -121 81.5 -187.5t184.5 -66.5q162 0 270 131l213 -109q-72 -112 -192.5 -176.5t-268.5 -64.5q-138 0 -249.5 54t-182.5 152q-63 -98 -177 -152t-247 -54q-189 0 -305.5 94t-116.5 248q0 159 129 255.5t342 96.5q113 0 244 -25v21
q0 111 -70 173t-196 62q-150 0 -258 -88l-121 164q168 143 430 143q120 0 216.5 -47t156.5 -129q149 176 393 176q238 0 384 -152.5t146 -402.5zM1305 905q-109 0 -174 -68t-82 -196h516q-15 127 -81.5 195.5t-178.5 68.5zM522 178q102 0 176.5 77t75.5 206q-113 22 -209 22
q-98 0 -156.5 -42t-58.5 -113q0 -69 44.5 -109.5t127.5 -40.5z" />
    <glyph glyph-name="ccedilla" unicode="&#xe7;" horiz-adv-x="1122" 
d="M666 -111q98 -3 156.5 -50.5t58.5 -121.5q0 -85 -73 -136.5t-196 -51.5q-130 0 -204 51l51 103q47 -37 125 -37q52 0 81 19t29 50q0 29 -27.5 46.5t-72.5 17.5q-37 0 -76 -17l-37 66l88 158q-225 29 -358 182t-133 385q0 257 163.5 414t430.5 157q217 0 379 -127
l-158 -188q-91 78 -217 78q-138 0 -223.5 -92t-85.5 -242q0 -151 85 -242.5t226 -91.5q159 0 250 98l157 -184q-135 -135 -362 -151z" />
    <glyph glyph-name="egrave" unicode="&#xe8;" horiz-adv-x="1253" 
d="M803 1266h-238l-364 329h325zM1182 569q0 -50 -8 -116h-799q33 -254 264 -254q162 0 270 131l215 -109q-75 -112 -201 -176.5t-280 -64.5q-254 0 -408.5 155t-154.5 410q0 261 151 420t400 159q248 0 399.5 -152.5t151.5 -402.5zM631 905q-109 0 -174 -68t-82 -196h514
q-15 127 -81 195.5t-177 68.5z" />
    <glyph glyph-name="eacute" unicode="&#xe9;" horiz-adv-x="1253" 
d="M1059 1595l-365 -329h-237l278 329h324zM1182 569q0 -50 -8 -116h-799q33 -254 264 -254q162 0 270 131l215 -109q-75 -112 -201 -176.5t-280 -64.5q-254 0 -408.5 155t-154.5 410q0 261 151 420t400 159q248 0 399.5 -152.5t151.5 -402.5zM631 905q-109 0 -174 -68
t-82 -196h514q-15 127 -81 195.5t-177 68.5z" />
    <glyph glyph-name="ecircumflex" unicode="&#xea;" horiz-adv-x="1253" 
d="M629 1438l-144 -172h-258l269 329h266l268 -329h-256zM1182 569q0 -50 -8 -116h-799q33 -254 264 -254q162 0 270 131l215 -109q-75 -112 -201 -176.5t-280 -64.5q-254 0 -408.5 155t-154.5 410q0 261 151 420t400 159q248 0 399.5 -152.5t151.5 -402.5zM631 905
q-109 0 -174 -68t-82 -196h514q-15 127 -81 195.5t-177 68.5z" />
    <glyph glyph-name="edieresis" unicode="&#xeb;" horiz-adv-x="1253" 
d="M379 1284q-72 0 -119 46t-47 118t47 119t119 47t119 -47t47 -119t-47 -118t-119 -46zM881 1284q-72 0 -119 46t-47 118t47 119t119 47t119 -47t47 -119t-47 -118t-119 -46zM1182 569q0 -50 -8 -116h-799q33 -254 264 -254q162 0 270 131l215 -109q-75 -112 -201 -176.5
t-280 -64.5q-254 0 -408.5 155t-154.5 410q0 261 151 420t400 159q248 0 399.5 -152.5t151.5 -402.5zM631 905q-109 0 -174 -68t-82 -196h514q-15 127 -81 195.5t-177 68.5z" />
    <glyph glyph-name="igrave" unicode="&#xec;" horiz-adv-x="563" 
d="M217 1266l-364 329h325l277 -329h-238zM143 0v1104h279v-1104h-279z" />
    <glyph glyph-name="iacute" unicode="&#xed;" horiz-adv-x="563" 
d="M109 1266l278 329h324l-365 -329h-237zM143 0v1104h279v-1104h-279z" />
    <glyph glyph-name="icircumflex" unicode="&#xee;" horiz-adv-x="563" 
d="M414 1595l268 -329h-256l-145 172l-144 -172h-258l268 329h267zM143 0v1104h279v-1104h-279z" />
    <glyph glyph-name="idieresis" unicode="&#xef;" horiz-adv-x="563" 
d="M31 1284q-72 0 -119 46t-47 118t47 119t119 47t119 -47t47 -119t-47 -118t-119 -46zM532 1284q-72 0 -118.5 46t-46.5 118t46.5 119t118.5 47t119 -47t47 -119t-47 -118t-119 -46zM143 0v1104h279v-1104h-279z" />
    <glyph glyph-name="eth" unicode="&#xf0;" horiz-adv-x="1345" 
d="M834 1427q428 -340 428 -794q0 -294 -162.5 -473.5t-427.5 -179.5q-267 0 -429.5 157t-162.5 418q0 122 41 225.5t111.5 174.5t167.5 111t208 40q122 0 209 -43q-74 107 -215 219l-119 -76l-153 101l121 79q-49 31 -144 80l234 152q69 -38 139 -80l123 80l151 -113z
M672 219q134 0 217.5 92t83.5 242t-83.5 242t-217.5 92q-137 0 -220 -91.5t-83 -242.5t83 -242.5t220 -91.5z" />
    <glyph glyph-name="ntilde" unicode="&#xf1;" horiz-adv-x="1341" 
d="M518 1382q-37 0 -60.5 -26t-23.5 -68h-151q0 133 64 214t169 81q45 0 95.5 -18t86.5 -39.5t76.5 -39.5t69.5 -18q39 0 61.5 25t22.5 70h151q0 -139 -62.5 -217t-168.5 -78q-55 0 -119 28.5t-119.5 57t-91.5 28.5zM774 1124q198 0 319 -118.5t121 -311.5v-694h-278v649
q0 107 -70.5 172.5t-187.5 65.5t-187.5 -65.5t-70.5 -172.5v-649h-279v1104h269l4 -139q63 77 156 118t204 41z" />
    <glyph glyph-name="ograve" unicode="&#xf2;" horiz-adv-x="1337" 
d="M604 1266l-364 329h325l277 -329h-238zM670 -20q-266 0 -429 157.5t-163 415.5q0 256 163 413.5t429 157.5q264 0 427 -157.5t163 -413.5q0 -258 -163 -415.5t-427 -157.5zM670 219q135 0 218 91.5t83 242.5t-83 242.5t-218 91.5q-137 0 -220 -91.5t-83 -242.5t83 -242.5
t220 -91.5z" />
    <glyph glyph-name="oacute" unicode="&#xf3;" horiz-adv-x="1337" 
d="M496 1266l278 329h324l-365 -329h-237zM670 -20q-266 0 -429 157.5t-163 415.5q0 256 163 413.5t429 157.5q264 0 427 -157.5t163 -413.5q0 -258 -163 -415.5t-427 -157.5zM670 219q135 0 218 91.5t83 242.5t-83 242.5t-218 91.5q-137 0 -220 -91.5t-83 -242.5t83 -242.5
t220 -91.5z" />
    <glyph glyph-name="ocircumflex" unicode="&#xf4;" horiz-adv-x="1337" 
d="M668 1438l-144 -172h-258l269 329h266l268 -329h-256zM670 1124q264 0 427 -157.5t163 -413.5q0 -258 -163 -415.5t-427 -157.5q-266 0 -429 157.5t-163 415.5q0 256 163 413.5t429 157.5zM670 219q135 0 218 91.5t83 242.5t-83 242.5t-218 91.5q-137 0 -220 -91.5
t-83 -242.5t83 -242.5t220 -91.5z" />
    <glyph glyph-name="otilde" unicode="&#xf5;" horiz-adv-x="1337" 
d="M836 1268q-55 0 -119 28.5t-119.5 57t-91.5 28.5q-37 0 -60.5 -26t-23.5 -68h-152q0 133 64.5 214t169.5 81q45 0 95.5 -18t86 -39.5t76 -39.5t69.5 -18q39 0 61.5 25t22.5 70h152q0 -139 -62.5 -217t-168.5 -78zM670 -20q-266 0 -429 157.5t-163 415.5q0 256 163 413.5
t429 157.5q264 0 427 -157.5t163 -413.5q0 -258 -163 -415.5t-427 -157.5zM670 219q135 0 218 91.5t83 242.5t-83 242.5t-218 91.5q-137 0 -220 -91.5t-83 -242.5t83 -242.5t220 -91.5z" />
    <glyph glyph-name="odieresis" unicode="&#xf6;" horiz-adv-x="1337" 
d="M418 1284q-72 0 -119 46t-47 118t47 119t119 47t119 -47t47 -119t-47 -118t-119 -46zM920 1284q-72 0 -119 46t-47 118t47 119t119 47t118.5 -47t46.5 -119t-46.5 -118t-118.5 -46zM670 -20q-266 0 -429 157.5t-163 415.5q0 256 163 413.5t429 157.5q264 0 427 -157.5
t163 -413.5q0 -258 -163 -415.5t-427 -157.5zM670 219q135 0 218 91.5t83 242.5t-83 242.5t-218 91.5q-137 0 -220 -91.5t-83 -242.5t83 -242.5t220 -91.5z" />
    <glyph glyph-name="divide" unicode="&#xf7;" horiz-adv-x="1179" 
d="M592 940q-72 0 -120 47t-48 119t48 119t120 47q71 0 117.5 -47t46.5 -119t-46.5 -119t-117.5 -47zM104 602v229h971v-229h-971zM592 166q-72 0 -120 47t-48 119t48 119t120 47q71 0 117.5 -47t46.5 -119t-46.5 -119t-117.5 -47z" />
    <glyph glyph-name="oslash" unicode="&#xf8;" horiz-adv-x="1341" 
d="M1260 961l-89 -87q89 -137 89 -321q0 -258 -163 -415.5t-427 -157.5q-188 0 -332 83l-86 -83l-170 165l84 82q-88 139 -88 326q0 256 163 413.5t429 157.5q187 0 331 -86l89 86zM367 553q0 -52 14 -117l430 418q-68 33 -141 33q-137 0 -220 -91.5t-83 -242.5zM971 553
q0 61 -15 113l-426 -416q64 -31 140 -31q135 0 218 91.5t83 242.5z" />
    <glyph glyph-name="ugrave" unicode="&#xf9;" horiz-adv-x="1286" 
d="M578 1266l-365 329h326l276 -329h-237zM643 -20q-233 0 -374.5 126.5t-141.5 333.5v664h279v-649q0 -106 65 -171t172 -65q106 0 171 65t65 171v649h278v-664q0 -207 -141 -333.5t-373 -126.5z" />
    <glyph glyph-name="uacute" unicode="&#xfa;" horiz-adv-x="1286" 
d="M469 1266l279 329h323l-364 -329h-238zM643 -20q-233 0 -374.5 126.5t-141.5 333.5v664h279v-649q0 -106 65 -171t172 -65q106 0 171 65t65 171v649h278v-664q0 -207 -141 -333.5t-373 -126.5z" />
    <glyph glyph-name="ucircumflex" unicode="&#xfb;" horiz-adv-x="1286" 
d="M641 1438l-143 -172h-258l268 329h266l268 -329h-256zM879 1104h278v-664q0 -207 -141 -333.5t-373 -126.5q-233 0 -374.5 126.5t-141.5 333.5v664h279v-649q0 -106 65 -171t172 -65q106 0 171 65t65 171v649z" />
    <glyph glyph-name="udieresis" unicode="&#xfc;" horiz-adv-x="1286" 
d="M391 1284q-72 0 -119 46t-47 118t47 119t119 47t119 -47t47 -119t-47 -118t-119 -46zM893 1284q-72 0 -119 46t-47 118t47 119t119 47t119 -47t47 -119t-47 -118t-119 -46zM643 -20q-233 0 -374.5 126.5t-141.5 333.5v664h279v-649q0 -106 65 -171t172 -65q106 0 171 65
t65 171v649h278v-664q0 -207 -141 -333.5t-373 -126.5z" />
    <glyph glyph-name="yacute" unicode="&#xfd;" horiz-adv-x="1300" 
d="M1063 1595l-365 -329h-237l278 329h324zM881 1104h278v-1000q0 -261 -165 -418t-437 -157q-269 0 -440 139l61 219q156 -118 373 -118q148 0 239 92t91 245v21q-60 -72 -146 -109.5t-188 -37.5q-188 0 -304 119t-116 313v692h279v-649q0 -106 66 -171t173 -65
q106 0 171 65t65 171v649z" />
    <glyph glyph-name="thorn" unicode="&#xfe;" horiz-adv-x="1392" 
d="M786 1124q227 0 378 -157.5t151 -409.5q0 -127 -41 -235.5t-112 -183t-168 -116.5t-208 -42q-242 0 -366 180v-611h-279v2048h279v-651q125 178 366 178zM723 219q136 0 219.5 92t83.5 244q0 149 -84 240.5t-219 91.5q-137 0 -220 -91.5t-83 -242.5t83 -242.5t220 -91.5z
" />
    <glyph glyph-name="ydieresis" unicode="&#xff;" horiz-adv-x="1300" 
d="M383 1284q-72 0 -119 46t-47 118t47 119t119 47t119 -47t47 -119t-47 -118t-119 -46zM885 1284q-72 0 -119 46t-47 118t47 119t119 47t119 -47t47 -119t-47 -118t-119 -46zM881 1104h278v-1000q0 -261 -165 -418t-437 -157q-269 0 -440 139l61 219q156 -118 373 -118
q148 0 239 92t91 245v21q-60 -72 -146 -109.5t-188 -37.5q-188 0 -304 119t-116 313v692h279v-649q0 -106 66 -171t173 -65q106 0 171 65t65 171v649z" />
    <glyph glyph-name="Amacron" unicode="&#x100;" horiz-adv-x="1652" 
d="M1192 1909v-219h-729v219h729zM827 1536q298 0 480 -163.5t182 -430.5v-942h-289v444h-747v-444h-289v942q0 267 182.5 430.5t480.5 163.5zM453 682h747v248q0 164 -102.5 265t-268.5 101q-170 0 -273 -100.5t-103 -265.5v-248z" />
    <glyph glyph-name="amacron" unicode="&#x101;" horiz-adv-x="1392" 
d="M1051 1497v-219h-729v219h729zM983 1104h268v-1104h-268l-6 166q-124 -186 -371 -186q-227 0 -377.5 157.5t-150.5 409.5q0 256 150.5 416.5t377.5 160.5q247 0 371 -186zM670 219q135 0 219 92t84 242q0 149 -84 241.5t-219 92.5q-136 0 -219.5 -92.5t-83.5 -243.5
q0 -149 83.5 -240.5t219.5 -91.5z" />
    <glyph glyph-name="Abreve" unicode="&#x102;" horiz-adv-x="1652" 
d="M827 1659q-167 0 -268.5 95.5t-101.5 252.5h211q0 -83 44 -134.5t115 -51.5q73 0 117.5 51t44.5 135h211q0 -157 -102 -252.5t-271 -95.5zM827 1536q298 0 480 -163.5t182 -430.5v-942h-289v444h-747v-444h-289v942q0 267 182.5 430.5t480.5 163.5zM453 682h747v248
q0 164 -102.5 265t-268.5 101q-170 0 -273 -100.5t-103 -265.5v-248z" />
    <glyph glyph-name="abreve" unicode="&#x103;" horiz-adv-x="1392" 
d="M686 1247q-167 0 -269 95.5t-102 252.5h211q0 -83 44.5 -134.5t115.5 -51.5q73 0 117.5 51t44.5 135h211q0 -157 -102 -252.5t-271 -95.5zM983 1104h268v-1104h-268l-6 166q-124 -186 -371 -186q-227 0 -377.5 157.5t-150.5 409.5q0 256 150.5 416.5t377.5 160.5
q247 0 371 -186zM670 219q135 0 219 92t84 242q0 149 -84 241.5t-219 92.5q-136 0 -219.5 -92.5t-83.5 -243.5q0 -149 83.5 -240.5t219.5 -91.5z" />
    <glyph glyph-name="Aogonek" unicode="&#x104;" horiz-adv-x="1652" 
d="M1470 -276l25 -138q-80 -57 -190 -57q-94 0 -150.5 50t-56.5 132q0 148 186 289h-84v444h-747v-444h-289v942q0 267 182.5 430.5t480.5 163.5t480 -163.5t182 -430.5v-942q-191 -121 -191 -244q0 -31 20 -49t54 -18q57 0 98 35zM453 682h747v248q0 164 -102.5 265
t-268.5 101q-170 0 -273 -100.5t-103 -265.5v-248z" />
    <glyph glyph-name="aogonek" unicode="&#x105;" horiz-adv-x="1392" 
d="M1233 -276l24 -138q-80 -57 -190 -57q-94 0 -150.5 50t-56.5 132q0 148 187 289h-64l-6 166q-124 -186 -371 -186q-227 0 -377.5 157.5t-150.5 409.5q0 256 150.5 416.5t377.5 160.5q247 0 371 -186l6 166h268v-1104q-190 -121 -190 -244q0 -31 20 -49t54 -18q57 0 98 35
zM670 219q135 0 219 92t84 242q0 149 -84 241.5t-219 92.5q-136 0 -219.5 -92.5t-83.5 -243.5q0 -149 83.5 -240.5t219.5 -91.5z" />
    <glyph glyph-name="Cacute" unicode="&#x106;" horiz-adv-x="1572" 
d="M698 1677l279 330h323l-364 -330h-238zM893 -20q-361 0 -583 215.5t-222 566.5q0 230 100 406t282.5 272t420.5 96q372 0 598 -244l-182 -184q-67 86 -174 137t-238 51q-229 0 -368.5 -147.5t-139.5 -388.5q0 -244 141.5 -392.5t370.5 -148.5q285 0 442 240l195 -174
q-109 -149 -272.5 -227t-370.5 -78z" />
    <glyph glyph-name="cacute" unicode="&#x107;" horiz-adv-x="1122" 
d="M471 1266l279 329h323l-364 -329h-238zM666 -20q-264 0 -426 157.5t-162 415.5q0 257 163.5 414t430.5 157q217 0 379 -127l-158 -188q-91 78 -217 78q-138 0 -223.5 -92t-85.5 -242q0 -151 85 -242.5t226 -91.5q159 0 250 98l157 -184q-153 -153 -419 -153z" />
    <glyph glyph-name="Cdotaccent" unicode="&#x10a;" horiz-adv-x="1572" 
d="M872 1696q-72 0 -118.5 46t-46.5 118t46.5 118.5t118.5 46.5t119 -46.5t47 -118.5t-47 -118t-119 -46zM893 -20q-361 0 -583 215.5t-222 566.5q0 230 100 406t282.5 272t420.5 96q372 0 598 -244l-182 -184q-67 86 -174 137t-238 51q-229 0 -368.5 -147.5t-139.5 -388.5
q0 -244 141.5 -392.5t370.5 -148.5q285 0 442 240l195 -174q-109 -149 -272.5 -227t-370.5 -78z" />
    <glyph glyph-name="cdotaccent" unicode="&#x10b;" horiz-adv-x="1122" 
d="M645 1284q-72 0 -119 46t-47 118t47 119t119 47t119 -47t47 -119t-47 -118t-119 -46zM666 -20q-264 0 -426 157.5t-162 415.5q0 257 163.5 414t430.5 157q217 0 379 -127l-158 -188q-91 78 -217 78q-138 0 -223.5 -92t-85.5 -242q0 -151 85 -242.5t226 -91.5
q159 0 250 98l157 -184q-153 -153 -419 -153z" />
    <glyph glyph-name="Ccaron" unicode="&#x10c;" horiz-adv-x="1572" 
d="M1004 1677h-267l-268 330h258l143 -172l146 172h256zM1341 459l195 -174q-109 -149 -272.5 -227t-370.5 -78q-361 0 -583 215.5t-222 566.5q0 230 100 406t282.5 272t420.5 96q372 0 598 -244l-182 -184q-67 86 -174 137t-238 51q-229 0 -368.5 -147.5t-139.5 -388.5
q0 -244 141.5 -392.5t370.5 -148.5q285 0 442 240z" />
    <glyph glyph-name="ccaron" unicode="&#x10d;" horiz-adv-x="1122" 
d="M776 1266h-266l-268 329h258l143 -172l145 172h256zM928 317l157 -184q-153 -153 -419 -153q-264 0 -426 157.5t-162 415.5q0 257 163.5 414t430.5 157q217 0 379 -127l-158 -188q-91 78 -217 78q-138 0 -223.5 -92t-85.5 -242q0 -151 85 -242.5t226 -91.5q159 0 250 98z
" />
    <glyph glyph-name="Dcaron" unicode="&#x10e;" horiz-adv-x="1613" 
d="M825 1677h-266l-268 330h258l143 -172l146 172h256zM776 1516q222 0 392 -94t263 -266.5t93 -397.5t-93 -397.5t-263 -266.5t-392 -94h-596v1516h596zM776 240q201 0 324 142.5t123 375.5t-123 375.5t-324 142.5h-307v-1036h307z" />
    <glyph glyph-name="dcaron" unicode="&#x10f;" horiz-adv-x="1427" 
d="M973 944v653h278v-1597h-268l-6 166q-124 -186 -371 -186q-227 0 -377.5 157.5t-150.5 409.5q0 256 150.5 416.5t377.5 160.5q243 0 367 -180zM1448 1597h252l-139 -383h-211zM670 219q135 0 219 92t84 242q0 149 -84 241.5t-219 92.5q-136 0 -219.5 -92.5t-83.5 -243.5
q0 -149 83.5 -240.5t219.5 -91.5z" />
    <glyph glyph-name="Dcroat" unicode="&#x110;" horiz-adv-x="1613" 
d="M776 1516q222 0 392 -94t263 -266.5t93 -397.5t-93 -397.5t-263 -266.5t-392 -94h-596v662h-160v198h160v656h596zM776 240q201 0 324 142.5t123 375.5t-123 375.5t-324 142.5h-307v-416h340v-198h-340v-422h307z" />
    <glyph glyph-name="dcroat" unicode="&#x111;" horiz-adv-x="1392" 
d="M1409 1440v-199h-158v-1241h-268l-6 166q-124 -186 -371 -186q-227 0 -377.5 157.5t-150.5 409.5q0 256 150.5 416.5t377.5 160.5q243 0 367 -180v297h-352v199h352v157h278v-157h158zM670 219q135 0 219 92t84 242q0 149 -84 241.5t-219 92.5q-136 0 -219.5 -92.5
t-83.5 -243.5q0 -149 83.5 -240.5t219.5 -91.5z" />
    <glyph glyph-name="Emacron" unicode="&#x112;" horiz-adv-x="1331" 
d="M1059 1909v-219h-729v219h729zM469 240h758v-240h-1047v1516h1030v-240h-741v-389h676v-238h-676v-409z" />
    <glyph glyph-name="emacron" unicode="&#x113;" horiz-adv-x="1253" 
d="M995 1497v-219h-729v219h729zM1182 569q0 -50 -8 -116h-799q33 -254 264 -254q162 0 270 131l215 -109q-75 -112 -201 -176.5t-280 -64.5q-254 0 -408.5 155t-154.5 410q0 261 151 420t400 159q248 0 399.5 -152.5t151.5 -402.5zM631 905q-109 0 -174 -68t-82 -196h514
q-15 127 -81 195.5t-177 68.5z" />
    <glyph glyph-name="Edotaccent" unicode="&#x116;" horiz-adv-x="1331" 
d="M694 1696q-72 0 -119 46t-47 118t47 118.5t119 46.5t119 -46.5t47 -118.5t-47 -118t-119 -46zM469 240h758v-240h-1047v1516h1030v-240h-741v-389h676v-238h-676v-409z" />
    <glyph glyph-name="edotaccent" unicode="&#x117;" horiz-adv-x="1253" 
d="M631 1284q-72 0 -119 46t-47 118t47 119t119 47t119 -47t47 -119t-47 -118t-119 -46zM1182 569q0 -50 -8 -116h-799q33 -254 264 -254q162 0 270 131l215 -109q-75 -112 -201 -176.5t-280 -64.5q-254 0 -408.5 155t-154.5 410q0 261 151 420t400 159q248 0 399.5 -152.5
t151.5 -402.5zM631 905q-109 0 -174 -68t-82 -196h514q-15 127 -81 195.5t-177 68.5z" />
    <glyph glyph-name="Eogonek" unicode="&#x118;" horiz-adv-x="1331" 
d="M1208 -276l25 -138q-80 -57 -191 -57q-93 0 -149.5 50t-56.5 132q0 148 186 289h-842v1516h1030v-240h-741v-389h676v-238h-676v-409h758v-240q-191 -121 -191 -244q0 -31 20 -49t54 -18q57 0 98 35z" />
    <glyph glyph-name="eogonek" unicode="&#x119;" horiz-adv-x="1253" 
d="M1182 569q0 -50 -8 -116h-799q33 -254 264 -254q162 0 270 131l215 -109q-114 -168 -317 -221q-191 -121 -191 -244q0 -31 20 -49t54 -18q57 0 98 35l25 -138q-80 -57 -190 -57q-94 0 -150.5 50t-56.5 132q0 139 164 271q-228 20 -364 173t-136 390q0 261 151 420
t400 159q248 0 399.5 -152.5t151.5 -402.5zM631 905q-109 0 -174 -68t-82 -196h514q-15 127 -81 195.5t-177 68.5z" />
    <glyph glyph-name="Ecaron" unicode="&#x11a;" horiz-adv-x="1331" 
d="M825 1677h-266l-268 330h258l143 -172l146 172h256zM469 240h758v-240h-1047v1516h1030v-240h-741v-389h676v-238h-676v-409z" />
    <glyph glyph-name="ecaron" unicode="&#x11b;" horiz-adv-x="1253" 
d="M762 1266h-266l-269 329h258l144 -172l145 172h256zM1182 569q0 -50 -8 -116h-799q33 -254 264 -254q162 0 270 131l215 -109q-75 -112 -201 -176.5t-280 -64.5q-254 0 -408.5 155t-154.5 410q0 261 151 420t400 159q248 0 399.5 -152.5t151.5 -402.5zM631 905
q-109 0 -174 -68t-82 -196h514q-15 127 -81 195.5t-177 68.5z" />
    <glyph glyph-name="Gbreve" unicode="&#x11e;" horiz-adv-x="1671" 
d="M870 1659q-167 0 -268.5 95.5t-101.5 252.5h211q0 -83 44 -134.5t115 -51.5q73 0 117.5 51t44.5 135h211q0 -157 -102 -252.5t-271 -95.5zM1614 854q4 -66 4 -96q0 -352 -203.5 -565t-544.5 -213q-174 0 -319.5 56t-247 157.5t-157.5 246.5t-56 318q0 232 96 408.5
t273 273t411 96.5q327 0 537 -168l-190 -180q-117 108 -343 108q-218 0 -351.5 -147.5t-133.5 -390.5t132.5 -391t350.5 -148q188 0 306 107t137 288h-391v240h690z" />
    <glyph glyph-name="gbreve" unicode="&#x11f;" horiz-adv-x="1392" 
d="M690 1247q-167 0 -269 95.5t-102 252.5h211q0 -83 44.5 -134.5t115.5 -51.5q73 0 117.5 51t44.5 135h211q0 -157 -102 -252.5t-271 -95.5zM985 1104h268v-1000q0 -261 -179 -418t-474 -157q-302 0 -491 139l61 219q173 -118 422 -118q172 0 277.5 92t105.5 245v54
q-124 -180 -367 -180q-227 0 -377.5 160.5t-150.5 416.5q0 126 40.5 232.5t111 179.5t168 114t208.5 41q247 0 371 -186zM672 219q135 0 219 92t84 242t-84 242t-219 92q-136 0 -219.5 -91.5t-83.5 -240.5q0 -152 83 -244t220 -92z" />
    <glyph glyph-name="Gdotaccent" unicode="&#x120;" horiz-adv-x="1671" 
d="M870 1696q-72 0 -118.5 46t-46.5 118t46.5 118.5t118.5 46.5t119 -46.5t47 -118.5t-47 -118t-119 -46zM1614 854q4 -66 4 -96q0 -352 -203.5 -565t-544.5 -213q-174 0 -319.5 56t-247 157.5t-157.5 246.5t-56 318q0 232 96 408.5t273 273t411 96.5q327 0 537 -168
l-190 -180q-117 108 -343 108q-218 0 -351.5 -147.5t-133.5 -390.5t132.5 -391t350.5 -148q188 0 306 107t137 288h-391v240h690z" />
    <glyph glyph-name="gdotaccent" unicode="&#x121;" horiz-adv-x="1392" 
d="M690 1284q-72 0 -119 46t-47 118t47 119t119 47t119 -47t47 -119t-47 -118t-119 -46zM985 1104h268v-1000q0 -261 -179 -418t-474 -157q-302 0 -491 139l61 219q173 -118 422 -118q172 0 277.5 92t105.5 245v54q-124 -180 -367 -180q-227 0 -377.5 160.5t-150.5 416.5
q0 126 40.5 232.5t111 179.5t168 114t208.5 41q247 0 371 -186zM672 219q135 0 219 92t84 242t-84 242t-219 92q-136 0 -219.5 -91.5t-83.5 -240.5q0 -152 83 -244t220 -92z" />
    <glyph glyph-name="Gcommaaccent" unicode="&#x122;" horiz-adv-x="1671" 
d="M1614 854q4 -66 4 -96q0 -352 -203.5 -565t-544.5 -213q-174 0 -319.5 56t-247 157.5t-157.5 246.5t-56 318q0 232 96 408.5t273 273t411 96.5q327 0 537 -168l-190 -180q-117 108 -343 108q-218 0 -351.5 -147.5t-133.5 -390.5t132.5 -391t350.5 -148q188 0 306 107
t137 288h-391v240h690zM639 -451l88 345h250l-127 -345h-211z" />
    <glyph glyph-name="gcommaaccent" unicode="&#x123;" horiz-adv-x="1392" 
d="M887 1597l-99 -383h-251l139 383h211zM985 1104h268v-1000q0 -261 -179 -418t-474 -157q-302 0 -491 139l61 219q173 -118 422 -118q172 0 277.5 92t105.5 245v54q-124 -180 -367 -180q-227 0 -377.5 160.5t-150.5 416.5q0 126 40.5 232.5t111 179.5t168 114t208.5 41
q247 0 371 -186zM672 219q135 0 219 92t84 242t-84 242t-219 92q-136 0 -219.5 -91.5t-83.5 -240.5q0 -152 83 -244t220 -92z" />
    <glyph glyph-name="Hbar" unicode="&#x126;" horiz-adv-x="1748" 
d="M1716 1307v-199h-147v-1108h-289v653h-811v-653h-289v1108h-149v199h149v209h289v-209h811v209h289v-209h147zM1280 891v217h-811v-217h811z" />
    <glyph glyph-name="hbar" unicode="&#x127;" horiz-adv-x="1341" 
d="M774 1124q198 0 319 -118.5t121 -311.5v-694h-278v649q0 107 -70.5 172.5t-187.5 65.5t-187.5 -65.5t-70.5 -172.5v-649h-279v1241h-157v199h157v157h279v-157h352v-199h-352v-270q126 153 354 153z" />
    <glyph glyph-name="Imacron" unicode="&#x12a;" horiz-adv-x="649" 
d="M-41 1690v219h729v-219h-729zM180 0v1516h289v-1516h-289z" />
    <glyph glyph-name="imacron" unicode="&#x12b;" horiz-adv-x="563" 
d="M-82 1278v219h729v-219h-729zM143 0v1104h279v-1104h-279z" />
    <glyph glyph-name="Iogonek" unicode="&#x12e;" horiz-adv-x="649" 
d="M451 -276l24 -138q-80 -57 -190 -57q-94 0 -150.5 50t-56.5 132q0 148 186 289h-84v1516h289v-1516q-190 -121 -190 -244q0 -31 19.5 -49t53.5 -18q58 0 99 35z" />
    <glyph glyph-name="iogonek" unicode="&#x12f;" horiz-adv-x="563" 
d="M283 1284q-72 0 -119 46t-47 118t47 119t119 47t119 -47t47 -119t-47 -118t-119 -46zM305 -311q57 0 98 35l25 -138q-80 -57 -190 -57q-94 0 -150.5 50t-56.5 132q0 148 186 289h-74v1104h279v-1104q-191 -121 -191 -244q0 -31 20 -49t54 -18z" />
    <glyph glyph-name="Idotaccent" unicode="&#x130;" horiz-adv-x="649" 
d="M324 1696q-72 0 -119 46t-47 118t47 118.5t119 46.5t118.5 -46.5t46.5 -118.5t-46.5 -118t-118.5 -46zM180 0v1516h289v-1516h-289z" />
    <glyph glyph-name="dotlessi" unicode="&#x131;" horiz-adv-x="563" 
d="M143 0v1104h279v-1104h-279z" />
    <glyph glyph-name="Kcommaaccent" unicode="&#x136;" horiz-adv-x="1447" 
d="M850 776l608 -776h-346l-504 655h-139v-655h-289v1516h289v-623h133l481 623h347zM553 -451l88 345h250l-127 -345h-211z" />
    <glyph glyph-name="kcommaaccent" unicode="&#x137;" horiz-adv-x="1241" 
d="M743 582l517 -582h-353l-393 465h-94v-465h-279v1597h279v-903h96l365 410h352zM434 -451l88 345h250l-127 -345h-211z" />
    <glyph glyph-name="Lacute" unicode="&#x139;" horiz-adv-x="1169" 
d="M752 2007l-365 -330h-237l278 330h324zM469 240h670v-240h-959v1516h289v-1276z" />
    <glyph glyph-name="lacute" unicode="&#x13a;" horiz-adv-x="565" 
d="M111 1759l278 330h324l-365 -330h-237zM143 0v1597h279v-1597h-279z" />
    <glyph glyph-name="Lcommaaccent" unicode="&#x13b;" horiz-adv-x="1169" 
d="M469 240h670v-240h-959v1516h289v-1276zM399 -451l88 345h250l-127 -345h-211z" />
    <glyph glyph-name="lcommaaccent" unicode="&#x13c;" horiz-adv-x="565" 
d="M143 0v1597h279v-1597h-279zM70 -451l88 345h250l-127 -345h-211z" />
    <glyph glyph-name="Lcaron" unicode="&#x13d;" horiz-adv-x="1165" 
d="M469 240h670v-240h-959v1516h289v-1276zM1106 1516l-150 -441h-251l110 441h291z" />
    <glyph glyph-name="lcaron" unicode="&#x13e;" horiz-adv-x="598" 
d="M143 0v1597h279v-1597h-279zM520 1214l98 383h252l-139 -383h-211z" />
    <glyph glyph-name="Lslash" unicode="&#x141;" horiz-adv-x="1169" 
d="M469 240h670v-240h-959v561l-117 -82v226l117 81v730h289v-564l213 150v-223l-213 -150v-489z" />
    <glyph glyph-name="lslash" unicode="&#x142;" horiz-adv-x="565" 
d="M594 1102v-223l-172 -121v-758h-279v598l-168 -119v226l168 118v774h279v-616z" />
    <glyph glyph-name="Nacute" unicode="&#x143;" horiz-adv-x="1777" 
d="M715 1677l278 330h324l-365 -330h-237zM180 0v1516h180l955 -1027l-6 1027h288v-1516h-178l-954 1026l4 -1026h-289z" />
    <glyph glyph-name="nacute" unicode="&#x144;" horiz-adv-x="1341" 
d="M1110 1595l-365 -329h-237l278 329h324zM774 1124q198 0 319 -118.5t121 -311.5v-694h-278v649q0 107 -70.5 172.5t-187.5 65.5t-187.5 -65.5t-70.5 -172.5v-649h-279v1104h269l4 -139q63 77 156 118t204 41z" />
    <glyph glyph-name="Ncommaaccent" unicode="&#x145;" horiz-adv-x="1777" 
d="M180 0v1516h180l955 -1027l-6 1027h288v-1516h-178l-954 1026l4 -1026h-289zM676 -451l88 345h250l-127 -345h-211z" />
    <glyph glyph-name="ncommaaccent" unicode="&#x146;" horiz-adv-x="1341" 
d="M774 1124q198 0 319 -118.5t121 -311.5v-694h-278v649q0 107 -70.5 172.5t-187.5 65.5t-187.5 -65.5t-70.5 -172.5v-649h-279v1104h269l4 -139q63 77 156 118t204 41zM463 -451l88 345h250l-127 -345h-211z" />
    <glyph glyph-name="Ncaron" unicode="&#x147;" horiz-adv-x="1777" 
d="M1020 1677h-266l-269 330h258l144 -172l145 172h256zM1309 1516h288v-1516h-178l-954 1026l4 -1026h-289v1516h180l955 -1027z" />
    <glyph glyph-name="ncaron" unicode="&#x148;" horiz-adv-x="1341" 
d="M813 1266h-266l-268 329h258l143 -172l145 172h256zM774 1124q198 0 319 -118.5t121 -311.5v-694h-278v649q0 107 -70.5 172.5t-187.5 65.5t-187.5 -65.5t-70.5 -172.5v-649h-279v1104h269l4 -139q63 77 156 118t204 41z" />
    <glyph glyph-name="Eng" unicode="&#x14a;" horiz-adv-x="1777" 
d="M1309 1516h288v-1639q0 -156 -110 -252t-287 -96q-189 0 -299 119l76 194q70 -73 168 -73q76 0 120 43t44 116v191l-844 907l4 -1026h-289v1516h180l955 -1027z" />
    <glyph glyph-name="eng" unicode="&#x14b;" horiz-adv-x="1341" 
d="M774 1124q198 0 319 -118.5t121 -311.5v-817q0 -157 -96.5 -252.5t-253.5 -95.5q-128 0 -215 35l21 217q42 -12 110 -12q69 0 112.5 47t43.5 125v708q0 107 -70.5 172.5t-187.5 65.5t-187.5 -65.5t-70.5 -172.5v-649h-279v1104h269l4 -139q63 77 156 118t204 41z" />
    <glyph glyph-name="Omacron" unicode="&#x14c;" horiz-adv-x="1767" 
d="M520 1690v219h729v-219h-729zM885 -20q-236 0 -417 96.5t-280.5 273.5t-99.5 408t99.5 408t280.5 273.5t417 96.5q235 0 415.5 -96.5t279.5 -273.5t99 -408t-99 -408t-279.5 -273.5t-415.5 -96.5zM885 219q223 0 359 148t136 391t-136 390.5t-359 147.5t-360.5 -148
t-137.5 -390q0 -243 137.5 -391t360.5 -148z" />
    <glyph glyph-name="omacron" unicode="&#x14d;" horiz-adv-x="1337" 
d="M305 1278v219h729v-219h-729zM670 -20q-266 0 -429 157.5t-163 415.5q0 256 163 413.5t429 157.5q264 0 427 -157.5t163 -413.5q0 -258 -163 -415.5t-427 -157.5zM670 219q135 0 218 91.5t83 242.5t-83 242.5t-218 91.5q-137 0 -220 -91.5t-83 -242.5t83 -242.5
t220 -91.5z" />
    <glyph glyph-name="Ohungarumlaut" unicode="&#x150;" horiz-adv-x="1767" 
d="M549 1677l217 330h326l-306 -330h-237zM952 1677l217 330h326l-305 -330h-238zM885 -20q-236 0 -417 96.5t-280.5 273.5t-99.5 408t99.5 408t280.5 273.5t417 96.5q235 0 415.5 -96.5t279.5 -273.5t99 -408t-99 -408t-279.5 -273.5t-415.5 -96.5zM885 219q223 0 359 148
t136 391t-136 390.5t-359 147.5t-360.5 -148t-137.5 -390q0 -243 137.5 -391t360.5 -148z" />
    <glyph glyph-name="ohungarumlaut" unicode="&#x151;" horiz-adv-x="1337" 
d="M334 1266l217 329h326l-306 -329h-237zM737 1266l217 329h326l-305 -329h-238zM670 -20q-266 0 -429 157.5t-163 415.5q0 256 163 413.5t429 157.5q264 0 427 -157.5t163 -413.5q0 -258 -163 -415.5t-427 -157.5zM670 219q135 0 218 91.5t83 242.5t-83 242.5t-218 91.5
q-137 0 -220 -91.5t-83 -242.5t83 -242.5t220 -91.5z" />
    <glyph glyph-name="OE" unicode="&#x152;" horiz-adv-x="2543" 
d="M1681 240h756v-240h-1044v172q-204 -192 -527 -192q-230 0 -406.5 96.5t-273 273.5t-96.5 408t96.5 408t273 273.5t406.5 96.5q321 0 527 -193v173h1028v-240h-740v-389h674v-238h-674v-409zM887 219q223 0 359 148t136 391t-136 390.5t-359 147.5q-224 0 -361 -147.5
t-137 -390.5t137 -391t361 -148z" />
    <glyph glyph-name="oe" unicode="&#x153;" horiz-adv-x="2146" 
d="M2073 569q0 -75 -5 -116h-800q33 -254 266 -254q160 0 268 131l215 -109q-74 -113 -193.5 -177t-267.5 -64q-147 0 -261.5 62t-180.5 177q-71 -115 -190.5 -177t-272.5 -62q-257 0 -414 157.5t-157 415.5q0 257 157 414t414 157q154 0 273.5 -62.5t189.5 -176.5
q67 114 177 176.5t251 62.5q239 0 385 -152.5t146 -402.5zM1522 905q-108 0 -172.5 -68.5t-81.5 -195.5h516q-15 127 -82 195.5t-180 68.5zM670 219q135 0 218 91.5t83 242.5t-83 242.5t-218 91.5t-219 -92t-84 -242t84 -242t219 -92z" />
    <glyph glyph-name="Racute" unicode="&#x154;" horiz-adv-x="1497" 
d="M1122 2007l-364 -330h-238l279 330h323zM1124 0l-346 557h-309v-557h-289v1516h635q239 0 385 -132.5t146 -347.5q0 -146 -74 -256t-207 -168l399 -612h-340zM469 1276v-479h293q129 0 208 66t79 173t-73.5 173.5t-193.5 66.5h-313z" />
    <glyph glyph-name="racute" unicode="&#x155;" horiz-adv-x="835" 
d="M887 1595l-365 -329h-237l278 329h324zM414 956q136 168 405 168l-18 -256q-172 0 -276.5 -76t-104.5 -200v-592h-279v1104h269z" />
    <glyph glyph-name="Rcommaaccent" unicode="&#x156;" horiz-adv-x="1497" 
d="M1065 612l399 -612h-340l-346 557h-309v-557h-289v1516h635q239 0 385 -132.5t146 -347.5q0 -146 -74 -256t-207 -168zM469 1276v-479h293q129 0 208 66t79 173t-73.5 173.5t-193.5 66.5h-313zM555 -451l88 345h250l-127 -345h-211z" />
    <glyph glyph-name="rcommaaccent" unicode="&#x157;" horiz-adv-x="835" 
d="M414 956q136 168 405 168l-18 -256q-172 0 -276.5 -76t-104.5 -200v-592h-279v1104h269zM137 -451l88 345h250l-127 -345h-211z" />
    <glyph glyph-name="Rcaron" unicode="&#x158;" horiz-adv-x="1497" 
d="M825 1677h-266l-268 330h258l143 -172l146 172h256zM1124 0l-346 557h-309v-557h-289v1516h635q239 0 385 -132.5t146 -347.5q0 -146 -74 -256t-207 -168l399 -612h-340zM469 1276v-479h293q129 0 208 66t79 173t-73.5 173.5t-193.5 66.5h-313z" />
    <glyph glyph-name="rcaron" unicode="&#x159;" horiz-adv-x="835" 
d="M590 1266h-266l-269 329h258l144 -172l145 172h256zM414 956q136 168 405 168l-18 -256q-172 0 -276.5 -76t-104.5 -200v-592h-279v1104h269z" />
    <glyph glyph-name="Sacute" unicode="&#x15a;" horiz-adv-x="1331" 
d="M492 1677l278 330h324l-365 -330h-237zM659 -20q-159 0 -298.5 48.5t-239.5 141.5l108 195q178 -146 412 -146q143 0 222 47.5t79 134.5q0 85 -78 135t-239 95l-86 24q-101 28 -175 60.5t-136 81t-94 118.5t-32 160q0 207 154.5 334t407.5 127q296 0 512 -174l-129 -201
q-169 135 -381 135q-120 0 -192.5 -47.5t-72.5 -126.5q0 -35 14.5 -64t36.5 -48.5t60.5 -38t72.5 -30t87 -26.5l88 -24q75 -20 140 -46t129.5 -66t110 -88.5t73.5 -116t28 -146.5q0 -201 -160.5 -324.5t-421.5 -123.5z" />
    <glyph glyph-name="sacute" unicode="&#x15b;" horiz-adv-x="1052" 
d="M350 1266l279 329h323l-364 -329h-238zM508 -20q-269 0 -418 131l105 168q140 -82 317 -82q77 0 124.5 29.5t47.5 80.5q0 48 -48 78.5t-140 54.5l-93 25q-75 20 -128.5 43t-97 57t-65.5 83t-22 112q0 164 119 264t315 100q257 0 416 -108l-117 -182q-128 71 -280 71
q-76 0 -123 -26.5t-47 -73.5q0 -46 42 -73t124 -48l92 -27q76 -20 133 -45.5t105.5 -63.5t74 -93.5t25.5 -126.5q0 -157 -127 -252.5t-334 -95.5z" />
    <glyph glyph-name="Scedilla" unicode="&#x15e;" horiz-adv-x="1331" 
d="M1241 428q0 -182 -132 -301.5t-355 -142.5l-60 -95q98 -3 156.5 -50.5t58.5 -121.5q0 -85 -73 -136.5t-195 -51.5q-131 0 -205 51l51 103q47 -37 125 -37q52 0 81.5 19t29.5 50q0 29 -27.5 46.5t-72.5 17.5q-37 0 -76 -17l-37 66l86 154q-294 19 -475 188l108 195
q178 -146 412 -146q143 0 222 47.5t79 134.5q0 85 -78 135t-239 95l-86 24q-101 28 -175 60.5t-136 81t-94 118.5t-32 160q0 207 154.5 334t407.5 127q296 0 512 -174l-129 -201q-169 135 -381 135q-120 0 -192.5 -47.5t-72.5 -126.5q0 -35 14.5 -64t36.5 -48.5t60.5 -38
t72.5 -30t87 -26.5l88 -24q75 -20 140 -46t129.5 -66t110 -88.5t73.5 -116t28 -146.5z" />
    <glyph glyph-name="scedilla" unicode="&#x15f;" horiz-adv-x="1052" 
d="M969 328q0 -136 -98.5 -228t-264.5 -114l-61 -97q98 -3 156.5 -50.5t58.5 -121.5q0 -85 -73 -136.5t-195 -51.5q-131 0 -205 51l51 103q47 -37 125 -37q52 0 81 19t29 50q0 29 -27.5 46.5t-72.5 17.5q-37 0 -76 -17l-37 66l86 154q-228 16 -356 129l105 168
q140 -82 317 -82q77 0 124.5 29.5t47.5 80.5q0 48 -48 78.5t-140 54.5l-93 25q-75 20 -128.5 43t-97 57t-65.5 83t-22 112q0 164 119 264t315 100q257 0 416 -108l-117 -182q-128 71 -280 71q-76 0 -123 -26.5t-47 -73.5q0 -46 42 -73t124 -48l92 -27q76 -20 133 -45.5
t105.5 -63.5t74 -93.5t25.5 -126.5z" />
    <glyph glyph-name="Scaron" unicode="&#x160;" horiz-adv-x="1331" 
d="M797 1677h-267l-268 330h258l144 -172l145 172h256zM760 891q75 -20 140 -46t129.5 -66t110 -88.5t73.5 -116t28 -146.5q0 -201 -160.5 -324.5t-421.5 -123.5q-159 0 -298.5 48.5t-239.5 141.5l108 195q178 -146 412 -146q143 0 222 47.5t79 134.5q0 85 -78 135t-239 95
l-86 24q-101 28 -175 60.5t-136 81t-94 118.5t-32 160q0 207 154.5 334t407.5 127q296 0 512 -174l-129 -201q-169 135 -381 135q-120 0 -192.5 -47.5t-72.5 -126.5q0 -35 14.5 -64t36.5 -48.5t60.5 -38t72.5 -30t87 -26.5z" />
    <glyph glyph-name="scaron" unicode="&#x161;" horiz-adv-x="1052" 
d="M655 1266h-266l-268 329h258l143 -172l146 172h256zM631 657q76 -20 133 -45.5t105.5 -63.5t74 -93.5t25.5 -126.5q0 -157 -127 -252.5t-334 -95.5q-269 0 -418 131l105 168q140 -82 317 -82q77 0 124.5 29.5t47.5 80.5q0 48 -48 78.5t-140 54.5l-93 25q-75 20 -128.5 43
t-97 57t-65.5 83t-22 112q0 164 119 264t315 100q257 0 416 -108l-117 -182q-128 71 -280 71q-76 0 -123 -26.5t-47 -73.5q0 -46 42 -73t124 -48z" />
    <glyph glyph-name="uni0162" unicode="&#x162;" horiz-adv-x="1273" 
d="M780 0h-61l-70 -111q98 -3 156.5 -50.5t58.5 -121.5q0 -85 -73 -136.5t-195 -51.5q-131 0 -205 51l51 103q47 -37 125 -37q52 0 81.5 19t29.5 50q0 29 -27.5 46.5t-72.5 17.5q-37 0 -76 -17l-37 66l96 172h-69v1276h-461v240h1212v-240h-463v-1276z" />
    <glyph glyph-name="uni0163" unicode="&#x163;" horiz-adv-x="796" 
d="M469 -20q-19 0 -55 4l-58 -95q98 -3 155.5 -50t57.5 -122q0 -85 -72 -136.5t-196 -51.5q-131 0 -205 51l51 103q47 -37 125 -37q52 0 81.5 19t29.5 50q0 29 -27 46.5t-73 17.5q-37 0 -76 -17l-35 66l109 203q-71 45 -110.5 121.5t-39.5 175.5v1099h279v-323h325v-227
h-325v-492q0 -75 41.5 -120.5t107.5 -45.5q107 0 193 37v-225q-122 -51 -283 -51z" />
    <glyph glyph-name="Tcaron" unicode="&#x164;" horiz-adv-x="1273" 
d="M768 1677h-266l-269 330h259l143 -172l145 172h256zM1243 1516v-240h-463v-1276h-288v1276h-461v240h1212z" />
    <glyph glyph-name="tcaron" unicode="&#x165;" horiz-adv-x="796" 
d="M887 1597l-137 -383h-211l98 383h250zM410 385q0 -75 41.5 -120.5t107.5 -45.5q107 0 193 37v-225q-122 -51 -283 -51q-151 0 -244.5 96t-93.5 252v1099h279v-323h325v-227h-325v-492z" />
    <glyph glyph-name="Tbar" unicode="&#x166;" horiz-adv-x="1273" 
d="M1243 1276h-463v-436h254v-199h-254v-641h-288v641h-246v199h246v436h-461v240h1212v-240z" />
    <glyph glyph-name="tbar" unicode="&#x167;" horiz-adv-x="798" 
d="M559 219q107 0 193 37v-225q-122 -51 -283 -51q-151 0 -244.5 96t-93.5 252v1099h279v-323h325v-227h-325v-207h303v-201h-303v-84q0 -75 41.5 -120.5t107.5 -45.5z" />
    <glyph glyph-name="Umacron" unicode="&#x16a;" horiz-adv-x="1650" 
d="M463 1690v219h729v-219h-729zM827 -20q-299 0 -482 163t-183 430v943h289v-930q0 -164 103.5 -265.5t272.5 -101.5q167 0 270 101.5t103 265.5v930h289v-943q0 -267 -182 -430t-480 -163z" />
    <glyph glyph-name="umacron" unicode="&#x16b;" horiz-adv-x="1286" 
d="M279 1278v219h729v-219h-729zM643 -20q-233 0 -374.5 126.5t-141.5 333.5v664h279v-649q0 -106 65 -171t172 -65q106 0 171 65t65 171v649h278v-664q0 -207 -141 -333.5t-373 -126.5z" />
    <glyph glyph-name="Uring" unicode="&#x16e;" horiz-adv-x="1650" 
d="M827 1608q-109 0 -174 60.5t-65 160.5t65 160.5t174 60.5q108 0 174 -60.5t66 -160.5t-66 -160.5t-174 -60.5zM827 1733q41 0 66 26.5t25 69.5t-25 68.5t-66 25.5t-66.5 -25.5t-25.5 -68.5t25.5 -69.5t66.5 -26.5zM827 -20q-299 0 -482 163t-183 430v943h289v-930
q0 -164 103.5 -265.5t272.5 -101.5q167 0 270 101.5t103 265.5v930h289v-943q0 -267 -182 -430t-480 -163z" />
    <glyph glyph-name="uring" unicode="&#x16f;" horiz-adv-x="1286" 
d="M643 1196q-109 0 -174.5 60.5t-65.5 160.5t65.5 160.5t174.5 60.5q108 0 174 -60.5t66 -160.5t-66 -160.5t-174 -60.5zM643 1321q41 0 65.5 26.5t24.5 69.5t-24.5 68.5t-65.5 25.5t-66.5 -25.5t-25.5 -68.5t25.5 -69.5t66.5 -26.5zM643 -20q-233 0 -374.5 126.5
t-141.5 333.5v664h279v-649q0 -106 65 -171t172 -65q106 0 171 65t65 171v649h278v-664q0 -207 -141 -333.5t-373 -126.5z" />
    <glyph glyph-name="Uhungarumlaut" unicode="&#x170;" horiz-adv-x="1650" 
d="M492 1677l217 330h325l-305 -330h-237zM895 1677l217 330h326l-305 -330h-238zM827 -20q-299 0 -482 163t-183 430v943h289v-930q0 -164 103.5 -265.5t272.5 -101.5q167 0 270 101.5t103 265.5v930h289v-943q0 -267 -182 -430t-480 -163z" />
    <glyph glyph-name="uhungarumlaut" unicode="&#x171;" horiz-adv-x="1286" 
d="M307 1266l217 329h326l-305 -329h-238zM711 1266l217 329h325l-305 -329h-237zM643 -20q-233 0 -374.5 126.5t-141.5 333.5v664h279v-649q0 -106 65 -171t172 -65q106 0 171 65t65 171v649h278v-664q0 -207 -141 -333.5t-373 -126.5z" />
    <glyph glyph-name="Uogonek" unicode="&#x172;" horiz-adv-x="1650" 
d="M1200 1516h289v-943q0 -221 -126.5 -373t-346.5 -200q-189 -122 -189 -244q0 -31 20 -49t54 -18q57 0 98 35l25 -138q-80 -57 -190 -57q-94 0 -150.5 50t-56.5 132q0 136 161 269q-283 12 -454.5 174t-171.5 419v943h289v-930q0 -164 103.5 -265.5t272.5 -101.5
q167 0 270 101.5t103 265.5v930z" />
    <glyph glyph-name="uogonek" unicode="&#x173;" horiz-adv-x="1286" 
d="M879 1104h278v-664q0 -166 -92.5 -282t-253.5 -158q-190 -121 -190 -244q0 -31 19.5 -49t53.5 -18q58 0 99 35l24 -138q-80 -57 -190 -57q-94 0 -150.5 50t-56.5 132q0 135 164 271q-210 17 -333.5 141t-123.5 317v664h279v-649q0 -106 65 -171t172 -65q106 0 171 65
t65 171v649z" />
    <glyph glyph-name="Wcircumflex" unicode="&#x174;" horiz-adv-x="2330" 
d="M1165 1849l-143 -172h-258l268 330h266l269 -330h-256zM2017 1516h307l-522 -1516h-268l-369 1108l-366 -1108h-269l-524 1516h309l365 -1129l350 1129h270l355 -1129z" />
    <glyph glyph-name="wcircumflex" unicode="&#x175;" horiz-adv-x="1884" 
d="M940 1438l-143 -172h-258l268 329h266l268 -329h-256zM1563 1104h305l-406 -1104h-278l-242 762l-242 -762h-278l-406 1104h306l258 -787l247 787h230l248 -787z" />
    <glyph glyph-name="Ycircumflex" unicode="&#x176;" horiz-adv-x="1417" 
d="M709 1849l-144 -172h-258l268 330h267l268 -330h-256zM1087 1516h308l-541 -957v-559h-289v559l-542 957h309l379 -701z" />
    <glyph glyph-name="ycircumflex" unicode="&#x177;" horiz-adv-x="1300" 
d="M633 1438l-144 -172h-258l269 329h266l268 -329h-256zM881 1104h278v-1000q0 -261 -165 -418t-437 -157q-269 0 -440 139l61 219q156 -118 373 -118q148 0 239 92t91 245v21q-60 -72 -146 -109.5t-188 -37.5q-188 0 -304 119t-116 313v692h279v-649q0 -106 66 -171
t173 -65q106 0 171 65t65 171v649z" />
    <glyph glyph-name="Ydieresis" unicode="&#x178;" horiz-adv-x="1417" 
d="M459 1696q-72 0 -119 46t-47 118t47 118.5t119 46.5t119 -46.5t47 -118.5t-47 -118t-119 -46zM961 1696q-72 0 -119 46t-47 118t47 118.5t119 46.5t118.5 -46.5t46.5 -118.5t-46.5 -118t-118.5 -46zM1087 1516h308l-541 -957v-559h-289v559l-542 957h309l379 -701z" />
    <glyph glyph-name="Zacute" unicode="&#x179;" horiz-adv-x="1368" 
d="M1108 2007l-365 -330h-237l278 330h324zM469 240h827v-240h-1222v180l807 1096h-795v240h1190v-179z" />
    <glyph glyph-name="zacute" unicode="&#x17a;" horiz-adv-x="1118" 
d="M383 1266l279 329h323l-364 -329h-238zM78 0v180l551 697h-541v227h934l2 -178l-549 -697h572v-229h-969z" />
    <glyph glyph-name="Zdotaccent" unicode="&#x17b;" horiz-adv-x="1368" 
d="M680 1696q-72 0 -119 46t-47 118t47 118.5t119 46.5t119 -46.5t47 -118.5t-47 -118t-119 -46zM469 240h827v-240h-1222v180l807 1096h-795v240h1190v-179z" />
    <glyph glyph-name="zdotaccent" unicode="&#x17c;" horiz-adv-x="1118" 
d="M557 1284q-72 0 -119 46t-47 118t47 119t119 47t119 -47t47 -119t-47 -118t-119 -46zM78 0v180l551 697h-541v227h934l2 -178l-549 -697h572v-229h-969z" />
    <glyph glyph-name="Zcaron" unicode="&#x17d;" horiz-adv-x="1368" 
d="M811 1677h-266l-269 330h259l143 -172l145 172h256zM469 240h827v-240h-1222v180l807 1096h-795v240h1190v-179z" />
    <glyph glyph-name="zcaron" unicode="&#x17e;" horiz-adv-x="1118" 
d="M688 1266h-266l-268 329h258l143 -172l145 172h256zM475 229h572v-229h-969v180l551 697h-541v227h934l2 -178z" />
    <glyph glyph-name="florin" unicode="&#x192;" horiz-adv-x="1032" 
d="M836 1296q-86 0 -131.5 -43.5t-59.5 -128.5l-53 -301h328v-229h-369l-141 -799h-281l141 799h-166v229h207l68 385q29 158 143 243t279 85q110 0 192 -33l-30 -225q-55 18 -127 18z" />
    <glyph glyph-name="Scommaaccent" unicode="&#x218;" horiz-adv-x="1331" 
d="M659 -20q-159 0 -298.5 48.5t-239.5 141.5l108 195q178 -146 412 -146q143 0 222 47.5t79 134.5q0 85 -78 135t-239 95l-86 24q-101 28 -175 60.5t-136 81t-94 118.5t-32 160q0 207 154.5 334t407.5 127q296 0 512 -174l-129 -201q-169 135 -381 135q-120 0 -192.5 -47.5
t-72.5 -126.5q0 -35 14.5 -64t36.5 -48.5t60.5 -38t72.5 -30t87 -26.5l88 -24q75 -20 140 -46t129.5 -66t110 -88.5t73.5 -116t28 -146.5q0 -201 -160.5 -324.5t-421.5 -123.5zM467 -451l88 345h250l-127 -345h-211z" />
    <glyph glyph-name="scommaaccent" unicode="&#x219;" horiz-adv-x="1052" 
d="M508 -20q-269 0 -418 131l105 168q140 -82 317 -82q77 0 124.5 29.5t47.5 80.5q0 48 -48 78.5t-140 54.5l-93 25q-75 20 -128.5 43t-97 57t-65.5 83t-22 112q0 164 119 264t315 100q257 0 416 -108l-117 -182q-128 71 -280 71q-76 0 -123 -26.5t-47 -73.5q0 -46 42 -73
t124 -48l92 -27q76 -20 133 -45.5t105.5 -63.5t74 -93.5t25.5 -126.5q0 -157 -127 -252.5t-334 -95.5zM317 -451l89 345h249l-127 -345h-211z" />
    <glyph glyph-name="uni021A" unicode="&#x21a;" horiz-adv-x="1273" 
d="M1243 1516v-240h-463v-1276h-288v1276h-461v240h1212zM422 -451l88 345h250l-127 -345h-211z" />
    <glyph glyph-name="uni021B" unicode="&#x21b;" horiz-adv-x="796" 
d="M559 219q107 0 193 37v-225q-122 -51 -283 -51q-151 0 -244.5 96t-93.5 252v1099h279v-323h325v-227h-325v-492q0 -75 41.5 -120.5t107.5 -45.5zM195 -451l88 345h249l-126 -345h-211z" />
    <glyph glyph-name="circumflex" unicode="&#x2c6;" horiz-adv-x="1228" 
d="M874 1266h-256l-145 172l-143 -172h-258l268 329h266z" />
    <glyph glyph-name="caron" unicode="&#x2c7;" horiz-adv-x="1228" 
d="M618 1595h256l-268 -329h-266l-268 329h258l143 -172z" />
    <glyph glyph-name="breve" unicode="&#x2d8;" horiz-adv-x="1228" 
d="M434 1247q-167 0 -269 95.5t-102 252.5h211q0 -83 44.5 -134.5t115.5 -51.5q73 0 117.5 51t44.5 135h211q0 -157 -102 -252.5t-271 -95.5z" />
    <glyph glyph-name="dotaccent" unicode="&#x2d9;" horiz-adv-x="1228" 
d="M272 1284q-72 0 -119 46t-47 118t47 119t119 47t119 -47t47 -119t-47 -118t-119 -46z" />
    <glyph glyph-name="ring" unicode="&#x2da;" horiz-adv-x="1228" 
d="M344 1196q-109 0 -174.5 60.5t-65.5 160.5t65.5 160.5t174.5 60.5q108 0 174 -60.5t66 -160.5t-66 -160.5t-174 -60.5zM344 1321q41 0 65.5 26.5t24.5 69.5t-24.5 68.5t-65.5 25.5t-66.5 -25.5t-25.5 -68.5t25.5 -69.5t66.5 -26.5z" />
    <glyph glyph-name="ogonek" unicode="&#x2db;" horiz-adv-x="1228" 
d="M328 -471q-94 0 -150.5 50t-56.5 132q0 210 391 418v-129q-190 -121 -190 -244q0 -31 19.5 -49t53.5 -18q58 0 99 35l24 -138q-80 -57 -190 -57z" />
    <glyph glyph-name="tilde" unicode="&#x2dc;" horiz-adv-x="1228" 
d="M635 1268q-55 0 -119 28.5t-119.5 57t-91.5 28.5q-37 0 -60.5 -26t-23.5 -68h-151q0 133 64 214t169 81q45 0 95.5 -18t86.5 -39.5t76.5 -39.5t69.5 -18q39 0 61.5 25t22.5 70h151q0 -139 -62.5 -217t-168.5 -78z" />
    <glyph glyph-name="hungarumlaut" unicode="&#x2dd;" horiz-adv-x="1228" 
d="M250 1266l217 329h326l-306 -329h-237zM653 1266l217 329h326l-305 -329h-238z" />
    <glyph glyph-name="gravecomb" unicode="&#x300;" horiz-adv-x="0" 
d="M-459 1266l-364 329h325l277 -329h-238z" />
    <glyph glyph-name="acutecomb" unicode="&#x301;" horiz-adv-x="0" 
d="M-567 1266l278 329h324l-365 -329h-237z" />
    <glyph glyph-name="uni0302" unicode="&#x302;" horiz-adv-x="0" 
d="M-74 1266h-256l-145 172l-143 -172h-259l269 329h266z" />
    <glyph glyph-name="tildecomb" unicode="&#x303;" horiz-adv-x="0" 
d="M-301 1268q-55 0 -119 28.5t-119.5 57t-91.5 28.5q-37 0 -60.5 -26t-23.5 -68h-151q0 133 64 214t169 81q45 0 95.5 -18t86.5 -39.5t76.5 -39.5t69.5 -18q39 0 61.5 25t22.5 70h151q0 -139 -62.5 -217t-168.5 -78z" />
    <glyph glyph-name="uni0304" unicode="&#x304;" horiz-adv-x="0" 
d="M-813 1278v219h729v-219h-729z" />
    <glyph glyph-name="uni0306" unicode="&#x306;" horiz-adv-x="0" 
d="M-436 1247q-167 0 -269 95.5t-102 252.5h211q0 -83 44.5 -134.5t115.5 -51.5q73 0 117.5 51t44.5 135h211q0 -157 -102 -252.5t-271 -95.5z" />
    <glyph glyph-name="uni0307" unicode="&#x307;" horiz-adv-x="0" 
d="M-272 1284q-72 0 -119 46t-47 118t47 119t119 47t119 -47t47 -119t-47 -118t-119 -46z" />
    <glyph glyph-name="uni0308" unicode="&#x308;" horiz-adv-x="0" 
d="M-774 1284q-72 0 -119 46t-47 118t47 119t119 47t119 -47t47 -119t-47 -118t-119 -46zM-272 1284q-72 0 -119 46t-47 118t47 119t119 47t119 -47t47 -119t-47 -118t-119 -46z" />
    <glyph glyph-name="uni030A" unicode="&#x30a;" horiz-adv-x="0" 
d="M-344 1196q-109 0 -174.5 60.5t-65.5 160.5t65.5 160.5t174.5 60.5q108 0 174 -60.5t66 -160.5t-66 -160.5t-174 -60.5zM-344 1321q41 0 65.5 26.5t24.5 69.5t-24.5 68.5t-65.5 25.5t-66.5 -25.5t-25.5 -68.5t25.5 -69.5t66.5 -26.5z" />
    <glyph glyph-name="uni030B" unicode="&#x30b;" horiz-adv-x="0" 
d="M-920 1266l218 329h325l-305 -329h-238zM-516 1266l217 329h326l-306 -329h-237z" />
    <glyph glyph-name="uni030C" unicode="&#x30c;" horiz-adv-x="0" 
d="M-330 1595h256l-268 -329h-266l-269 329h259l143 -172z" />
    <glyph glyph-name="uni0312" unicode="&#x312;" horiz-adv-x="0" 
d="M-424 1214l139 383h211l-98 -383h-252z" />
    <glyph glyph-name="uni0326" unicode="&#x326;" horiz-adv-x="0" 
d="M-379 -451l88 345h250l-127 -345h-211z" />
    <glyph glyph-name="uni0327" unicode="&#x327;" horiz-adv-x="0" 
d="M-246 -111q98 -3 156.5 -50.5t58.5 -121.5q0 -85 -73 -136.5t-195 -51.5q-131 0 -205 51l51 103q47 -37 125 -37q52 0 81.5 19t29.5 50q0 29 -27.5 46.5t-72.5 17.5q-37 0 -76 -17l-37 66l96 172h158z" />
    <glyph glyph-name="uni0328" unicode="&#x328;" horiz-adv-x="0" 
d="M-215 -471q-94 0 -150.5 50t-56.5 132q0 210 391 418v-129q-190 -121 -190 -244q0 -31 20 -49t54 -18q57 0 98 35l24 -138q-80 -57 -190 -57z" />
    <glyph glyph-name="uni0335" unicode="&#x335;" horiz-adv-x="0" 
d="M-1083 494v198h788v-198h-788z" />
    <glyph glyph-name="uni0336" unicode="&#x336;" horiz-adv-x="0" 
d="M-1792 494v198h1686v-198h-1686z" />
    <glyph glyph-name="uni0337" unicode="&#x337;" horiz-adv-x="0" 
d="M-549 905l313 219v-223l-313 -221v37l-305 -215v225l305 215v-37z" />
    <glyph glyph-name="uni0338" unicode="&#x338;" horiz-adv-x="0" 
d="M-922 -20l-147 90l860 1466l148 -90z" />
    <glyph glyph-name="uni0394" unicode="&#x394;" horiz-adv-x="1693" 
d="M983 1516l645 -1516h-1562l647 1516h270zM473 240h748l-373 917z" />
    <glyph glyph-name="uni03A9" unicode="&#x3a9;" horiz-adv-x="1642" 
d="M1157 334v-94h363v-240h-592v522q149 31 235 131.5t86 249.5q0 178 -117.5 285.5t-308.5 107.5q-192 0 -309 -107.5t-117 -285.5q0 -147 86 -248t236 -133v-522h-592v240h362v94q-185 74 -288 222t-103 347q0 188 90 331.5t254.5 222.5t380.5 79q324 0 522.5 -174.5
t198.5 -458.5q0 -200 -102 -348t-285 -221z" />
    <glyph glyph-name="uni03BC" unicode="&#x3bc;" horiz-adv-x="1312" 
d="M893 1104h278v-1104h-266l-4 109q-91 -129 -246 -129q-148 0 -235 118v-549h-279v1555h279v-649q0 -106 64.5 -171t170.5 -65q107 0 172.5 65t65.5 171v649z" />
    <glyph glyph-name="pi" unicode="&#x3c0;" horiz-adv-x="1431" 
d="M1219 219q67 0 120 37v-225q-89 -51 -209 -51t-194 73t-74 193v631h-336v-877h-278v877h-185v227h1274v-227h-196v-574q0 -38 22 -61t56 -23z" />
    <glyph glyph-name="Wgrave" unicode="&#x1e80;" horiz-adv-x="2330" 
d="M1339 1677h-237l-365 330h326zM2017 1516h307l-522 -1516h-268l-369 1108l-366 -1108h-269l-524 1516h309l365 -1129l350 1129h270l355 -1129z" />
    <glyph glyph-name="wgrave" unicode="&#x1e81;" horiz-adv-x="1884" 
d="M1114 1266h-237l-365 329h326zM1563 1104h305l-406 -1104h-278l-242 762l-242 -762h-278l-406 1104h306l258 -787l247 787h230l248 -787z" />
    <glyph glyph-name="Wacute" unicode="&#x1e82;" horiz-adv-x="2330" 
d="M1595 2007l-364 -330h-238l279 330h323zM2017 1516h307l-522 -1516h-268l-369 1108l-366 -1108h-269l-524 1516h309l365 -1129l350 1129h270l355 -1129z" />
    <glyph glyph-name="wacute" unicode="&#x1e83;" horiz-adv-x="1884" 
d="M1370 1595l-364 -329h-238l279 329h323zM1563 1104h305l-406 -1104h-278l-242 762l-242 -762h-278l-406 1104h306l258 -787l247 787h230l248 -787z" />
    <glyph glyph-name="Wdieresis" unicode="&#x1e84;" horiz-adv-x="2330" 
d="M915 1696q-72 0 -118.5 46t-46.5 118t46.5 118.5t118.5 46.5t119 -46.5t47 -118.5t-47 -118t-119 -46zM1417 1696q-72 0 -119 46t-47 118t47 118.5t119 46.5t119 -46.5t47 -118.5t-47 -118t-119 -46zM2017 1516h307l-522 -1516h-268l-369 1108l-366 -1108h-269l-524 1516
h309l365 -1129l350 1129h270l355 -1129z" />
    <glyph glyph-name="wdieresis" unicode="&#x1e85;" horiz-adv-x="1884" 
d="M690 1284q-72 0 -119 46t-47 118t47 119t119 47t119 -47t47 -119t-47 -118t-119 -46zM1192 1284q-72 0 -119 46t-47 118t47 119t119 47t119 -47t47 -119t-47 -118t-119 -46zM1563 1104h305l-406 -1104h-278l-242 762l-242 -762h-278l-406 1104h306l258 -787l247 787h230
l248 -787z" />
    <glyph glyph-name="uni1E9E" unicode="&#x1e9e;" horiz-adv-x="1421" 
d="M1044 801q137 -51 214 -148.5t77 -224.5q0 -201 -142 -324.5t-374 -123.5q-127 0 -221 32l27 230q63 -23 143 -23q121 0 194.5 63.5t73.5 166.5q0 106 -84.5 170.5t-222.5 64.5v219q104 0 166.5 54t62.5 145q0 89 -67.5 141.5t-181.5 52.5t-183 -53t-69 -141v-1102h-289
v1135q0 180 149 290.5t392 110.5q247 0 399 -109t152 -286q0 -111 -56.5 -198t-159.5 -142z" />
    <glyph glyph-name="Ygrave" unicode="&#x1ef2;" horiz-adv-x="1417" 
d="M883 1677h-238l-364 330h325zM1087 1516h308l-541 -957v-559h-289v559l-542 957h309l379 -701z" />
    <glyph glyph-name="ygrave" unicode="&#x1ef3;" horiz-adv-x="1300" 
d="M807 1266h-238l-364 329h325zM881 1104h278v-1000q0 -261 -165 -418t-437 -157q-269 0 -440 139l61 219q156 -118 373 -118q148 0 239 92t91 245v21q-60 -72 -146 -109.5t-188 -37.5q-188 0 -304 119t-116 313v692h279v-649q0 -106 66 -171t173 -65q106 0 171 65t65 171
v649z" />
    <glyph glyph-name="endash" unicode="&#x2013;" 
d="M129 494v198h1004v-198h-1004z" />
    <glyph glyph-name="emdash" unicode="&#x2014;" horiz-adv-x="1994" 
d="M129 494v198h1739v-198h-1739z" />
    <glyph glyph-name="quoteleft" unicode="&#x2018;" horiz-adv-x="571" 
d="M508 1516l-135 -527h-291l174 527h252z" />
    <glyph glyph-name="quoteright" unicode="&#x2019;" horiz-adv-x="565" 
d="M90 989l133 527h291l-174 -527h-250z" />
    <glyph glyph-name="quotesinglbase" unicode="&#x201a;" horiz-adv-x="559" 
d="M25 -262l135 526h289l-173 -526h-251z" />
    <glyph glyph-name="quotedblleft" unicode="&#x201c;" horiz-adv-x="1011" 
d="M510 1516l-135 -525h-291l174 525h252zM946 1516l-133 -525h-291l174 525h250z" />
    <glyph glyph-name="quotedblright" unicode="&#x201d;" horiz-adv-x="1003" 
d="M90 989l133 527h291l-174 -527h-250zM526 989l136 527h290l-174 -527h-252z" />
    <glyph glyph-name="quotedblbase" unicode="&#x201e;" horiz-adv-x="995" 
d="M25 -262l135 526h289l-173 -526h-251zM463 -262l133 526h291l-174 -526h-250z" />
    <glyph glyph-name="dagger" unicode="&#x2020;" horiz-adv-x="1163" 
d="M1085 1104v-238h-360v-1317h-287v1317h-360v238h360v493h287v-493h360z" />
    <glyph glyph-name="daggerdbl" unicode="&#x2021;" horiz-adv-x="1163" 
d="M1085 866h-360v-211h360v-239h-360v-867h-287v867h-360v239h360v211h-360v238h360v493h287v-493h360v-238z" />
    <glyph glyph-name="bullet" unicode="&#x2022;" horiz-adv-x="808" 
d="M406 383q-112 0 -180 67.5t-68 180.5t68 180.5t180 67.5t179.5 -67.5t67.5 -180.5t-67.5 -180.5t-179.5 -67.5z" />
    <glyph glyph-name="ellipsis" unicode="&#x2026;" horiz-adv-x="1607" 
d="M279 -20q-75 0 -129 53.5t-54 128.5t54 128.5t129 53.5t128.5 -53.5t53.5 -128.5t-53.5 -128.5t-128.5 -53.5zM805 -20q-75 0 -128.5 53.5t-53.5 128.5t53.5 128.5t128.5 53.5t127.5 -53.5t52.5 -128.5t-52.5 -128.5t-127.5 -53.5zM1331 -20q-75 0 -129.5 53.5
t-54.5 128.5t54.5 128.5t129.5 53.5q74 0 127 -53.5t53 -128.5t-53 -128.5t-127 -53.5z" />
    <glyph glyph-name="perthousand" unicode="&#x2030;" horiz-adv-x="2629" 
d="M453 838q-172 0 -278.5 96t-106.5 252q0 158 106.5 254t278.5 96t277.5 -96t105.5 -254q0 -157 -105.5 -252.5t-277.5 -95.5zM526 -20l-149 90l860 1466l147 -90zM455 1016q68 0 110.5 47t42.5 123q0 77 -42.5 123.5t-110.5 46.5q-72 0 -116 -46t-44 -124q0 -76 44 -123
t116 -47zM1317 -20q-173 0 -279 96t-106 254q0 157 106 252.5t279 95.5q172 0 276.5 -95.5t104.5 -252.5q0 -158 -104.5 -254t-276.5 -96zM2181 -20q-172 0 -277.5 96t-105.5 254q0 157 105.5 252.5t277.5 95.5t277.5 -95.5t105.5 -252.5q0 -158 -105.5 -254t-277.5 -96z
M1317 160q68 0 110.5 47t42.5 123t-42.5 123t-110.5 47q-72 0 -115 -46.5t-43 -123.5t43 -123.5t115 -46.5zM2181 160q69 0 112.5 47t43.5 123t-43.5 123t-112.5 47q-71 0 -114.5 -47t-43.5 -123t43.5 -123t114.5 -47z" />
    <glyph glyph-name="guilsinglleft" unicode="&#x2039;" horiz-adv-x="817" 
d="M735 1024l-356 -471l356 -471h-295l-368 471l368 471h295z" />
    <glyph glyph-name="guilsinglright" unicode="&#x203a;" horiz-adv-x="817" 
d="M377 1024l368 -471l-368 -471h-297l358 471l-358 471h297z" />
    <glyph glyph-name="fraction" unicode="&#x2044;" horiz-adv-x="456" 
d="M-127 -20l-149 90l860 1466l147 -90z" />
    <glyph glyph-name="uni2070" unicode="&#x2070;" horiz-adv-x="808" 
d="M408 799q-158 0 -254.5 128t-96.5 339t96.5 339t254.5 128q154 0 249 -128.5t95 -338.5t-95 -338.5t-249 -128.5zM408 946q73 0 118 88.5t45 231.5t-45 231t-118 88q-74 0 -120 -88.5t-46 -230.5t46 -231t120 -89z" />
    <glyph glyph-name="uni2074" unicode="&#x2074;" horiz-adv-x="806" 
d="M451 811v174h-420v123l458 612h142v-585h123v-150h-123v-174h-180zM231 1128h224l2 302z" />
    <glyph glyph-name="uni2075" unicode="&#x2075;" horiz-adv-x="743" 
d="M311 799q-179 0 -274 80l53 131q79 -64 205 -64q91 0 147 45t56 117q0 59 -40 96t-104 37q-79 0 -131 -45l-119 16l64 508h469v-147h-315l-29 -197q47 15 94 15q131 0 213 -75t82 -196q0 -144 -103 -232.5t-268 -88.5z" />
    <glyph glyph-name="uni2076" unicode="&#x2076;" horiz-adv-x="743" 
d="M416 1368q118 0 200 -77.5t82 -200.5q0 -131 -88 -211t-233 -80t-232.5 79t-87.5 209q0 76 24.5 140t76.5 137l254 356h202l-266 -356q40 4 68 4zM377 946q60 0 97.5 40t37.5 104t-37.5 102.5t-97.5 38.5t-96.5 -38.5t-36.5 -102.5q0 -65 36.5 -104.5t96.5 -39.5z" />
    <glyph glyph-name="uni2077" unicode="&#x2077;" horiz-adv-x="669" 
d="M33 1720h618l-305 -909h-190l262 762h-385v147z" />
    <glyph glyph-name="uni2078" unicode="&#x2078;" horiz-adv-x="778" 
d="M565 1284q68 -31 107 -87.5t39 -129.5q0 -121 -88.5 -194.5t-233.5 -73.5q-144 0 -231.5 72.5t-87.5 191.5q0 74 37.5 131t105.5 90q-119 64 -119 199q0 113 81 181.5t214 68.5t215 -68.5t82 -179.5q0 -65 -32 -117.5t-89 -83.5zM389 1585q-49 0 -78.5 -32t-29.5 -85
q0 -51 29.5 -81.5t78.5 -30.5q51 0 81 30.5t30 81.5q0 53 -30 85t-81 32zM389 946q60 0 97.5 36.5t37.5 94.5t-37.5 94.5t-97.5 36.5t-96.5 -36t-36.5 -95t36.5 -95t96.5 -36z" />
    <glyph glyph-name="uni2079" unicode="&#x2079;" horiz-adv-x="743" 
d="M367 1733q145 0 232 -79t87 -210q0 -77 -24 -141t-76 -136l-254 -356h-203l266 356q-40 -4 -67 -4q-118 0 -200.5 78t-82.5 201q0 131 88.5 211t233.5 80zM231 1442q0 -64 38 -103t98 -39t96.5 39t36.5 103q0 65 -36.5 104t-96.5 39t-98 -39.5t-38 -103.5z" />
    <glyph glyph-name="uni2080" unicode="&#x2080;" horiz-adv-x="808" 
d="M408 -217q-158 0 -254.5 128t-96.5 339t96.5 339t254.5 128q154 0 249 -128.5t95 -338.5t-95 -338.5t-249 -128.5zM408 -70q73 0 118 88.5t45 231.5t-45 231t-118 88q-74 0 -120 -88.5t-46 -230.5t46 -231t120 -89z" />
    <glyph glyph-name="uni2081" unicode="&#x2081;" horiz-adv-x="567" 
d="M272 -205v680l-172 -123l-90 127l305 226h138v-910h-181z" />
    <glyph glyph-name="uni2082" unicode="&#x2082;" horiz-adv-x="749" 
d="M61 -205v115l281 303q2 2 22 24t27.5 31.5t26.5 32.5t28 39t21 38t17 42t5 39q0 51 -30.5 80.5t-81.5 29.5q-56 0 -89.5 -37t-33.5 -96l-182 15q0 120 83 193t218 73q133 0 215 -68t82 -178q0 -87 -51.5 -167.5t-157.5 -188.5l-166 -174l387 2v-148h-621z" />
    <glyph glyph-name="uni2083" unicode="&#x2083;" horiz-adv-x="733" 
d="M395 350q124 -3 200.5 -78.5t76.5 -195.5q0 -133 -95 -213t-255 -80q-84 0 -159.5 23.5t-119.5 64.5l70 133q71 -74 188 -74q85 0 134.5 40.5t49.5 105.5q0 62 -47 99.5t-123 37.5q-66 0 -120 -31l-50 92l248 283h-307v148h539v-111z" />
    <glyph glyph-name="uni2084" unicode="&#x2084;" horiz-adv-x="806" 
d="M451 -205v174h-420v123l458 613h142v-586h123v-150h-123v-174h-180zM231 113h224l2 301z" />
    <glyph glyph-name="uni2085" unicode="&#x2085;" horiz-adv-x="743" 
d="M311 -217q-179 0 -274 80l53 131q79 -64 205 -64q91 0 147 45t56 117q0 59 -40 96t-104 37q-79 0 -131 -45l-119 17l64 508h469v-148h-315l-29 -197q47 15 94 15q131 0 213 -75t82 -196q0 -144 -103 -232.5t-268 -88.5z" />
    <glyph glyph-name="uni2086" unicode="&#x2086;" horiz-adv-x="743" 
d="M416 352q118 0 200 -77.5t82 -200.5q0 -131 -88 -211t-233 -80t-232.5 79t-87.5 210q0 76 24.5 139.5t76.5 136.5l254 357h202l-266 -357q40 4 68 4zM377 -70q60 0 97.5 40t37.5 104t-37.5 102.5t-97.5 38.5t-96.5 -38.5t-36.5 -102.5q0 -65 36.5 -104.5t96.5 -39.5z" />
    <glyph glyph-name="uni2087" unicode="&#x2087;" horiz-adv-x="669" 
d="M33 705h618l-305 -910h-190l262 762h-385v148z" />
    <glyph glyph-name="uni2088" unicode="&#x2088;" horiz-adv-x="778" 
d="M565 268q68 -31 107 -87.5t39 -129.5q0 -121 -88.5 -194.5t-233.5 -73.5q-144 0 -231.5 72.5t-87.5 191.5q0 74 37.5 131t105.5 90q-119 64 -119 199q0 113 81 181.5t214 68.5t215 -68.5t82 -179.5q0 -65 -32 -117.5t-89 -83.5zM389 569q-49 0 -78.5 -31.5t-29.5 -84.5
q0 -51 29.5 -82t78.5 -31q51 0 81 31t30 82q0 53 -30 84.5t-81 31.5zM389 -70q60 0 97.5 36.5t37.5 94.5q0 59 -37.5 95.5t-97.5 36.5t-96.5 -36.5t-36.5 -95.5t36.5 -95t96.5 -36z" />
    <glyph glyph-name="uni2089" unicode="&#x2089;" horiz-adv-x="743" 
d="M367 717q145 0 232 -79t87 -210q0 -77 -24 -140.5t-76 -135.5l-254 -357h-203l266 357q-50 -5 -67 -5q-118 0 -200.5 78t-82.5 201q0 131 88.5 211t233.5 80zM231 426q0 -64 37.5 -102.5t98.5 -38.5q60 0 96.5 38.5t36.5 102.5q0 65 -36.5 104t-96.5 39t-98 -39.5
t-38 -103.5z" />
    <glyph glyph-name="Euro" unicode="&#x20ac;" horiz-adv-x="1730" 
d="M1458 459l195 -174q-109 -149 -272.5 -227t-370.5 -78q-290 0 -494.5 142.5t-275.5 389.5h-154v180h121q-2 23 -2 70v26h-119v181h141q62 262 270 414.5t511 152.5q372 0 598 -244l-183 -184q-67 86 -173.5 137t-237.5 51q-173 0 -297.5 -86.5t-177.5 -240.5h467v-181
h-500v-28q0 -22 4 -68h496v-180h-453q59 -138 180.5 -215.5t284.5 -77.5q285 0 442 240z" />
    <glyph glyph-name="uni20B9" unicode="&#x20b9;" horiz-adv-x="1296" 
d="M1204 1516v-181h-317q116 -93 143 -245h164v-181h-162q-19 -118 -79.5 -209t-157.5 -147l362 -553h-338l-299 477q-14 -2 -43 -2h-348v240h326q104 0 176.5 51.5t97.5 142.5h-600v181h602q-25 87 -92.5 136.5t-163.5 49.5h-346v240h1075z" />
    <glyph glyph-name="uni20BD" unicode="&#x20bd;" horiz-adv-x="1404" 
d="M793 598h-273v-98h451v-181h-451v-319h-289v319h-116v181h116v98h-116v178h116v740h574q239 0 384.5 -124t145.5 -325q0 -212 -148.5 -340.5t-393.5 -128.5zM520 1276v-440h252q123 0 193.5 60t70.5 161q0 99 -72 159t-192 60h-252z" />
    <glyph glyph-name="trademark" unicode="&#x2122;" horiz-adv-x="1505" 
d="M584 1597v-124h-178v-461h-150v461h-178v124h506zM1374 1012h-149l-23 362l-164 -362h-63l-166 366l-21 -366h-149l43 585h160l166 -374l163 374h158z" />
    <glyph glyph-name="oneeighth" unicode="&#x215b;" horiz-adv-x="1802" 
d="M1151 1536l147 -90l-858 -1466l-149 90zM453 606h-181v680l-172 -123l-90 127l305 226h138v-910zM1589 473q68 -31 107 -87.5t39 -129.5q0 -121 -88.5 -194.5t-233.5 -73.5q-144 0 -231.5 72.5t-87.5 191.5q0 74 37.5 131t105.5 90q-119 64 -119 199q0 113 81 181.5
t214 68.5t215 -68.5t82 -179.5q0 -65 -32 -117.5t-89 -83.5zM1413 774q-49 0 -78.5 -32t-29.5 -85q0 -51 29.5 -81.5t78.5 -30.5q51 0 81 30.5t30 81.5q0 53 -30 85t-81 32zM1413 135q60 0 97.5 36.5t37.5 94.5t-37.5 94.5t-97.5 36.5t-96.5 -36t-36.5 -95t36.5 -95
t96.5 -36z" />
    <glyph glyph-name="threeeighths" unicode="&#x215c;" horiz-adv-x="1968" 
d="M1317 1536l147 -90l-858 -1466l-149 90zM672 887q0 -133 -95 -213t-255 -80q-84 0 -159.5 23.5t-119.5 64.5l70 133q71 -74 188 -74q85 0 134.5 40.5t49.5 105.5q0 62 -47 99.5t-123 37.5q-66 0 -120 -31l-50 92l248 283h-307v148h539v-111l-230 -244q124 -3 200.5 -78.5
t76.5 -195.5zM1755 473q68 -31 107 -87.5t39 -129.5q0 -121 -88.5 -194.5t-233.5 -73.5q-144 0 -231.5 72.5t-87.5 191.5q0 74 37.5 131t105.5 90q-119 64 -119 199q0 113 81 181.5t214 68.5t215 -68.5t82 -179.5q0 -65 -32 -117.5t-89 -83.5zM1579 774q-49 0 -79 -32
t-30 -85q0 -51 29.5 -81.5t79.5 -30.5q51 0 81 30.5t30 81.5q0 53 -30 85t-81 32zM1579 135q60 0 97.5 36.5t37.5 94.5t-37.5 94.5t-97.5 36.5t-96.5 -36t-36.5 -95t36.5 -95t96.5 -36z" />
    <glyph glyph-name="fiveeighths" unicode="&#x215d;" horiz-adv-x="1978" 
d="M1327 1536l148 -90l-859 -1466l-149 90zM682 915q0 -144 -103 -232.5t-268 -88.5q-179 0 -274 80l53 131q79 -64 205 -64q91 0 147 45t56 117q0 59 -40 96t-104 37q-79 0 -131 -45l-119 17l64 508h469v-148h-315l-29 -197q47 15 94 15q131 0 213 -75t82 -196zM1765 473
q68 -31 107 -87.5t39 -129.5q0 -121 -88.5 -194.5t-233.5 -73.5q-144 0 -231.5 72.5t-87.5 191.5q0 74 37.5 131t105.5 90q-119 64 -119 199q0 113 81 181.5t214 68.5t215 -68.5t82 -179.5q0 -65 -32 -117.5t-89 -83.5zM1589 774q-49 0 -78.5 -32t-29.5 -85
q0 -51 29.5 -81.5t78.5 -30.5q51 0 81 30.5t30 81.5q0 53 -30 85t-81 32zM1589 135q60 0 97.5 36.5t37.5 94.5t-37.5 94.5t-97.5 36.5t-96.5 -36t-36.5 -95t36.5 -95t96.5 -36z" />
    <glyph glyph-name="seveneighths" unicode="&#x215e;" horiz-adv-x="1845" 
d="M1194 1536l147 -90l-858 -1466l-149 90zM346 606h-190l262 762h-385v148h618zM1632 473q68 -31 107 -87.5t39 -129.5q0 -121 -88.5 -194.5t-233.5 -73.5q-144 0 -231.5 72.5t-87.5 191.5q0 74 37.5 131t105.5 90q-119 64 -119 199q0 113 81 181.5t214 68.5t215 -68.5
t82 -179.5q0 -65 -32 -117.5t-89 -83.5zM1456 774q-49 0 -78.5 -32t-29.5 -85q0 -51 29.5 -81.5t78.5 -30.5q51 0 81 30.5t30 81.5q0 53 -30 85t-81 32zM1456 135q60 0 97.5 36.5t37.5 94.5t-37.5 94.5t-97.5 36.5t-96.5 -36t-36.5 -95t36.5 -95t96.5 -36z" />
    <glyph glyph-name="partialdiff" unicode="&#x2202;" horiz-adv-x="1398" 
d="M655 1536q296 0 477 -212.5t181 -561.5q0 -351 -199.5 -566.5t-523.5 -215.5q-240 0 -385.5 119t-145.5 315q0 148 115.5 264t328.5 184t494 78q-34 166 -125.5 261t-220.5 95q-110 0 -200 -50.5t-148 -137.5l-182 184q203 244 534 244zM584 219q181 0 297.5 131.5
t130.5 351.5q-299 -6 -481.5 -86.5t-182.5 -207.5q0 -86 65 -137.5t171 -51.5z" />
    <glyph glyph-name="emptyset" unicode="&#x2205;" horiz-adv-x="1396" 
d="M1145 1116q143 -152 143 -393q0 -258 -163 -415.5t-427 -157.5q-198 0 -340 88l-79 -88l-111 86l82 92q-144 153 -144 395q0 256 163 413.5t429 157.5q196 0 338 -88l82 90l111 -88zM395 723q0 -110 43 -186l424 475q-70 45 -164 45q-137 0 -220 -91.5t-83 -242.5z
M698 389q135 0 218 91.5t83 242.5q0 108 -41 182l-423 -471q70 -45 163 -45z" />
    <glyph glyph-name="product" unicode="&#x220f;" horiz-adv-x="1505" 
d="M1329 1597v-2048h-289v1809h-575v-1809h-289v2048h1153z" />
    <glyph glyph-name="summation" unicode="&#x2211;" horiz-adv-x="1363" 
d="M70 -451v183l602 848l-582 835v182h1172v-239h-824l574 -778l-596 -791h866v-240h-1212z" />
    <glyph glyph-name="minus" unicode="&#x2212;" horiz-adv-x="1241" 
d="M135 602v229h971v-229h-971z" />
    <glyph glyph-name="radical" unicode="&#x221a;" horiz-adv-x="1613" 
d="M471 -451l-467 1104h305l301 -786l693 1730h305l-858 -2048h-279z" />
    <glyph glyph-name="infinity" unicode="&#x221e;" horiz-adv-x="1505" 
d="M1042 922q164 0 263.5 -96.5t99.5 -254.5t-99.5 -254t-263.5 -96q-95 0 -170 39t-118 109q-45 -70 -119.5 -109t-169.5 -39q-165 0 -266 96t-101 254t101 254.5t266 96.5q95 0 169.5 -39t119.5 -109q43 70 118 109t170 39zM483 401q69 0 111.5 47t42.5 123
q0 78 -42.5 124t-111.5 46q-71 0 -114 -46t-43 -124q0 -76 43 -123t114 -47zM1024 401q68 0 111 47t43 123q0 77 -43 123.5t-111 46.5q-72 0 -115 -46t-43 -124q0 -77 43 -123.5t115 -46.5z" />
    <glyph glyph-name="integral" unicode="&#x222b;" horiz-adv-x="937" 
d="M680 1618q166 0 258 -98l-76 -195q-53 53 -127 53q-57 0 -90 -32t-33 -86v-1424q0 -138 -98.5 -222.5t-255.5 -84.5q-162 0 -260 98l78 195q53 -53 127 -53q57 0 89 32t32 86v1424q0 137 99 222t257 85z" />
    <glyph glyph-name="approxequal" unicode="&#x2248;" horiz-adv-x="1224" 
d="M821 653q-69 0 -148 29.5t-148 58.5t-113 29q-56 0 -90.5 -26t-34.5 -70h-152q0 133 75.5 214t197.5 81q72 0 150.5 -28.5t146 -56.5t112.5 -28q58 0 91.5 23.5t33.5 68.5h154q0 -137 -75.5 -216t-199.5 -79zM821 244q-69 0 -148 29t-148 58t-113 29q-56 0 -90.5 -26
t-34.5 -70h-152q0 133 75.5 214t197.5 81q72 0 150.5 -28.5t146 -56.5t112.5 -28q58 0 91.5 24t33.5 69h154q0 -137 -75.5 -216t-199.5 -79z" />
    <glyph glyph-name="notequal" unicode="&#x2260;" horiz-adv-x="1236" 
d="M1104 829h-313l-60 -223h373v-229h-434l-66 -242h-280l65 242h-254v229h316l59 223h-375v230h436l66 241h281l-66 -241h252v-230z" />
    <glyph glyph-name="lessequal" unicode="&#x2264;" horiz-adv-x="1236" 
d="M1092 651v-262l-963 399v179l963 397v-260l-576 -227zM127 297h967v-229h-967v229z" />
    <glyph glyph-name="greaterequal" unicode="&#x2265;" horiz-adv-x="1234" 
d="M145 1364l963 -397v-179l-963 -399v262l576 226l-576 227v260zM143 68v229h965v-229h-965z" />
    <glyph glyph-name="lozenge" unicode="&#x25ca;" horiz-adv-x="1265" 
d="M762 1309l428 -654l-428 -655h-258l-428 655l428 654h258zM633 246l268 409l-268 410l-266 -410z" />
    <glyph glyph-name="i.loclTRK" horiz-adv-x="563" 
d="M283 1284q-72 0 -119 46t-47 118t47 119t119 47t119 -47t47 -119t-47 -118t-119 -46zM143 0v1104h279v-1104h-279z" />
    <glyph glyph-name="zero.lf" horiz-adv-x="1458" 
d="M662 -20q-171 0 -302.5 96.5t-203.5 273.5t-72 408t72 408t203.5 273.5t302.5 96.5q259 0 417 -214t158 -564t-158 -564t-417 -214zM662 219q126 0 202 148t76 391t-76 390.5t-202 147.5t-202.5 -147.5t-76.5 -390.5t76.5 -391t202.5 -148z" />
    <glyph glyph-name="one.lf" horiz-adv-x="917" 
d="M451 0v1145l-295 -209l-144 205l508 375h219v-1516h-288z" />
    <glyph glyph-name="two.lf" horiz-adv-x="1214" 
d="M86 0v182l469 508q1 1 29 31.5t36 39.5t35 40.5t38 48t33 47t32.5 53t23.5 51t18 55t5 52.5q0 85 -54.5 136.5t-142.5 51.5q-96 0 -154.5 -62.5t-58.5 -164.5l-293 27q0 198 137 319t361 121q225 0 360.5 -111t135.5 -295q0 -78 -24.5 -152.5t-77 -152t-107 -141
t-142.5 -156.5l-282 -295l651 7v-240h-1028z" />
    <glyph glyph-name="three.lf" horiz-adv-x="1191" 
d="M635 920q212 -4 340.5 -129.5t128.5 -325.5q0 -220 -156.5 -352.5t-421.5 -132.5q-141 0 -265.5 40t-197.5 111l109 211q56 -59 140 -91t182 -32q143 0 227 67t84 177q0 108 -79 172.5t-210 64.5q-116 0 -207 -49l-78 146l418 479h-516v240h893v-181z" />
    <glyph glyph-name="four.lf" horiz-adv-x="1314" 
d="M745 0v293h-702v199l766 1024h225v-984h209v-239h-209v-293h-289zM383 524h371l4 500z" />
    <glyph glyph-name="five.lf" horiz-adv-x="1212" 
d="M510 -20q-298 0 -457 135l86 209q128 -105 344 -105q154 0 248 74.5t94 195.5q0 104 -66.5 168t-176.5 64q-66 0 -126 -20.5t-98 -53.5l-192 27l104 842h779v-240h-531l-51 -338q82 23 166 23q216 0 353.5 -125t137.5 -326q0 -238 -170.5 -384t-443.5 -146z" />
    <glyph glyph-name="six.lf" horiz-adv-x="1206" 
d="M672 928q129 0 236 -56.5t171 -163.5t64 -243q0 -218 -146.5 -351.5t-384.5 -133.5t-384 132t-146 349q0 124 40.5 228t123.5 220l428 607h325l-442 -596q44 8 115 8zM610 219q104 0 168 67t64 177q0 109 -64 177.5t-168 68.5q-103 0 -167 -68.5t-64 -177.5
q0 -110 64 -177t167 -67z" />
    <glyph glyph-name="seven.lf" horiz-adv-x="1105" 
d="M47 1516h1026l-512 -1516h-305l442 1276h-651v240z" />
    <glyph glyph-name="eight.lf" 
d="M913 788q117 -53 181.5 -147t64.5 -217q0 -200 -145 -322t-383 -122q-239 0 -385 120.5t-146 317.5q0 124 64.5 219.5t181.5 150.5q-98 50 -151.5 135.5t-53.5 194.5q0 189 134.5 303.5t355.5 114.5q220 0 353.5 -114t133.5 -300q0 -109 -53.5 -196t-151.5 -138z
M629 1296q-86 0 -138.5 -54t-52.5 -142q0 -89 52.5 -143t138.5 -54t138 54t52 143q0 88 -52 142t-138 54zM629 219q104 0 167.5 60.5t63.5 160.5q0 101 -63.5 163.5t-167.5 62.5t-168 -62.5t-64 -163.5q0 -100 64 -160.5t168 -60.5z" />
    <glyph glyph-name="nine.lf" horiz-adv-x="1206" 
d="M592 1536q238 0 384 -132t146 -349q0 -124 -40.5 -228.5t-123.5 -220.5l-428 -606h-325l442 596q-44 -8 -115 -8q-129 0 -236 56.5t-171 163.5t-64 243q0 218 146.5 351.5t384.5 133.5zM362 1053q0 -109 64 -177.5t168 -68.5q103 0 167 68.5t64 177.5q0 110 -64 176.5
t-167 66.5q-104 0 -168 -66.5t-64 -176.5z" />
    <glyph glyph-name="zero.osf" horiz-adv-x="1417" 
d="M711 -20q-283 0 -455 185.5t-172 489.5q0 303 172.5 488.5t454.5 185.5q278 0 450 -186t172 -488q0 -304 -171.5 -489.5t-450.5 -185.5zM711 219q145 0 234 120t89 316t-89 316.5t-234 120.5q-148 0 -238 -120t-90 -317q0 -196 90 -316t238 -120z" />
    <glyph glyph-name="one.osf" horiz-adv-x="839" 
d="M387 0v940l-219 -154l-143 205l428 318h213v-1309h-279z" />
    <glyph glyph-name="two.osf" horiz-adv-x="1232" 
d="M96 0v182l541 445q188 141 188 274q0 86 -56.5 138.5t-150.5 52.5q-100 0 -160.5 -63.5t-60.5 -166.5l-284 27q0 199 137 319.5t362 120.5q224 0 360 -111t136 -294q0 -58 -11.5 -110t-36.5 -97.5t-50.5 -80.5t-69.5 -76t-76 -66.5t-86 -67.5l-258 -197h606v-229h-1030z
" />
    <glyph glyph-name="three.osf" horiz-adv-x="1198" 
d="M641 713q209 -3 336 -128t127 -325q0 -220 -154 -352.5t-415 -132.5q-144 0 -267.5 40t-193.5 111l110 211q54 -59 138 -91t182 -32q143 0 227 67t84 177q0 108 -80 172t-213 64q-118 0 -205 -50l-75 146l428 491h-527v228h893v-179z" />
    <glyph glyph-name="four.osf" horiz-adv-x="1320" 
d="M766 -225v225h-713v180l776 1129h215v-1080h209v-229h-209v-225h-278zM397 221h375l4 547z" />
    <glyph glyph-name="five.osf" horiz-adv-x="1206" 
d="M506 -225q-295 0 -455 133l86 211q128 -105 344 -105q153 0 246.5 74.5t93.5 196.5q0 103 -66.5 167t-174.5 64q-66 0 -126.5 -21t-97.5 -55l-194 29l104 840h778v-228h-530l-59 -350q74 23 176 23q212 0 346.5 -124.5t134.5 -326.5q0 -237 -169 -382.5t-437 -145.5z" />
    <glyph glyph-name="six.osf" horiz-adv-x="1191" 
d="M664 928q206 0 332 -127t126 -336q0 -218 -142.5 -351.5t-375.5 -133.5q-235 0 -378.5 132t-143.5 349q0 110 33.5 206t115.5 218l449 631h315l-444 -598q62 10 113 10zM602 219q104 0 168 67t64 177q0 109 -64 177.5t-168 68.5t-167.5 -68.5t-63.5 -177.5
q0 -110 63.5 -177t167.5 -67z" />
    <glyph glyph-name="seven.osf" horiz-adv-x="1146" 
d="M66 1309h1026l-517 -1534l-268 71l412 1235h-653v228z" />
    <glyph glyph-name="eight.osf" horiz-adv-x="1239" 
d="M899 788q114 -53 177 -147t63 -217q0 -200 -142.5 -322t-375.5 -122q-235 0 -378 120.5t-143 317.5q0 125 63.5 221t178.5 149q-96 50 -148.5 135.5t-52.5 194.5q0 189 131.5 303.5t348.5 114.5q215 0 346 -114t131 -300q0 -109 -52 -196t-147 -138zM618 1296
q-86 0 -138 -54t-52 -142q0 -89 52 -143t138 -54t138.5 54t52.5 143q0 88 -52.5 142t-138.5 54zM618 219q104 0 168 60.5t64 160.5q0 101 -64 163.5t-168 62.5t-167.5 -62.5t-63.5 -163.5q0 -100 63.5 -160.5t167.5 -60.5z" />
    <glyph glyph-name="nine.osf" horiz-adv-x="1181" 
d="M584 1329q234 0 377 -132t143 -347q0 -112 -33 -209t-115 -215l-464 -651l-261 71l404 547q-58 -10 -111 -10q-207 0 -334 127t-127 336q0 218 143.5 350.5t377.5 132.5zM352 848q0 -110 64 -178t168 -68q103 0 167 68t64 178q0 109 -64 176.5t-167 67.5
q-104 0 -168 -67.5t-64 -176.5z" />
    <glyph glyph-name="zero.tf" 
d="M631 -20q-157 0 -277.5 96.5t-187 273.5t-66.5 408t66.5 408t187 273.5t277.5 96.5q156 0 276 -96.5t186 -273.5t66 -408t-66 -408t-186 -273.5t-276 -96.5zM631 219q103 0 166 148t63 391t-63 390.5t-166 147.5t-167.5 -148t-64.5 -390t64.5 -390.5t167.5 -148.5z" />
    <glyph glyph-name="one.tf" 
d="M874 240h281v-240h-993v240h424v905l-297 -209l-144 205l508 375h221v-1276z" />
    <glyph glyph-name="two.tf" 
d="M109 0v182l469 508q3 3 26 28.5t31 34.5t31.5 36t34 41.5t31.5 42t31 46t24.5 45.5t21.5 49t12.5 47t5.5 48q0 85 -54 136.5t-142 51.5q-96 0 -154.5 -62.5t-58.5 -164.5l-293 27q0 198 137 319t363 121q223 0 359 -111t136 -295q0 -78 -24.5 -152t-77.5 -152
t-107 -141.5t-143 -156.5l-283 -295l654 7v-240h-1030z" />
    <glyph glyph-name="three.tf" 
d="M668 920q212 -4 340.5 -129.5t128.5 -325.5q0 -220 -156.5 -352.5t-421.5 -132.5q-144 0 -268.5 40t-194.5 111l111 211q54 -59 137.5 -91t181.5 -32q145 0 229.5 67t84.5 177q0 108 -81 172.5t-214 64.5q-115 0 -203 -49l-78 146l418 479h-516v240h893v-181z" />
    <glyph glyph-name="four.tf" 
d="M696 0v293h-661v199l725 1024h225v-984h211v-239h-211v-293h-289zM365 524h342l4 498z" />
    <glyph glyph-name="five.tf" 
d="M532 -20q-293 0 -456 135l86 209q128 -105 344 -105q155 0 248.5 74t93.5 196q0 104 -67 168t-177 64q-66 0 -125.5 -20.5t-97.5 -53.5l-193 27l105 842h778v-240h-530l-49 -338q82 23 165 23q216 0 353 -125t137 -326q0 -238 -171 -384t-444 -146z" />
    <glyph glyph-name="six.tf" 
d="M698 928q199 0 335 -129t136 -334q0 -218 -146 -351.5t-384 -133.5t-384 132t-146 349q0 124 40 228t123 220l430 607h324l-442 -594q50 6 114 6zM639 219q103 0 167 67t64 177q0 109 -64 177.5t-167 68.5q-104 0 -167.5 -68.5t-63.5 -177.5q0 -110 63.5 -177t167.5 -67z
" />
    <glyph glyph-name="seven.tf" 
d="M123 1516h1026l-510 -1516h-305l442 1276h-653v240z" />
    <glyph glyph-name="eight.tf" 
d="M913 788q117 -53 181.5 -147t64.5 -217q0 -200 -145 -322t-383 -122q-239 0 -386 120.5t-147 317.5q0 124 64.5 219.5t181.5 150.5q-98 50 -151.5 135.5t-53.5 194.5q0 189 135 303.5t357 114.5q220 0 353.5 -114t133.5 -300q0 -109 -53.5 -196t-151.5 -138zM629 1296
q-86 0 -138.5 -54t-52.5 -142q0 -89 52.5 -143t138.5 -54t138 54t52 143q0 88 -52 142t-138 54zM629 219q104 0 167.5 60.5t63.5 160.5q0 101 -63.5 163.5t-167.5 62.5t-168 -62.5t-64 -163.5q0 -100 64 -160.5t168 -60.5z" />
    <glyph glyph-name="nine.tf" 
d="M618 1536q238 0 384.5 -132.5t146.5 -348.5q0 -124 -40.5 -228.5t-123.5 -220.5l-428 -606h-326l443 596q-44 -8 -115 -8q-129 0 -236 56.5t-171 163.5t-64 243q0 218 146 351.5t384 133.5zM389 1053q0 -109 64 -177.5t168 -68.5q103 0 167 68.5t64 177.5
q0 110 -64 176.5t-167 66.5q-104 0 -168 -66.5t-64 -176.5z" />
    <glyph glyph-name="zero.tosf" 
d="M631 -20q-238 0 -384.5 185.5t-146.5 489.5q0 302 146.5 488t384.5 186q236 0 382 -186t146 -488q0 -304 -145.5 -489.5t-382.5 -185.5zM631 219q103 0 166 120t63 316t-63 316.5t-166 120.5t-167.5 -120.5t-64.5 -316.5t64.5 -316t167.5 -120z" />
    <glyph glyph-name="one.tosf" 
d="M819 229h330v-229h-991v229h383v711l-219 -154l-144 205l430 318h211v-1080z" />
    <glyph glyph-name="two.tosf" 
d="M111 0v182l540 445q189 146 189 274q0 86 -57 138.5t-150 52.5q-101 0 -162 -63.5t-61 -166.5l-285 27q0 199 137.5 319.5t362.5 120.5q224 0 359.5 -111t135.5 -294q0 -50 -10 -96.5t-24.5 -83.5t-42 -75.5t-50 -65.5t-62.5 -62.5t-66.5 -57t-73.5 -57.5l-254 -197h602
v-229h-1028z" />
    <glyph glyph-name="three.tosf" 
d="M672 713q208 -3 334.5 -128t126.5 -325q0 -220 -153.5 -352.5t-414.5 -132.5q-144 0 -268 40t-195 111l111 211q54 -59 138 -91t184 -32q143 0 227 67t84 177q0 108 -81 172t-214 64q-119 0 -203 -50l-76 146l428 491h-528v228h893v-179z" />
    <glyph glyph-name="four.tosf" 
d="M715 -225v225h-674v180l737 1129h215v-1080h211v-229h-211v-225h-278zM358 221h365l2 553z" />
    <glyph glyph-name="five.tosf" 
d="M532 -225q-294 0 -454 133l86 211q128 -105 342 -105q155 0 248.5 74.5t93.5 196.5q0 103 -67 167t-175 64q-66 0 -125.5 -21t-97.5 -55l-195 29l105 840h778v-228h-530l-60 -350q74 23 176 23q212 0 347 -124.5t135 -326.5q0 -236 -169 -382t-438 -146z" />
    <glyph glyph-name="six.tosf" 
d="M696 928q207 0 334 -127t127 -336q0 -218 -142.5 -351.5t-377.5 -133.5q-234 0 -377 132t-143 349q0 110 33 206t114 218l451 631h313l-442 -596q47 8 110 8zM637 219q104 0 167.5 67t63.5 177q0 109 -63.5 177.5t-167.5 68.5t-167.5 -68.5t-63.5 -177.5
q0 -110 63.5 -177t167.5 -67z" />
    <glyph glyph-name="seven.tosf" 
d="M123 1309h1026l-518 -1534l-269 71l412 1235h-651v228z" />
    <glyph glyph-name="eight.tosf" 
d="M909 788q114 -53 177 -147t63 -217q0 -200 -142.5 -322t-375.5 -122q-235 0 -378.5 120.5t-143.5 317.5q0 125 63 220t178 150q-95 50 -147.5 135.5t-52.5 194.5q0 189 132 303.5t349 114.5q215 0 346 -114t131 -300q0 -109 -52 -196t-147 -138zM629 1296
q-86 0 -138.5 -54t-52.5 -142q0 -89 52.5 -143t138.5 -54t138 54t52 143q0 88 -52 142t-138 54zM629 219q104 0 167.5 60.5t63.5 160.5q0 101 -63.5 163.5t-167.5 62.5t-168 -62.5t-64 -163.5q0 -100 64 -160.5t168 -60.5z" />
    <glyph glyph-name="nine.tosf" 
d="M625 1329q233 0 375.5 -132t142.5 -347q0 -112 -33 -209t-115 -215l-465 -651l-260 71l406 545q-47 -8 -111 -8q-209 0 -336 127t-127 336q0 218 144 350.5t379 132.5zM391 848q0 -110 64 -178t168 -68t167.5 68t63.5 178q0 109 -63.5 176.5t-167.5 67.5t-168 -67.5
t-64 -176.5z" />
    <glyph glyph-name="zero.dnom" horiz-adv-x="808" 
d="M408 -12q-158 0 -254.5 128t-96.5 339t96.5 339t254.5 128q154 0 249 -128.5t95 -338.5t-95 -338.5t-249 -128.5zM408 135q73 0 118 88.5t45 231.5t-45 231t-118 88q-74 0 -120 -88.5t-46 -230.5t46 -231t120 -89z" />
    <glyph glyph-name="one.dnom" horiz-adv-x="567" 
d="M272 0v680l-172 -123l-90 127l305 225h138v-909h-181z" />
    <glyph glyph-name="two.dnom" horiz-adv-x="749" 
d="M61 0v115l281 303q2 2 22 24t27.5 31.5t26.5 32.5t28 39t21 38t17 42t5 39q0 51 -30.5 80.5t-81.5 29.5q-56 0 -89.5 -37t-33.5 -96l-182 14q0 120 83 193.5t218 73.5q133 0 215 -68t82 -178q0 -87 -51.5 -168t-157.5 -189l-166 -174l387 2v-147h-621z" />
    <glyph glyph-name="three.dnom" horiz-adv-x="733" 
d="M395 555q124 -3 200.5 -78.5t76.5 -195.5q0 -133 -95 -213t-255 -80q-84 0 -159.5 23.5t-119.5 64.5l70 133q71 -74 188 -74q85 0 134.5 40.5t49.5 105.5q0 62 -47 99.5t-123 37.5q-66 0 -120 -31l-50 92l248 283h-307v147h539v-110z" />
    <glyph glyph-name="four.dnom" horiz-adv-x="806" 
d="M451 0v174h-420v123l458 612h142v-585h123v-150h-123v-174h-180zM231 317h224l2 301z" />
    <glyph glyph-name="five.dnom" horiz-adv-x="743" 
d="M311 -12q-179 0 -274 80l53 131q79 -64 205 -64q91 0 147 45t56 117q0 59 -40 96t-104 37q-79 0 -131 -45l-119 16l64 508h469v-147h-315l-29 -197q47 15 94 15q131 0 213 -75t82 -196q0 -144 -103 -232.5t-268 -88.5z" />
    <glyph glyph-name="six.dnom" horiz-adv-x="743" 
d="M416 557q118 0 200 -77.5t82 -200.5q0 -131 -88 -211t-233 -80t-232.5 79t-87.5 209q0 76 24.5 140t76.5 137l254 356h202l-266 -356q40 4 68 4zM377 135q60 0 97.5 40t37.5 104t-37.5 102.5t-97.5 38.5t-96.5 -38.5t-36.5 -102.5q0 -65 36.5 -104.5t96.5 -39.5z" />
    <glyph glyph-name="seven.dnom" horiz-adv-x="669" 
d="M33 909h618l-305 -909h-190l262 762h-385v147z" />
    <glyph glyph-name="eight.dnom" horiz-adv-x="778" 
d="M565 473q68 -31 107 -87.5t39 -129.5q0 -121 -88.5 -194.5t-233.5 -73.5q-144 0 -231.5 72.5t-87.5 191.5q0 74 37.5 131t105.5 90q-119 64 -119 199q0 113 81 181.5t214 68.5t215 -68.5t82 -179.5q0 -65 -32 -117.5t-89 -83.5zM389 774q-49 0 -78.5 -32t-29.5 -85
q0 -51 29.5 -81.5t78.5 -30.5q51 0 81 30.5t30 81.5q0 53 -30 85t-81 32zM389 135q60 0 97.5 36.5t37.5 94.5t-37.5 94.5t-97.5 36.5t-96.5 -36t-36.5 -95t36.5 -95t96.5 -36z" />
    <glyph glyph-name="nine.dnom" horiz-adv-x="743" 
d="M367 922q145 0 232 -79t87 -210q0 -77 -24 -141t-76 -136l-254 -356h-203l266 356q-40 -4 -67 -4q-118 0 -200.5 78t-82.5 201q0 131 88.5 211t233.5 80zM231 631q0 -64 38 -103t98 -39t96.5 39t36.5 103q0 65 -36.5 104t-96.5 39t-98 -39.5t-38 -103.5z" />
    <glyph glyph-name="zero.numr" horiz-adv-x="808" 
d="M408 594q-158 0 -254.5 128t-96.5 339t96.5 339t254.5 128q154 0 249 -128.5t95 -338.5t-95 -338.5t-249 -128.5zM408 741q73 0 118 88.5t45 231.5t-45 231t-118 88q-74 0 -120 -88.5t-46 -230.5t46 -231t120 -89z" />
    <glyph glyph-name="one.numr" horiz-adv-x="567" 
d="M272 606v680l-172 -123l-90 127l305 226h138v-910h-181z" />
    <glyph glyph-name="two.numr" horiz-adv-x="749" 
d="M61 606v115l281 303q2 2 22 24t27.5 31.5t26.5 32.5t28 39t21 38t17 42t5 39q0 51 -30.5 80.5t-81.5 29.5q-56 0 -89.5 -37t-33.5 -96l-182 15q0 120 83 193t218 73q133 0 215 -68t82 -178q0 -87 -51.5 -167.5t-157.5 -188.5l-166 -174l387 2v-148h-621z" />
    <glyph glyph-name="three.numr" horiz-adv-x="733" 
d="M395 1161q124 -3 200.5 -78.5t76.5 -195.5q0 -133 -95 -213t-255 -80q-84 0 -159.5 23.5t-119.5 64.5l70 133q71 -74 188 -74q85 0 134.5 40.5t49.5 105.5q0 62 -47 99.5t-123 37.5q-66 0 -120 -31l-50 92l248 283h-307v148h539v-111z" />
    <glyph glyph-name="four.numr" horiz-adv-x="806" 
d="M451 606v174h-420v123l458 613h142v-586h123v-150h-123v-174h-180zM231 924h224l2 301z" />
    <glyph glyph-name="five.numr" horiz-adv-x="743" 
d="M311 594q-179 0 -274 80l53 131q79 -64 205 -64q91 0 147 45t56 117q0 59 -40 96t-104 37q-79 0 -131 -45l-119 17l64 508h469v-148h-315l-29 -197q47 15 94 15q131 0 213 -75t82 -196q0 -144 -103 -232.5t-268 -88.5z" />
    <glyph glyph-name="six.numr" horiz-adv-x="743" 
d="M416 1163q118 0 200 -77.5t82 -200.5q0 -131 -88 -211t-233 -80t-232.5 79t-87.5 210q0 76 24.5 139.5t76.5 136.5l254 357h202l-266 -357q40 4 68 4zM377 741q60 0 97.5 40t37.5 104t-37.5 102.5t-97.5 38.5t-96.5 -38.5t-36.5 -102.5q0 -65 36.5 -104.5t96.5 -39.5z
" />
    <glyph glyph-name="seven.numr" horiz-adv-x="669" 
d="M33 1516h618l-305 -910h-190l262 762h-385v148z" />
    <glyph glyph-name="eight.numr" horiz-adv-x="778" 
d="M565 1079q68 -31 107 -87.5t39 -129.5q0 -121 -88.5 -194.5t-233.5 -73.5q-144 0 -231.5 72.5t-87.5 191.5q0 74 37.5 131t105.5 90q-119 64 -119 199q0 113 81 181.5t214 68.5t215 -68.5t82 -179.5q0 -65 -32 -117.5t-89 -83.5zM389 1380q-49 0 -78.5 -31.5t-29.5 -84.5
q0 -51 29.5 -82t78.5 -31q51 0 81 31t30 82q0 53 -30 84.5t-81 31.5zM389 741q60 0 97.5 36.5t37.5 94.5q0 59 -37.5 95.5t-97.5 36.5t-96.5 -36.5t-36.5 -95.5t36.5 -95t96.5 -36z" />
    <glyph glyph-name="nine.numr" horiz-adv-x="743" 
d="M367 1528q145 0 232 -79t87 -210q0 -77 -24 -140.5t-76 -135.5l-254 -357h-203l266 357q-50 -5 -67 -5q-118 0 -200.5 78t-82.5 201q0 131 88.5 211t233.5 80zM231 1237q0 -64 37.5 -102.5t98.5 -38.5q60 0 96.5 38.5t36.5 102.5q0 65 -36.5 104t-96.5 39t-98 -39.5
t-38 -103.5z" />
    <glyph glyph-name="exclamdown.case" horiz-adv-x="614" 
d="M307 1536q72 0 119 -47t47 -119t-47 -119t-119 -47q-71 0 -118.5 47t-47.5 119t47.5 119t118.5 47zM188 1071h240l25 -1071h-291z" />
    <glyph glyph-name="questiondown.case" horiz-adv-x="1124" 
d="M575 1536q72 0 120 -47t48 -119t-48 -119t-120 -47t-117.5 47t-45.5 119t45.5 119t117.5 47zM696 1071q0 -83 -14 -154t-32.5 -117t-51 -90.5t-55.5 -68t-60 -55.5q-56 -49 -84 -89.5t-28 -95.5q0 -83 56.5 -132.5t150.5 -49.5q90 0 149 49.5t66 132.5l266 -12
q-9 -184 -141.5 -296.5t-339.5 -112.5q-228 0 -367 111t-139 294q0 57 14 104.5t44.5 87.5t55.5 65t70 63q40 34 60.5 52.5t52 55t47.5 69.5t28.5 82.5t12.5 106.5h239z" />
    <glyph glyph-name="slash.case" horiz-adv-x="854" 
d="M80 0l412 1516h280l-412 -1516h-280z" />
    <glyph glyph-name="braceleft.case" horiz-adv-x="899" 
d="M580 -102q-152 0 -244 89.5t-92 237.5v248q0 75 -42.5 120.5t-111.5 45.5h-12v238h12q69 0 111.5 45.5t42.5 119.5v248q0 148 92 238t244 90q113 0 231 -27v-225q-56 12 -125 12t-111.5 -47t-42.5 -125v-198q0 -92 -48 -161t-126 -89q78 -20 126 -88.5t48 -161.5v-199
q0 -78 42.5 -125t111.5 -47q65 0 125 13v-226q-114 -26 -231 -26z" />
    <glyph glyph-name="braceright.case" horiz-adv-x="899" 
d="M317 -102q-117 0 -231 26v226q63 -13 127 -13q69 0 111.5 47t42.5 125v199q0 93 48 161.5t126 88.5q-78 20 -126 89t-48 161v198q0 78 -42.5 125t-111.5 47t-127 -12v225q118 27 231 27q153 0 245.5 -90t92.5 -238v-248q0 -74 42.5 -119.5t111.5 -45.5h12v-238h-12
q-69 0 -111.5 -45.5t-42.5 -120.5v-248q0 -148 -92 -237.5t-246 -89.5z" />
    <glyph glyph-name="bracketleft.case" horiz-adv-x="839" 
d="M176 -82v1679h578v-239h-289v-1200h289v-240h-578z" />
    <glyph glyph-name="bracketright.case" horiz-adv-x="839" 
d="M664 -82h-578v240h289v1200h-289v239h578v-1679z" />
    <glyph glyph-name="parenleft.case" horiz-adv-x="718" 
d="M401 -82q-59 78 -105.5 154.5t-95 183t-75.5 235.5t-27 267t27 267t75.5 235t95 182.5t105.5 154.5h258q-42 -59 -86 -143.5t-87.5 -194.5t-71 -243t-27.5 -258t27.5 -258t71 -243t87.5 -195t86 -144h-258z" />
    <glyph glyph-name="parenright.case" horiz-adv-x="718" 
d="M59 -82q43 60 87 144t88 194.5t72 243.5t28 258t-28 258t-72 243t-88 194t-87 144h258q60 -79 106 -155t95 -182t76 -235t27 -267t-27 -267t-76 -235.5t-95.5 -183t-105.5 -154.5h-258z" />
    <glyph glyph-name="logo" horiz-adv-x="2609" 
d="M156 -20q-15 0 -25 10.5t-10 25.5q0 21 10 31l700 698h-663q-47 0 -47 39q0 16 14 33l696 701h-669q-41 0 -41 38v3q0 38 41 38h758q47 0 47 -41q0 -20 -17 -34l-698 -697h676q17 0 29 -12t12 -29v-669l694 692q13 16 35 16q37 0 37 -45v-663l696 692q13 16 33 16
q15 0 25 -12t10 -27q0 -18 -13 -28l-753 -762q-14 -14 -35 -14q-41 0 -41 47v663l-694 -696q-14 -14 -35 -14q-41 0 -41 47v663l-697 -696q-14 -14 -34 -14z" />
    </font>
</defs>
</svg>
