<?xml version="1.0" standalone="no"?>
<!DOCTYPE svg PUBLIC "-//W3C//DTD SVG 1.1//EN" "http://www.w3.org/Graphics/SVG/1.1/DTD/svg11.dtd" >
<svg xmlns="http://www.w3.org/2000/svg" xmlns:xlink="http://www.w3.org/1999/xlink" version="1.1">
<metadata>
Created by FontForge 20170731 at Mon Jul  4 13:47:21 2022
 By Aleksey,,,
Copyright (c) 2016 by Alberto Romanos. All rights reserved.
</metadata>
<defs>
<font id="BwModelicaSS01-ExtraBold" horiz-adv-x="1259" >
  <font-face 
    font-family="Bw Modelica SS01 ExtraBold"
    font-weight="800"
    font-stretch="normal"
    units-per-em="2048"
    panose-1="0 0 9 0 0 0 0 0 0 0"
    ascent="1597"
    descent="-451"
    x-height="1116"
    cap-height="1516"
    bbox="-1810 -471 2710 2089"
    underline-thickness="102"
    underline-position="-307"
    unicode-range="U+000D-FB02"
  />
<missing-glyph horiz-adv-x="2609" 
d="M180 -20q-15 0 -25 10.5t-10 25.5q0 20 11 31l700 698h-663q-48 0 -48 39q0 14 15 33l696 701h-670q-41 0 -41 38v3q0 38 41 38h758q47 0 47 -41q0 -21 -16 -34l-699 -697h676q17 0 29 -12t12 -29v-669l695 692q13 16 34 16q37 0 37 -45v-663l697 692q13 16 32 16
q15 0 25 -12t10 -27q0 -18 -12 -28l-754 -762q-14 -14 -35 -14q-41 0 -41 47v663l-694 -696q-14 -14 -35 -14q-41 0 -41 47v663l-696 -696q-14 -14 -35 -14z" />
    <glyph glyph-name="fi" unicode="fi" horiz-adv-x="1368" 
d="M1067 1245q-88 0 -145.5 56.5t-57.5 144.5t57.5 144.5t145.5 56.5t144.5 -56.5t56.5 -144.5t-56.5 -144.5t-144.5 -56.5zM127 1247q0 167 104.5 269t274.5 102q157 0 256 -45l-23 -270q-50 18 -118 18q-65 0 -105.5 -35t-40.5 -92v-78h252v-285h-252v-831h-348v1247z
M891 0v1116h348v-1116h-348z" />
    <glyph glyph-name="fl" unicode="fl" horiz-adv-x="1368" 
d="M127 1247q0 167 104.5 269t274.5 102q157 0 256 -45l-23 -270q-50 18 -118 18q-65 0 -105.5 -35t-40.5 -92v-78h252v-285h-252v-831h-348v1247zM893 1597h348v-1597h-348v1597z" />
    <glyph glyph-name=".notdef" horiz-adv-x="2609" 
d="M180 -20q-15 0 -25 10.5t-10 25.5q0 20 11 31l700 698h-663q-48 0 -48 39q0 14 15 33l696 701h-670q-41 0 -41 38v3q0 38 41 38h758q47 0 47 -41q0 -21 -16 -34l-699 -697h676q17 0 29 -12t12 -29v-669l695 692q13 16 34 16q37 0 37 -45v-663l697 692q13 16 32 16
q15 0 25 -12t10 -27q0 -18 -12 -28l-754 -762q-14 -14 -35 -14q-41 0 -41 47v663l-694 -696q-14 -14 -35 -14q-41 0 -41 47v663l-696 -696q-14 -14 -35 -14z" />
    <glyph glyph-name=".null" horiz-adv-x="0" 
 />
    <glyph glyph-name="nonmarkingreturn" horiz-adv-x="682" 
 />
    <glyph glyph-name="CR" unicode="&#xd;" horiz-adv-x="415" 
 />
    <glyph glyph-name="space" unicode=" " horiz-adv-x="487" 
 />
    <glyph glyph-name="exclam" unicode="!" horiz-adv-x="628" 
d="M166 502l-33 1014h363l-33 -1014h-297zM315 -20q-88 0 -145 57t-57 145t57 144.5t145 56.5t144.5 -56.5t56.5 -144.5t-56.5 -145t-144.5 -57z" />
    <glyph glyph-name="quotedbl" unicode="&#x22;" horiz-adv-x="907" 
d="M115 1155l-6 442h274l-8 -442h-260zM532 1155l-8 442h275l-6 -442h-261z" />
    <glyph glyph-name="numbersign" unicode="#" horiz-adv-x="1587" 
d="M1468 846h-251l-64 -266h256l-55 -226h-252l-82 -354h-248l82 354h-293l-82 -354h-248l82 354h-247l55 226h244l63 266h-248l51 225h248l84 363h248l-84 -363h293l84 363h248l-84 -363h252zM905 580l64 266h-293l-64 -266h293z" />
    <glyph glyph-name="dollar" unicode="$" horiz-adv-x="1361" 
d="M1280 446q0 -170 -112 -289t-306 -159v-182h-360v180q-228 42 -387 180l135 242q184 -142 407 -142q252 0 252 136q0 68 -67 106.5t-211 77.5l-78 20q-108 29 -186 64t-142.5 85.5t-97.5 122.5t-33 165q0 178 110 301.5t300 163.5v182h360v-182q192 -40 346 -156
l-157 -250q-170 127 -369 127q-100 0 -159.5 -34.5t-59.5 -92.5q0 -34 18 -60t56 -46t76 -33t100 -29l78 -22q78 -21 145 -48.5t131.5 -69t110 -91.5t73 -119t27.5 -148z" />
    <glyph glyph-name="percent" unicode="%" horiz-adv-x="1867" 
d="M473 825q-183 0 -295 98t-112 259q0 160 112 257t295 97t294.5 -97t111.5 -257q0 -161 -111.5 -259t-294.5 -98zM596 -20l-180 110l848 1446l180 -109zM473 1047q56 0 90.5 37t34.5 98t-34.5 97t-90.5 36q-57 0 -92 -36t-35 -97t35 -98t92 -37zM1399 -20
q-183 0 -295.5 97.5t-112.5 258.5q0 160 112.5 257t295.5 97t294 -97t111 -257q0 -161 -111 -258.5t-294 -97.5zM1399 201q56 0 90.5 37t34.5 98t-34.5 97t-90.5 36q-59 0 -94 -36t-35 -97t35 -98t94 -37z" />
    <glyph glyph-name="ampersand" unicode="&#x26;" horiz-adv-x="1589" 
d="M1325 279q95 0 178 34v-278q-127 -55 -293 -55q-96 0 -172.5 37.5t-124.5 105.5q-143 -143 -358 -143q-210 0 -340.5 122.5t-130.5 321.5q0 132 70 235t196 162q-89 53 -137.5 134.5t-48.5 181.5q0 180 143.5 289.5t378.5 109.5q230 0 371 -113.5t141 -296.5v-176h289
v-272h-291v-252q0 -66 36 -106.5t93 -40.5zM686 1239q-73 0 -117.5 -39t-44.5 -102q0 -66 44.5 -107t117.5 -41h164v142q0 66 -45 106.5t-119 40.5zM641 279q93 0 150 50t57 160v189h-164q-108 0 -174 -56t-66 -147q0 -89 54.5 -142.5t142.5 -53.5z" />
    <glyph glyph-name="quotesingle" unicode="'" horiz-adv-x="489" 
d="M115 1155l-6 442h274l-8 -442h-260z" />
    <glyph glyph-name="parenleft" unicode="(" horiz-adv-x="737" 
d="M381 -369q-40 62 -76 127.5t-79.5 165t-74.5 201t-52 231t-21 258.5t21 258.5t52 231t74.5 201t79.5 165t76 127.5h324q-267 -466 -267 -983t267 -983h-324z" />
    <glyph glyph-name="parenright" unicode=")" horiz-adv-x="737" 
d="M33 -369q268 467 268 983t-268 983h323q40 -62 76 -127.5t79.5 -165t74.5 -201t52 -231t21 -258.5t-21 -258.5t-52 -231t-74.5 -201t-79.5 -165t-76 -127.5h-323z" />
    <glyph glyph-name="asterisk" unicode="*" horiz-adv-x="811" 
d="M725 1206l-154 -45l99 -127l-172 -125l-92 133l-91 -133l-172 125l99 127l-154 45l66 203l151 -55l-6 162h213l-4 -162l151 55z" />
    <glyph glyph-name="plus" unicode="+" horiz-adv-x="1173" 
d="M1096 864v-284h-334v-351h-348v351h-334v284h334v350h348v-350h334z" />
    <glyph glyph-name="comma" unicode="," horiz-adv-x="653" 
d="M12 -297l146 614h397l-193 -614h-350z" />
    <glyph glyph-name="hyphen" unicode="-" horiz-adv-x="1030" 
d="M119 473v248h792v-248h-792z" />
    <glyph glyph-name="period" unicode="." horiz-adv-x="606" 
d="M303 -20q-91 0 -155 65t-64 156t64 155t155 64t155 -64t64 -155t-64 -156t-155 -65z" />
    <glyph glyph-name="slash" unicode="/" horiz-adv-x="978" 
d="M70 -205l489 1802h350l-489 -1802h-350z" />
    <glyph glyph-name="zero" unicode="0" horiz-adv-x="1345" 
d="M674 -20q-270 0 -435 214t-165 564t165 564t435 214q177 0 313 -96.5t210.5 -273.5t74.5 -408t-74.5 -408t-210.5 -273.5t-313 -96.5zM674 276q103 0 165 132.5t62 349.5t-62 349t-165 132t-165.5 -132t-62.5 -349t62.5 -349.5t165.5 -132.5z" />
    <glyph glyph-name="one" unicode="1" horiz-adv-x="954" 
d="M434 0v1057l-252 -174l-178 254l514 379h275v-1516h-359z" />
    <glyph glyph-name="two" unicode="2" horiz-adv-x="1245" 
d="M80 0v225l475 516q99 110 138 168q75 110 75 187q0 63 -39.5 103t-103.5 40q-73 0 -117.5 -51.5t-44.5 -136.5l-365 32q0 204 142.5 328.5t375.5 124.5t375 -113t142 -299q0 -72 -21.5 -141t-69 -141t-104.5 -139.5t-145 -157.5l-246 -254l602 6v-297h-1069z" />
    <glyph glyph-name="three" unicode="3" horiz-adv-x="1212" 
d="M707 942q193 -19 308 -144t115 -317q0 -228 -162.5 -364.5t-441.5 -136.5q-140 0 -268.5 38.5t-204.5 102.5l135 262q52 -48 132 -77.5t167 -29.5q126 0 199.5 55.5t73.5 145.5t-66.5 142.5t-179.5 52.5q-103 0 -192 -47l-97 180l353 414h-449v297h909v-222z" />
    <glyph glyph-name="four" unicode="4" horiz-adv-x="1351" 
d="M719 0v274h-676v246l758 996h276v-945h201v-297h-201v-274h-358zM389 561h340l4 453z" />
    <glyph glyph-name="five" unicode="5" horiz-adv-x="1236" 
d="M508 -20q-298 0 -467 131l106 258q131 -93 328 -93q138 0 222.5 64t84.5 168q0 82 -52 131t-138 49q-65 0 -117 -23t-76 -59l-239 33l104 877h811v-297h-502l-36 -248q44 14 118 14q219 0 359.5 -124.5t140.5 -325.5q0 -249 -180 -402t-467 -153z" />
    <glyph glyph-name="six" unicode="6" horiz-adv-x="1234" 
d="M705 934q127 0 234.5 -56.5t173 -163.5t65.5 -243q0 -220 -151.5 -355.5t-397.5 -135.5q-249 0 -401 133.5t-152 353.5q0 137 45.5 250t142.5 248l404 551h401l-448 -584q27 2 84 2zM627 276q80 0 129 53t49 140q0 86 -49 139.5t-129 53.5q-82 0 -131.5 -53.5
t-49.5 -139.5q0 -88 49.5 -140.5t131.5 -52.5z" />
    <glyph glyph-name="seven" unicode="7" horiz-adv-x="1138" 
d="M47 1516h1061l-494 -1516h-381l414 1219h-600v297z" />
    <glyph glyph-name="eight" unicode="8" horiz-adv-x="1282" 
d="M963 791q108 -55 168.5 -147.5t60.5 -209.5q0 -204 -151.5 -329t-399.5 -125q-247 0 -399 123.5t-152 324.5q0 118 60 211t169 149q-90 53 -139 135t-49 185q0 193 140.5 310.5t369.5 117.5t369.5 -116t140.5 -308q0 -103 -49 -185.5t-139 -135.5zM639 1239
q-61 0 -99 -42.5t-38 -111.5t37.5 -110t99.5 -41q63 0 101 41t38 110t-38 111.5t-101 42.5zM639 276q82 0 131 49.5t49 131.5q0 80 -49.5 130t-130.5 50q-79 0 -128.5 -50t-49.5 -130q0 -82 49 -131.5t129 -49.5z" />
    <glyph glyph-name="nine" unicode="9" horiz-adv-x="1234" 
d="M606 1536q249 0 401 -133.5t152 -353.5q0 -137 -45.5 -250t-142.5 -248l-404 -551h-401l448 584q-27 -2 -84 -2q-127 0 -234.5 56.5t-173 163t-65.5 242.5q0 220 151.5 356t397.5 136zM430 1047q0 -86 49 -139.5t129 -53.5q81 0 130.5 53t49.5 140q0 88 -49 140t-131 52
q-80 0 -129 -52.5t-49 -139.5z" />
    <glyph glyph-name="colon" unicode=":" horiz-adv-x="643" 
d="M324 698q-91 0 -156.5 64.5t-65.5 155.5q0 90 65.5 154.5t156.5 64.5t154 -64t63 -155t-63.5 -155.5t-153.5 -64.5zM324 -20q-91 0 -156.5 65t-65.5 156q0 90 65.5 154.5t156.5 64.5t154 -64t63 -155t-63.5 -156t-153.5 -65z" />
    <glyph glyph-name="semicolon" unicode=";" horiz-adv-x="690" 
d="M360 698q-91 0 -156 64.5t-65 155.5t65 155t156 64t154.5 -64t63.5 -155t-63.5 -155.5t-154.5 -64.5zM29 -297l143 614h399l-192 -614h-350z" />
    <glyph glyph-name="less" unicode="&#x3c;" horiz-adv-x="1230" 
d="M1090 1276v-326l-588 -233l588 -234v-323l-1018 444v225z" />
    <glyph glyph-name="equal" unicode="=" horiz-adv-x="1265" 
d="M125 799v286h1016v-286h-1016zM125 358v287h1016v-287h-1016z" />
    <glyph glyph-name="greater" unicode="&#x3e;" horiz-adv-x="1230" 
d="M139 1276l1020 -447v-225l-1020 -444v323l590 234l-590 233v326z" />
    <glyph glyph-name="question" unicode="?" horiz-adv-x="1157" 
d="M420 502q0 73 13 136.5t30.5 106t47.5 85t51.5 64.5t55.5 54q51 47 75 80.5t24 73.5q0 62 -43 99.5t-113 37.5q-66 0 -111.5 -37.5t-54.5 -99.5l-332 14q10 190 147 305t351 115q238 0 382 -114t144 -302q0 -45 -11.5 -85.5t-26 -68.5t-43.5 -61t-48.5 -50.5t-56.5 -49.5
q-45 -38 -69.5 -61.5t-55.5 -63t-45 -83t-14 -95.5h-297zM569 -20q-88 0 -145 57t-57 145t57 144.5t145 56.5t144.5 -56.5t56.5 -144.5t-56.5 -145t-144.5 -57z" />
    <glyph glyph-name="at" unicode="@" horiz-adv-x="2365" 
d="M1331 993h334v-518q0 -47 27 -76.5t71 -29.5q74 0 119 86t45 213q0 263 -191.5 416t-508.5 153q-358 0 -571.5 -194t-213.5 -513t211.5 -511.5t573.5 -192.5q116 0 278 19t283 49l100 -273q-141 -42 -331 -67t-347 -25q-255 0 -466 73t-356.5 204t-225.5 318t-80 411
q0 300 141 527t400.5 350.5t603.5 123.5q313 0 550 -102.5t367.5 -294t130.5 -447.5q0 -179 -62 -320.5t-177 -221.5t-264 -80q-116 0 -206 48t-141 136q-51 -87 -134 -134.5t-193 -47.5q-189 0 -316 129.5t-127 335.5q0 104 35 193.5t94 150t137.5 95t165.5 34.5
q151 0 240 -103zM1165 369q69 0 110.5 47t41.5 123q0 78 -41.5 125t-110.5 47q-68 0 -108.5 -47t-40.5 -125q0 -75 41 -122.5t108 -47.5z" />
    <glyph glyph-name="A" unicode="A" horiz-adv-x="1669" 
d="M836 1536q308 0 496 -167.5t188 -442.5v-926h-361v406h-649v-406h-360v926q0 275 188.5 442.5t497.5 167.5zM510 702h649v209q0 148 -88 238t-233 90q-149 0 -238.5 -90t-89.5 -238v-209z" />
    <glyph glyph-name="B" unicode="B" horiz-adv-x="1476" 
d="M1135 809q127 -48 198.5 -141.5t71.5 -216.5q0 -203 -151 -327t-398 -124h-690v1516h694q206 0 331.5 -111.5t125.5 -294.5q0 -189 -182 -301zM526 1219v-291h246q78 0 126 39.5t48 105.5t-46.5 106t-121.5 40h-252zM836 297q89 0 143.5 46.5t54.5 121.5q0 74 -54 120
t-140 46h-314v-334h310z" />
    <glyph glyph-name="C" unicode="C" horiz-adv-x="1585" 
d="M903 -20q-182 0 -336 57t-261.5 159t-167.5 248t-60 320q0 348 226 560t597 212q385 0 610 -242l-225 -231q-58 81 -158.5 128.5t-224.5 47.5q-204 0 -328 -132t-124 -347q0 -218 127 -351t333 -133q140 0 238.5 58.5t171.5 171.5l242 -217q-232 -309 -660 -309z" />
    <glyph glyph-name="D" unicode="D" horiz-adv-x="1638" 
d="M805 1516q340 0 547 -207.5t207 -548.5q0 -225 -93.5 -398t-265 -267.5t-395.5 -94.5h-639v1516h639zM811 297q168 0 271.5 128t103.5 335t-103 333t-272 126h-285v-922h285z" />
    <glyph glyph-name="E" unicode="E" horiz-adv-x="1359" 
d="M526 297h736v-297h-1096v1516h1079v-297h-719v-304h648v-297h-648v-321z" />
    <glyph glyph-name="F" unicode="F" horiz-adv-x="1243" 
d="M1176 1219h-650v-345h545v-296h-545v-578h-360v1516h1010v-297z" />
    <glyph glyph-name="G" unicode="G" horiz-adv-x="1691" 
d="M1640 881q5 -102 5 -123q0 -230 -93 -406.5t-267 -274t-404 -97.5q-238 0 -420 96.5t-281.5 273.5t-99.5 408q0 173 57.5 318t161 246.5t253 157.5t329.5 56q341 0 553 -172l-236 -225q-100 100 -313 100q-195 0 -314.5 -132t-119.5 -349t118.5 -349.5t313.5 -132.5
q158 0 259.5 83.5t125.5 224.5h-342v297h714z" />
    <glyph glyph-name="H" unicode="H" horiz-adv-x="1794" 
d="M1270 1516h358v-1516h-358v625h-744v-625h-360v1516h360v-594h744v594z" />
    <glyph glyph-name="I" unicode="I" horiz-adv-x="692" 
d="M166 0v1516h360v-1516h-360z" />
    <glyph glyph-name="J" unicode="J" horiz-adv-x="1222" 
d="M1071 1516v-971q0 -255 -165 -410t-435 -155q-256 0 -446 161l178 240q105 -105 246 -105q118 0 191 78.5t73 206.5v658h-598v297h956z" />
    <glyph glyph-name="K" unicode="K" horiz-adv-x="1478" 
d="M1071 0l-479 625h-66v-625h-360v1516h360v-594h58l456 594h430l-581 -738l612 -778h-430z" />
    <glyph glyph-name="L" unicode="L" horiz-adv-x="1202" 
d="M526 297h643v-297h-1003v1516h360v-1219z" />
    <glyph glyph-name="M" unicode="M" horiz-adv-x="2060" 
d="M1944 0h-359l-53 920l-406 -920h-192l-404 915l-53 -915h-360l108 1520h400l405 -926l406 926h401z" />
    <glyph glyph-name="N" unicode="N" horiz-adv-x="1808" 
d="M166 0v1516h223l901 -908l-8 908h360v-1516h-221l-903 909l8 -909h-360z" />
    <glyph glyph-name="O" unicode="O" horiz-adv-x="1787" 
d="M897 -20q-182 0 -335 56t-259.5 157.5t-165.5 246.5t-59 318t59 318t165.5 246.5t259.5 157.5t335 56q180 0 331.5 -56t257.5 -157.5t165 -246.5t59 -318t-59 -318t-165 -246.5t-257.5 -157.5t-331.5 -56zM897 276q198 0 320 132.5t122 349.5q0 216 -122 348.5
t-320 132.5q-201 0 -323.5 -132t-122.5 -349t122.5 -349.5t323.5 -132.5z" />
    <glyph glyph-name="P" unicode="P" horiz-adv-x="1413" 
d="M815 1516q248 0 398.5 -138.5t150.5 -365.5q0 -238 -155.5 -384.5t-411.5 -146.5h-271v-481h-360v1516h649zM776 778q103 0 160 60t57 161q0 99 -59.5 159.5t-157.5 60.5h-250v-441h250z" />
    <glyph glyph-name="Q" unicode="Q" horiz-adv-x="1787" 
d="M1763 0h-424l-49 61q-176 -81 -393 -81q-182 0 -335 56t-259.5 157.5t-165.5 246.5t-59 318t59 318t165.5 246.5t259.5 157.5t335 56q180 0 331.5 -56t257.5 -157.5t165 -246.5t59 -318q0 -297 -166 -502zM897 276q105 0 186 37l-231 281h403l45 -53q39 98 39 217
q0 216 -122 348.5t-320 132.5q-201 0 -323.5 -132t-122.5 -349t122.5 -349.5t323.5 -132.5z" />
    <glyph glyph-name="R" unicode="R" horiz-adv-x="1531" 
d="M1087 0l-319 524h-242v-524h-360v1516h676q244 0 393 -136.5t149 -359.5q0 -141 -68.5 -250.5t-191.5 -173.5l385 -596h-422zM526 1219v-398h244q109 0 176.5 55t67.5 144t-58 144t-153 55h-277z" />
    <glyph glyph-name="S" unicode="S" horiz-adv-x="1361" 
d="M678 -20q-163 0 -308 50.5t-255 145.5l135 242q184 -142 407 -142q252 0 252 136q0 68 -67 106.5t-211 77.5l-78 20q-108 29 -186 64t-142.5 85.5t-97.5 122.5t-33 165q0 217 161 350t425 133q300 0 530 -174l-157 -250q-170 127 -369 127q-100 0 -159.5 -34.5
t-59.5 -92.5q0 -34 18 -60t56 -46t76 -33t100 -29l78 -22q78 -21 145 -48.5t131.5 -69t110 -91.5t73 -119t27.5 -148q0 -210 -165.5 -338t-436.5 -128z" />
    <glyph glyph-name="T" unicode="T" horiz-adv-x="1318" 
d="M1288 1516v-297h-448v-1219h-361v1219h-448v297h1257z" />
    <glyph glyph-name="U" unicode="U" horiz-adv-x="1667" 
d="M836 -20q-309 0 -497.5 168t-188.5 444v924h358v-910q0 -148 90 -239t238 -91q145 0 234 91t89 239v910h359v-924q0 -277 -187 -444.5t-495 -167.5z" />
    <glyph glyph-name="V" unicode="V" horiz-adv-x="1587" 
d="M627 0l-637 1516h383l422 -1065l417 1065h383l-634 -1516h-334z" />
    <glyph glyph-name="W" unicode="W" horiz-adv-x="2367" 
d="M1985 1516h382l-512 -1516h-333l-338 1016l-336 -1016h-334l-514 1516h383l315 -1035l320 1035h332l321 -1035z" />
    <glyph glyph-name="X" unicode="X" horiz-adv-x="1454" 
d="M1470 0h-413l-330 504l-326 -504h-415l542 786l-508 730h414l293 -447l291 447h414l-506 -728z" />
    <glyph glyph-name="Y" unicode="Y" horiz-adv-x="1456" 
d="M1059 1516h381l-533 -986v-530h-358v530l-533 986h385l330 -668z" />
    <glyph glyph-name="Z" unicode="Z" horiz-adv-x="1411" 
d="M569 297h768v-297h-1261v223l745 996h-733v297h1229v-222z" />
    <glyph glyph-name="bracketleft" unicode="[" horiz-adv-x="843" 
d="M152 -369v1966h628v-297h-268v-1372h268v-297h-628z" />
    <glyph glyph-name="backslash" unicode="\" horiz-adv-x="978" 
d="M559 -205l-489 1802h350l489 -1802h-350z" />
    <glyph glyph-name="bracketright" unicode="]" horiz-adv-x="843" 
d="M692 -369h-629v297h269v1372h-269v297h629v-1966z" />
    <glyph glyph-name="asciicircum" unicode="^" horiz-adv-x="1193" 
d="M1114 627h-336l-180 360l-182 -360h-336l350 694h336z" />
    <glyph glyph-name="underscore" unicode="_" horiz-adv-x="1282" 
d="M51 -248v248h1180v-248h-1180z" />
    <glyph glyph-name="grave" unicode="`" horiz-adv-x="1228" 
d="M336 1266l-391 342h403l283 -342h-295z" />
    <glyph glyph-name="a" unicode="a" horiz-adv-x="1406" 
d="M946 1116h334v-1116h-334l-6 137q-119 -157 -340 -157q-110 0 -207.5 41.5t-169.5 115t-113.5 181.5t-41.5 235q0 128 42 237.5t113.5 185t169 118.5t207.5 43q221 0 340 -160zM680 279q114 0 183 76.5t69 203.5q0 125 -69.5 203t-182.5 78q-114 0 -183 -78.5t-69 -204.5
q0 -125 69 -201.5t183 -76.5z" />
    <glyph glyph-name="b" unicode="b" horiz-adv-x="1409" 
d="M807 1137q110 0 207.5 -43t169 -118.5t113.5 -185t42 -237.5q0 -127 -41.5 -235t-113.5 -181.5t-169.5 -115t-207.5 -41.5q-219 0 -338 157l-6 -137h-336v1597h348v-612q120 152 332 152zM729 279q113 0 182.5 77t69.5 201q0 126 -70 204.5t-182 78.5q-114 0 -184 -78
t-70 -203q0 -127 70 -203.5t184 -76.5z" />
    <glyph glyph-name="c" unicode="c" horiz-adv-x="1134" 
d="M676 -20q-274 0 -441 159t-167 420q0 260 169 419t447 159q222 0 391 -133l-196 -236q-79 72 -189 72q-118 0 -189 -77.5t-71 -203.5q0 -127 70.5 -203.5t189.5 -76.5q146 0 225 90l197 -232q-161 -157 -436 -157z" />
    <glyph glyph-name="d" unicode="d" horiz-adv-x="1406" 
d="M932 1597h348v-1597h-334l-6 137q-119 -157 -340 -157q-110 0 -207.5 41.5t-169.5 115t-113.5 181.5t-41.5 235q0 128 42 237.5t113.5 185t169 118.5t207.5 43q211 0 332 -150v610zM680 279q114 0 183 76.5t69 203.5q0 125 -69.5 203t-182.5 78q-114 0 -183 -78.5
t-69 -204.5q0 -125 69 -201.5t183 -76.5z" />
    <glyph glyph-name="e" unicode="e" horiz-adv-x="1275" 
d="M1212 575q0 -61 -8 -139h-766q32 -184 215 -184q140 0 226 102l270 -131q-74 -111 -203.5 -177t-288.5 -66q-264 0 -425.5 155.5t-161.5 411.5q0 265 157 427.5t414 162.5t414 -154.5t157 -407.5zM641 864q-165 0 -201 -194h408q-35 194 -207 194z" />
    <glyph glyph-name="f" unicode="f" horiz-adv-x="763" 
d="M621 1321q-65 0 -105.5 -35t-40.5 -92v-78h252v-285h-252v-831h-348v1247q0 167 104.5 269t274.5 102q157 0 256 -45l-23 -270q-50 18 -118 18z" />
    <glyph glyph-name="g" unicode="g" horiz-adv-x="1406" 
d="M948 1116h334v-999q0 -266 -187 -427t-497 -161t-500 137l76 273q171 -113 416 -113q155 0 249.5 80.5t94.5 212.5v10q-120 -149 -332 -149q-147 0 -268 72.5t-192.5 206.5t-71.5 304q0 169 71.5 301t192.5 202.5t268 70.5q220 0 340 -158zM682 279q114 0 183 77t69 203
t-69 203.5t-183 77.5t-183 -77t-69 -202q0 -128 69 -205t183 -77z" />
    <glyph glyph-name="h" unicode="h" horiz-adv-x="1361" 
d="M811 1137q196 0 316 -120t120 -317v-700h-348v647q0 88 -58 140.5t-153 52.5q-97 0 -155 -52.5t-58 -140.5v-647h-348v1597h348v-598q63 68 151 103t185 35z" />
    <glyph glyph-name="i" unicode="i" horiz-adv-x="604" 
d="M303 1245q-88 0 -145.5 56.5t-57.5 144.5t57.5 144.5t145.5 56.5t144.5 -56.5t56.5 -144.5t-56.5 -144.5t-144.5 -56.5zM127 0v1116h348v-1116h-348z" />
    <glyph glyph-name="j" unicode="j" horiz-adv-x="604" 
d="M301 1245q-88 0 -144.5 56.5t-56.5 144.5t56.5 144.5t144.5 56.5t144.5 -56.5t56.5 -144.5t-56.5 -144.5t-144.5 -56.5zM127 -451v1567h348v-1567h-348z" />
    <glyph glyph-name="k" unicode="k" horiz-adv-x="1282" 
d="M870 0l-370 444h-25v-444h-348v1597h348v-868h31l340 387h438l-491 -528l518 -588h-441z" />
    <glyph glyph-name="l" unicode="l" horiz-adv-x="604" 
d="M129 0v1597h348v-1597h-348z" />
    <glyph glyph-name="m" unicode="m" horiz-adv-x="2021" 
d="M1448 1137q204 0 330.5 -120.5t126.5 -316.5v-700h-349v647q0 88 -49.5 140.5t-132.5 52.5t-133.5 -52.5t-50.5 -140.5v-647h-348v647q0 88 -50 140.5t-133 52.5t-133.5 -52.5t-50.5 -140.5v-647h-348v1116h336l4 -115q118 136 315 136q100 0 181.5 -38t136.5 -108
q63 72 153.5 109t194.5 37z" />
    <glyph glyph-name="n" unicode="n" horiz-adv-x="1361" 
d="M811 1137q196 0 316 -120t120 -317v-700h-348v647q0 88 -58 140.5t-153 52.5q-97 0 -155 -52.5t-58 -140.5v-647h-348v1116h336l4 -125q65 72 154.5 109t189.5 37z" />
    <glyph glyph-name="o" unicode="o" horiz-adv-x="1357" 
d="M682 -20q-277 0 -445.5 159t-168.5 420q0 260 169 419t445 159q272 0 440 -159.5t168 -418.5q0 -260 -168 -419.5t-440 -159.5zM680 279q112 0 181 77t69 203t-69 203.5t-181 77.5q-114 0 -183 -77.5t-69 -203.5t69 -203t183 -77z" />
    <glyph glyph-name="p" unicode="p" horiz-adv-x="1409" 
d="M807 1137q147 0 268 -70.5t192.5 -202.5t71.5 -301q0 -170 -71.5 -304t-192.5 -206.5t-268 -72.5q-212 0 -332 151v-582h-348v1567h336l6 -137q120 158 338 158zM729 279q113 0 182.5 77.5t69.5 204.5q0 125 -70 202t-182 77q-114 0 -184 -77.5t-70 -203.5t70 -203
t184 -77z" />
    <glyph glyph-name="q" unicode="q" horiz-adv-x="1406" 
d="M946 1116h334v-1567h-348v580q-120 -149 -332 -149q-147 0 -268 72.5t-192.5 206.5t-71.5 304q0 169 71.5 301t192.5 202.5t268 70.5q220 0 340 -158zM680 279q114 0 183 77t69 203t-69 203.5t-183 77.5t-183 -77t-69 -202q0 -128 69 -205t183 -77z" />
    <glyph glyph-name="r" unicode="r" horiz-adv-x="876" 
d="M469 981q67 74 167.5 115t223.5 41l-22 -320q-160 0 -261.5 -68t-101.5 -176v-573h-348v1116h336z" />
    <glyph glyph-name="s" unicode="s" horiz-adv-x="1089" 
d="M524 -20q-277 0 -444 139l131 211q151 -80 319 -80q57 0 92 19t35 53t-41 55.5t-127 44.5l-79 20q-161 39 -244.5 107t-83.5 196q0 177 127 284.5t336 107.5q273 0 442 -117l-145 -225q-129 69 -275 69q-60 0 -95.5 -16.5t-35.5 -46.5q0 -31 36 -50.5t110 -39.5l77 -21
q168 -42 260.5 -122t92.5 -222q0 -165 -134.5 -265.5t-353.5 -100.5z" />
    <glyph glyph-name="t" unicode="t" horiz-adv-x="829" 
d="M594 279q98 0 178 34v-278q-124 -55 -291 -55q-163 0 -263.5 102.5t-100.5 269.5v1092h348v-328h291v-285h-291v-405q0 -66 36 -106.5t93 -40.5z" />
    <glyph glyph-name="u" unicode="u" horiz-adv-x="1298" 
d="M649 -20q-241 0 -388.5 130.5t-147.5 344.5v661h348v-647q0 -86 51.5 -138t136.5 -52t137 52t52 138v647h348v-661q0 -214 -147.5 -344.5t-389.5 -130.5z" />
    <glyph glyph-name="v" unicode="v" horiz-adv-x="1273" 
d="M465 0l-459 1116h379l252 -721l250 721h381l-457 -1116h-346z" />
    <glyph glyph-name="w" unicode="w" horiz-adv-x="1892" 
d="M1501 1116h381l-397 -1116h-346l-193 655l-192 -655h-346l-398 1116h379l215 -721l201 721h282l199 -721z" />
    <glyph glyph-name="x" unicode="x" horiz-adv-x="1236" 
d="M1239 0h-414l-204 307l-207 -307h-414l414 571l-389 545h415l178 -272l181 272h413l-387 -543z" />
    <glyph glyph-name="y" unicode="y" horiz-adv-x="1312" 
d="M838 1116h348v-999q0 -266 -175 -427t-464 -161q-274 0 -443 137l76 273q152 -113 359 -113q130 0 212 77t87 203q-120 -126 -310 -126q-186 0 -299.5 120t-113.5 318v698h348v-647q0 -86 51 -138t137 -52q85 0 136 52t51 138v647z" />
    <glyph glyph-name="z" unicode="z" horiz-adv-x="1157" 
d="M80 0v223l487 608h-477v285h971l2 -221l-488 -608h506v-287h-1001z" />
    <glyph glyph-name="braceleft" unicode="{" horiz-adv-x="888" 
d="M582 -389q-166 0 -265.5 94.5t-99.5 249.5v385q0 58 -40 92.5t-105 34.5h-11v297h11q65 0 105 34t40 91v385q0 155 99.5 249.5t265.5 94.5q120 0 245 -27v-278q-41 8 -108 8q-65 0 -104.5 -42.5t-39.5 -111.5v-319q0 -86 -50 -150t-132 -84q82 -20 132 -82.5t50 -148.5
v-320q0 -70 39.5 -112.5t104.5 -42.5q67 0 108 8v-278q-125 -27 -245 -27z" />
    <glyph glyph-name="bar" unicode="|" horiz-adv-x="661" 
d="M152 -451v2048h358v-2048h-358z" />
    <glyph glyph-name="braceright" unicode="}" horiz-adv-x="888" 
d="M307 -389q-121 0 -246 27v278q41 -8 109 -8q65 0 104 42.5t39 112.5v320q0 85 50 148t133 83q-82 20 -132.5 84t-50.5 150v319q0 69 -39.5 111.5t-103.5 42.5q-68 0 -109 -8v278q125 27 246 27q166 0 265.5 -94.5t99.5 -249.5v-385q0 -57 40 -91t105 -34h10v-297h-10
q-65 0 -105 -34.5t-40 -92.5v-385q0 -155 -99.5 -249.5t-265.5 -94.5z" />
    <glyph glyph-name="asciitilde" unicode="~" horiz-adv-x="1255" 
d="M844 434q-55 0 -120.5 16t-115 34.5t-102 34.5t-84.5 16q-51 0 -81 -21.5t-30 -58.5h-184q0 146 79 234.5t210 88.5q73 0 156.5 -24t154 -48t111.5 -24q110 0 110 76h185q0 -153 -78.5 -238.5t-210.5 -85.5z" />
    <glyph glyph-name="uni00A0" unicode="&#xa0;" horiz-adv-x="487" 
 />
    <glyph glyph-name="exclamdown" unicode="&#xa1;" horiz-adv-x="602" 
d="M301 735q-88 0 -144.5 56.5t-56.5 144.5t56.5 144.5t144.5 56.5t144.5 -56.5t56.5 -144.5t-56.5 -144.5t-144.5 -56.5zM121 -451l33 1067h297l30 -1067h-360z" />
    <glyph glyph-name="cent" unicode="&#xa2;" horiz-adv-x="1210" 
d="M1112 240q-101 -99 -256 -138v-184h-326v176q-213 41 -337.5 193t-124.5 375q0 220 124.5 371t337.5 192v178h326v-186q119 -33 219 -111l-196 -236q-79 72 -189 72q-118 0 -189 -77t-71 -203q0 -127 70.5 -204t189.5 -77q146 0 225 90z" />
    <glyph glyph-name="sterling" unicode="&#xa3;" horiz-adv-x="1308" 
d="M600 285h612v-285h-1116v281h144v303h-123v284h123v262q0 183 132 294.5t349 111.5q215 0 347 -113t132 -299l-352 -22q0 61 -35 99t-92 38q-54 0 -87.5 -33t-33.5 -88v-250h520v-284h-520v-299z" />
    <glyph glyph-name="currency" unicode="&#xa4;" horiz-adv-x="1347" 
d="M1155 705q0 -116 -51 -218l145 -147l-209 -211l-149 147q-102 -51 -217 -51q-113 0 -217 49l-150 -147l-209 211l146 145q-54 102 -54 222q0 119 54 221l-146 145l209 211l152 -152q102 50 215 50q111 0 217 -50l149 148l209 -209l-145 -147q51 -102 51 -217zM674 483
q86 0 145.5 64.5t59.5 157.5t-59.5 158t-145.5 65t-147.5 -65.5t-61.5 -157.5t61.5 -157t147.5 -65z" />
    <glyph glyph-name="yen" unicode="&#xa5;" horiz-adv-x="1536" 
d="M1479 1516l-416 -771h182v-219h-299v-86h299v-219h-299v-221h-358v221h-297v219h297v86h-297v219h180l-416 771h385l330 -668l328 668h381z" />
    <glyph glyph-name="brokenbar" unicode="&#xa6;" horiz-adv-x="657" 
d="M150 778v819h358v-819h-358zM150 -451v820h358v-820h-358z" />
    <glyph glyph-name="section" unicode="&#xa7;" horiz-adv-x="1290" 
d="M1200 528q0 -160 -96 -280q96 -107 96 -252q0 -211 -153 -339t-404 -128q-306 0 -522 197l131 241q169 -141 371 -141q204 0 204 133q0 36 -15 62.5t-49 48t-70 36t-97 33.5l-68 21q-102 31 -175 66t-133.5 86t-91 123.5t-30.5 166.5q0 163 95 289q-95 95 -95 244
q0 217 149.5 350t393.5 133q275 0 494 -174l-156 -250q-161 127 -332 127q-82 0 -129 -34t-47 -93q0 -27 11.5 -49.5t28 -38t48.5 -31t58.5 -25t72.5 -24.5l66 -22q444 -143 444 -476zM690 467l66 -21l75 -26q23 30 23 74q0 40 -17.5 70.5t-54.5 54t-79 40.5t-107 37l-68 23
l-55 18q-27 -34 -27 -75q0 -27 7.5 -49.5t25 -40.5t35.5 -31.5t50 -27t57.5 -23t68.5 -23.5z" />
    <glyph glyph-name="dieresis" unicode="&#xa8;" horiz-adv-x="1228" 
d="M293 1245q-88 0 -145.5 56.5t-57.5 144.5t57.5 144.5t145.5 56.5t144.5 -56.5t56.5 -144.5t-56.5 -144.5t-144.5 -56.5zM840 1245q-88 0 -145.5 56.5t-57.5 144.5t57.5 144.5t145.5 56.5t144 -56.5t56 -144.5t-56 -144.5t-144 -56.5z" />
    <glyph glyph-name="copyright" unicode="&#xa9;" horiz-adv-x="1787" 
d="M895 -20q-365 0 -587 214t-222 564t222 564t587 214q180 0 330.5 -56t255.5 -157.5t163 -246.5t58 -318t-58 -318t-163 -246.5t-255.5 -157.5t-330.5 -56zM895 131q277 0 447.5 173t170.5 454q0 282 -170.5 455t-447.5 173t-449 -173t-172 -455q0 -281 172 -454t449 -173
zM911 324q-207 0 -334.5 119t-127.5 313q0 192 126.5 308t333.5 116q220 0 342 -133l-145 -150q-28 43 -80 67.5t-115 24.5q-101 0 -163 -65.5t-62 -171.5q0 -107 64 -172.5t168 -65.5q73 0 122 30t86 91l156 -141q-125 -170 -371 -170z" />
    <glyph glyph-name="ordfeminine" unicode="&#xaa;" horiz-adv-x="823" 
d="M408 1536q134 0 215.5 -71t81.5 -189v-420h-207l-2 72q-66 -84 -179 -84q-108 0 -173.5 58.5t-65.5 154.5q0 100 80.5 160.5t212.5 60.5q56 0 121 -12q-1 52 -37 79t-101 27q-90 0 -141 -43l-94 125q119 82 289 82zM379 993q49 0 80.5 35t32.5 96q-79 9 -95 9
q-45 0 -72.5 -19t-27.5 -51q0 -33 21 -51.5t61 -18.5z" />
    <glyph glyph-name="guillemotleft" unicode="&#xab;" horiz-adv-x="1464" 
d="M805 1030l-361 -477l361 -475h-371l-373 475l373 477h371zM1395 1030l-361 -477l361 -475h-369l-375 475l375 477h369z" />
    <glyph glyph-name="logicalnot" unicode="&#xac;" horiz-adv-x="1255" 
d="M1122 975v-635h-348v350h-668v285h1016z" />
    <glyph glyph-name="uni00AD" unicode="&#xad;" horiz-adv-x="1030" 
d="M119 473v248h792v-248h-792z" />
    <glyph glyph-name="registered" unicode="&#xae;" horiz-adv-x="831" 
d="M418 1618q146 0 235.5 -87.5t89.5 -230.5q0 -144 -89 -231.5t-236 -87.5q-149 0 -239.5 87t-90.5 232q0 143 90.5 230.5t239.5 87.5zM418 1036q116 0 187 72t71 192t-71 192.5t-187 72.5q-117 0 -188.5 -72.5t-71.5 -192.5t71.5 -192t188.5 -72zM549 1356q0 -65 -57 -94
l81 -129h-94l-69 114h-50v-114h-81v333h149q56 0 88.5 -30t32.5 -80zM360 1397v-84h52q25 0 39 11.5t14 31.5q0 19 -12.5 30t-32.5 11h-60z" />
    <glyph glyph-name="macron" unicode="&#xaf;" horiz-adv-x="1228" 
d="M61 1253v273h777v-273h-777z" />
    <glyph glyph-name="degree" unicode="&#xb0;" horiz-adv-x="745" 
d="M375 1079q-137 0 -220 74t-83 197q0 121 83 194.5t220 73.5q135 0 218 -73.5t83 -194.5q0 -123 -83 -197t-218 -74zM375 1251q40 0 65 27.5t25 71.5q0 43 -25 69.5t-65 26.5q-41 0 -66.5 -26.5t-25.5 -69.5q0 -44 25.5 -71.5t66.5 -27.5z" />
    <glyph glyph-name="plusminus" unicode="&#xb1;" horiz-adv-x="1275" 
d="M813 1051h338v-285h-338v-350h-350v350h-338v285h338v350h350v-350zM125 23v286h1026v-286h-1026z" />
    <glyph glyph-name="uni00B2" unicode="&#xb2;" horiz-adv-x="765" 
d="M57 811v139l283 307q1 1 12 13t15 17t16 18.5t18 21.5t16.5 22.5t16.5 24.5t13.5 24t11.5 25t7 23.5t3 23.5q0 37 -23 60.5t-61 23.5q-44 0 -70 -31t-26 -81l-221 18q0 123 86 198t227 75q139 0 223 -68.5t84 -179.5q0 -83 -48 -160.5t-155 -185.5l-145 -150l360 2v-180
h-643z" />
    <glyph glyph-name="uni00B3" unicode="&#xb3;" horiz-adv-x="743" 
d="M434 1376q115 -12 183.5 -86.5t68.5 -189.5q0 -136 -98.5 -218.5t-265.5 -82.5q-83 0 -161 23t-124 61l82 159q31 -28 79.5 -45.5t98.5 -17.5q76 0 119 33t43 88q0 52 -39.5 83t-104.5 31t-114 -30l-60 110l211 248h-268v178h547v-135z" />
    <glyph glyph-name="acute" unicode="&#xb4;" horiz-adv-x="1228" 
d="M199 1266l282 342h404l-391 -342h-295z" />
    <glyph glyph-name="paragraph" unicode="&#xb6;" horiz-adv-x="1337" 
d="M1155 1516v-1967h-256v1719h-154v-1719h-258v1229h-135q-130 0 -210.5 103t-80.5 270q0 164 96 264.5t251 100.5h747z" />
    <glyph glyph-name="periodcentered" unicode="&#xb7;" horiz-adv-x="624" 
d="M311 379q-91 0 -155 65t-64 156t64 155t155 64t155 -64t64 -155t-64 -156t-155 -65z" />
    <glyph glyph-name="cedilla" unicode="&#xb8;" horiz-adv-x="1228" 
d="M328 -100q89 -7 141.5 -55.5t52.5 -120.5q0 -87 -75 -141t-203 -54q-131 0 -209 47l59 123q50 -33 113 -33q42 0 66 15.5t24 39.5q0 23 -21 35.5t-57 12.5q-31 0 -65 -15l-43 76l88 170h190z" />
    <glyph glyph-name="uni00B9" unicode="&#xb9;" horiz-adv-x="585" 
d="M262 811v633l-149 -105l-109 154l309 227h168v-909h-219z" />
    <glyph glyph-name="ordmasculine" unicode="&#xba;" horiz-adv-x="878" 
d="M442 844q-166 0 -267 94.5t-101 251.5t101 251.5t267 94.5q165 0 265 -95t100 -251t-100 -251t-265 -95zM442 1026q65 0 106.5 45.5t41.5 118.5q0 75 -41.5 121.5t-106.5 46.5q-67 0 -108 -46.5t-41 -121.5q0 -74 41 -119t108 -45z" />
    <glyph glyph-name="guillemotright" unicode="&#xbb;" horiz-adv-x="1464" 
d="M440 1030l373 -477l-373 -475h-370l360 475l-360 477h370zM1030 1030l373 -477l-373 -475h-368l358 475l-358 477h368z" />
    <glyph glyph-name="onequarter" unicode="&#xbc;" horiz-adv-x="1814" 
d="M494 -20l-181 110l848 1446l180 -109zM262 606v633l-149 -104l-109 153l309 228h168v-910h-219zM1423 0v164h-405v149l457 596h170v-563h116v-182h-116v-164h-222zM1229 338h201l2 264z" />
    <glyph glyph-name="onehalf" unicode="&#xbd;" horiz-adv-x="1839" 
d="M494 -20l-181 110l848 1446l180 -109zM262 606v633l-149 -104l-109 153l309 228h168v-910h-219zM1130 0v139l283 307q1 1 12 13t15 17t16 18.5t18 21.5t16.5 22.5t16.5 24.5t13.5 24t11.5 25t7 23.5t3 23.5q0 37 -23 60.5t-61 23.5q-44 0 -70 -31t-26 -81l-221 18
q0 123 86 198t227 75q139 0 223 -68.5t84 -179.5q0 -83 -48 -160.5t-154 -185.5l-146 -150l361 2v-180h-644z" />
    <glyph glyph-name="threequarters" unicode="&#xbe;" horiz-adv-x="1972" 
d="M1319 1536l180 -109l-848 -1447l-180 110zM686 895q0 -136 -98.5 -218.5t-265.5 -82.5q-83 0 -161 23t-124 61l82 160q31 -28 79.5 -46t98.5 -18q76 0 119 33t43 88q0 52 -39.5 83.5t-104.5 31.5q-63 0 -114 -31l-60 111l211 247h-268v179h547v-136l-197 -209
q115 -12 183.5 -86.5t68.5 -189.5zM1802 346h117v-182h-117v-164h-221v164h-405v149l456 596h170v-563zM1587 338l2 264l-203 -264h201z" />
    <glyph glyph-name="questiondown" unicode="&#xbf;" horiz-adv-x="1144" 
d="M584 735q-88 0 -144.5 56.5t-56.5 144.5t56.5 144.5t144.5 56.5t144 -56.5t56 -144.5t-56 -144.5t-144 -56.5zM592 -471q-238 0 -383.5 114.5t-145.5 301.5q0 26 3 49.5t10.5 45t14 38.5t20.5 36.5t22.5 31.5t27 31.5t27 27.5t31 29t29.5 28q37 34 57.5 55.5t49 57.5
t43.5 68t26.5 77.5t11.5 95.5h297q0 -101 -17 -183t-50.5 -142t-61 -95t-69.5 -77q-34 -31 -51.5 -50.5t-32.5 -48t-15 -57.5q0 -62 43 -99.5t113 -37.5q65 0 111 38t55 99l329 -14q-9 -190 -145 -305t-350 -115z" />
    <glyph glyph-name="Agrave" unicode="&#xc0;" horiz-adv-x="1669" 
d="M1051 1665h-295l-391 342h403zM836 1536q308 0 496 -167.5t188 -442.5v-926h-361v406h-649v-406h-360v926q0 275 188.5 442.5t497.5 167.5zM510 702h649v209q0 148 -88 238t-233 90q-149 0 -238.5 -90t-89.5 -238v-209z" />
    <glyph glyph-name="Aacute" unicode="&#xc1;" horiz-adv-x="1669" 
d="M1305 2007l-392 -342h-295l283 342h404zM836 1536q308 0 496 -167.5t188 -442.5v-926h-361v406h-649v-406h-360v926q0 275 188.5 442.5t497.5 167.5zM510 702h649v209q0 148 -88 238t-233 90q-149 0 -238.5 -90t-89.5 -238v-209z" />
    <glyph glyph-name="Acircumflex" unicode="&#xc2;" horiz-adv-x="1669" 
d="M834 1806l-115 -141h-320l271 342h327l269 -342h-318zM836 1536q308 0 496 -167.5t188 -442.5v-926h-361v406h-649v-406h-360v926q0 275 188.5 442.5t497.5 167.5zM510 702h649v209q0 148 -88 238t-233 90q-149 0 -238.5 -90t-89.5 -238v-209z" />
    <glyph glyph-name="Atilde" unicode="&#xc3;" horiz-adv-x="1669" 
d="M674 1757q-33 0 -51.5 -21.5t-18.5 -58.5h-184q0 148 68 237t180 89q57 0 122.5 -24.5t120.5 -49t86 -24.5q70 0 70 77h184q0 -155 -66.5 -240t-180.5 -85q-53 0 -119.5 25t-123.5 50t-87 25zM836 1536q308 0 496 -167.5t188 -442.5v-926h-361v406h-649v-406h-360v926
q0 275 188.5 442.5t497.5 167.5zM510 702h649v209q0 148 -88 238t-233 90q-149 0 -238.5 -90t-89.5 -238v-209z" />
    <glyph glyph-name="Adieresis" unicode="&#xc4;" horiz-adv-x="1669" 
d="M563 1645q-88 0 -145.5 56.5t-57.5 143.5q0 88 57.5 144.5t145.5 56.5t144.5 -56.5t56.5 -144.5t-56.5 -144t-144.5 -56zM1110 1645q-88 0 -145.5 56.5t-57.5 143.5q0 88 57.5 144.5t145.5 56.5t144.5 -56.5t56.5 -144.5t-56.5 -144t-144.5 -56zM836 1536
q308 0 496 -167.5t188 -442.5v-926h-361v406h-649v-406h-360v926q0 275 188.5 442.5t497.5 167.5zM510 702h649v209q0 148 -88 238t-233 90q-149 0 -238.5 -90t-89.5 -238v-209z" />
    <glyph glyph-name="Aring" unicode="&#xc5;" horiz-adv-x="1669" 
d="M836 1595q-112 0 -181 62.5t-69 163.5q0 100 69 161.5t181 61.5t179.5 -61.5t67.5 -161.5q0 -102 -67.5 -164t-179.5 -62zM836 1890q-32 0 -52 -19t-20 -50q0 -32 20 -52t52 -20q31 0 50 20t19 52q0 31 -19 50t-50 19zM836 1536q308 0 496 -167.5t188 -442.5v-926h-361
v406h-649v-406h-360v926q0 275 188.5 442.5t497.5 167.5zM510 702h649v209q0 148 -88 238t-233 90q-149 0 -238.5 -90t-89.5 -238v-209z" />
    <glyph glyph-name="AE" unicode="&#xc6;" horiz-adv-x="2023" 
d="M1290 297h635v-297h-993v406h-430v-406h-361v803q0 212 98.5 374t278.5 250.5t414 88.5h977v-297h-619v-304h547v-297h-547v-321zM502 788v-86h430v517q-195 0 -312.5 -118.5t-117.5 -312.5z" />
    <glyph glyph-name="Ccedilla" unicode="&#xc7;" horiz-adv-x="1585" 
d="M1563 289q-212 -280 -580 -307l-51 -82q89 -7 141.5 -55.5t52.5 -120.5q0 -87 -75 -141t-203 -54q-131 0 -209 47l59 123q50 -33 113 -33q42 0 66 15.5t24 39.5q0 23 -21 35.5t-57 12.5q-31 0 -65 -15l-43 76l80 156q-215 21 -377 123t-251 271.5t-89 383.5
q0 348 226 560t597 212q385 0 610 -242l-225 -231q-58 81 -158.5 128.5t-224.5 47.5q-204 0 -328 -132t-124 -347q0 -218 127 -351t333 -133q140 0 238.5 58.5t171.5 171.5z" />
    <glyph glyph-name="Egrave" unicode="&#xc8;" horiz-adv-x="1359" 
d="M920 1665h-295l-392 342h404zM526 297h736v-297h-1096v1516h1079v-297h-719v-304h648v-297h-648v-321z" />
    <glyph glyph-name="Eacute" unicode="&#xc9;" horiz-adv-x="1359" 
d="M1174 2007l-392 -342h-295l283 342h404zM526 297h736v-297h-1096v1516h1079v-297h-719v-304h648v-297h-648v-321z" />
    <glyph glyph-name="Ecircumflex" unicode="&#xca;" horiz-adv-x="1359" 
d="M702 1806l-114 -141h-320l271 342h327l269 -342h-318zM526 297h736v-297h-1096v1516h1079v-297h-719v-304h648v-297h-648v-321z" />
    <glyph glyph-name="Edieresis" unicode="&#xcb;" horiz-adv-x="1359" 
d="M432 1645q-88 0 -145.5 56.5t-57.5 143.5q0 88 57.5 144.5t145.5 56.5t144.5 -56.5t56.5 -144.5t-56.5 -144t-144.5 -56zM979 1645q-88 0 -145.5 56.5t-57.5 143.5q0 88 57.5 144.5t145.5 56.5t144.5 -56.5t56.5 -144.5t-56.5 -144t-144.5 -56zM526 297h736v-297h-1096
v1516h1079v-297h-719v-304h648v-297h-648v-321z" />
    <glyph glyph-name="Igrave" unicode="&#xcc;" horiz-adv-x="692" 
d="M264 1665l-391 342h403l283 -342h-295zM166 0v1516h360v-1516h-360z" />
    <glyph glyph-name="Iacute" unicode="&#xcd;" horiz-adv-x="692" 
d="M127 1665l283 342h403l-391 -342h-295zM166 0v1516h360v-1516h-360z" />
    <glyph glyph-name="Icircumflex" unicode="&#xce;" horiz-adv-x="692" 
d="M342 1806l-115 -141h-319l270 342h328l268 -342h-317zM166 0v1516h360v-1516h-360z" />
    <glyph glyph-name="Idieresis" unicode="&#xcf;" horiz-adv-x="692" 
d="M72 1645q-88 0 -145.5 56.5t-57.5 143.5q0 88 57.5 144.5t145.5 56.5t144 -56.5t56 -144.5t-56 -144t-144 -56zM618 1645q-88 0 -145 56t-57 144t57 144.5t145 56.5t144.5 -56.5t56.5 -144.5t-56.5 -144t-144.5 -56zM166 0v1516h360v-1516h-360z" />
    <glyph glyph-name="Eth" unicode="&#xd0;" horiz-adv-x="1638" 
d="M805 1516q340 0 547 -207.5t207 -548.5q0 -225 -93.5 -398t-265 -267.5t-395.5 -94.5h-639v637h-150v248h150v631h639zM811 297q168 0 271.5 128t103.5 335t-103 333t-272 126h-285v-334h301v-248h-301v-340h285z" />
    <glyph glyph-name="Ntilde" unicode="&#xd1;" horiz-adv-x="1808" 
d="M1071 1657q-53 0 -119.5 25t-123.5 50t-87 25q-33 0 -51 -21.5t-18 -58.5h-185q0 148 68 237t180 89q57 0 123 -24.5t121 -49t86 -24.5q70 0 70 77h184q0 -155 -67 -240t-181 -85zM166 0v1516h223l901 -908l-8 908h360v-1516h-221l-903 909l8 -909h-360z" />
    <glyph glyph-name="Ograve" unicode="&#xd2;" horiz-adv-x="1787" 
d="M817 1665l-391 342h403l283 -342h-295zM897 -20q-182 0 -335 56t-259.5 157.5t-165.5 246.5t-59 318t59 318t165.5 246.5t259.5 157.5t335 56q180 0 331.5 -56t257.5 -157.5t165 -246.5t59 -318t-59 -318t-165 -246.5t-257.5 -157.5t-331.5 -56zM897 276q198 0 320 132.5
t122 349.5q0 216 -122 348.5t-320 132.5q-201 0 -323.5 -132t-122.5 -349t122.5 -349.5t323.5 -132.5z" />
    <glyph glyph-name="Oacute" unicode="&#xd3;" horiz-adv-x="1787" 
d="M680 1665l283 342h403l-391 -342h-295zM897 -20q-182 0 -335 56t-259.5 157.5t-165.5 246.5t-59 318t59 318t165.5 246.5t259.5 157.5t335 56q180 0 331.5 -56t257.5 -157.5t165 -246.5t59 -318t-59 -318t-165 -246.5t-257.5 -157.5t-331.5 -56zM897 276q198 0 320 132.5
t122 349.5q0 216 -122 348.5t-320 132.5q-201 0 -323.5 -132t-122.5 -349t122.5 -349.5t323.5 -132.5z" />
    <glyph glyph-name="Ocircumflex" unicode="&#xd4;" horiz-adv-x="1787" 
d="M895 1806l-115 -141h-319l270 342h328l268 -342h-317zM897 1536q180 0 331.5 -56t257.5 -157.5t165 -246.5t59 -318t-59 -318t-165 -246.5t-257.5 -157.5t-331.5 -56q-182 0 -335 56t-259.5 157.5t-165.5 246.5t-59 318t59 318t165.5 246.5t259.5 157.5t335 56zM897 276
q198 0 320 132.5t122 349.5q0 216 -122 348.5t-320 132.5q-201 0 -323.5 -132t-122.5 -349t122.5 -349.5t323.5 -132.5z" />
    <glyph glyph-name="Otilde" unicode="&#xd5;" horiz-adv-x="1787" 
d="M1065 1657q-53 0 -119.5 25t-123.5 50t-87 25q-33 0 -51 -21.5t-18 -58.5h-185q0 148 68 237t180 89q57 0 123 -24.5t121 -49t86 -24.5q69 0 69 77h185q0 -155 -67 -240t-181 -85zM897 -20q-182 0 -335 56t-259.5 157.5t-165.5 246.5t-59 318t59 318t165.5 246.5
t259.5 157.5t335 56q180 0 331.5 -56t257.5 -157.5t165 -246.5t59 -318t-59 -318t-165 -246.5t-257.5 -157.5t-331.5 -56zM897 276q198 0 320 132.5t122 349.5q0 216 -122 348.5t-320 132.5q-201 0 -323.5 -132t-122.5 -349t122.5 -349.5t323.5 -132.5z" />
    <glyph glyph-name="Odieresis" unicode="&#xd6;" horiz-adv-x="1787" 
d="M625 1645q-88 0 -145.5 56.5t-57.5 143.5q0 88 57.5 144.5t145.5 56.5t144 -56.5t56 -144.5t-56 -144t-144 -56zM1171 1645q-88 0 -145 56t-57 144t57 144.5t145 56.5t144.5 -56.5t56.5 -144.5t-56.5 -144t-144.5 -56zM897 -20q-182 0 -335 56t-259.5 157.5t-165.5 246.5
t-59 318t59 318t165.5 246.5t259.5 157.5t335 56q180 0 331.5 -56t257.5 -157.5t165 -246.5t59 -318t-59 -318t-165 -246.5t-257.5 -157.5t-331.5 -56zM897 276q198 0 320 132.5t122 349.5q0 216 -122 348.5t-320 132.5q-201 0 -323.5 -132t-122.5 -349t122.5 -349.5
t323.5 -132.5z" />
    <glyph glyph-name="multiply" unicode="&#xd7;" horiz-adv-x="1097" 
d="M1006 963l-244 -244l239 -240l-213 -213l-239 240l-240 -240l-213 213l240 240l-244 244l215 213l242 -242l242 242z" />
    <glyph glyph-name="Oslash" unicode="&#xd8;" horiz-adv-x="1789" 
d="M1526 1280q184 -206 184 -522q0 -173 -59 -318t-165 -246.5t-257.5 -157.5t-331.5 -56q-278 0 -475 122l-115 -122l-151 137l108 116q-186 208 -186 525q0 173 59 318t165.5 246.5t259.5 157.5t335 56q271 0 473 -125l117 125l151 -137zM451 758q0 -152 61 -262l631 673
q-106 70 -246 70q-201 0 -323.5 -132t-122.5 -349zM897 276q198 0 320 132.5t122 349.5q0 148 -59 260l-631 -674q111 -68 248 -68z" />
    <glyph glyph-name="Ugrave" unicode="&#xd9;" horiz-adv-x="1667" 
d="M756 1665l-391 342h403l283 -342h-295zM836 -20q-309 0 -497.5 168t-188.5 444v924h358v-910q0 -148 90 -239t238 -91q145 0 234 91t89 239v910h359v-924q0 -277 -187 -444.5t-495 -167.5z" />
    <glyph glyph-name="Uacute" unicode="&#xda;" horiz-adv-x="1667" 
d="M618 1665l283 342h404l-392 -342h-295zM836 -20q-309 0 -497.5 168t-188.5 444v924h358v-910q0 -148 90 -239t238 -91q145 0 234 91t89 239v910h359v-924q0 -277 -187 -444.5t-495 -167.5z" />
    <glyph glyph-name="Ucircumflex" unicode="&#xdb;" horiz-adv-x="1667" 
d="M834 1806l-115 -141h-320l271 342h327l269 -342h-318zM1159 1516h359v-924q0 -277 -187 -444.5t-495 -167.5q-309 0 -497.5 168t-188.5 444v924h358v-910q0 -148 90 -239t238 -91q145 0 234 91t89 239v910z" />
    <glyph glyph-name="Udieresis" unicode="&#xdc;" horiz-adv-x="1667" 
d="M563 1645q-88 0 -145.5 56.5t-57.5 143.5q0 88 57.5 144.5t145.5 56.5t144.5 -56.5t56.5 -144.5t-56.5 -144t-144.5 -56zM1110 1645q-88 0 -145.5 56.5t-57.5 143.5q0 88 57.5 144.5t145.5 56.5t144.5 -56.5t56.5 -144.5t-56.5 -144t-144.5 -56zM836 -20
q-309 0 -497.5 168t-188.5 444v924h358v-910q0 -148 90 -239t238 -91q145 0 234 91t89 239v910h359v-924q0 -277 -187 -444.5t-495 -167.5z" />
    <glyph glyph-name="Yacute" unicode="&#xdd;" horiz-adv-x="1456" 
d="M1200 2007l-391 -342h-295l283 342h403zM1059 1516h381l-533 -986v-530h-358v530l-533 986h385l330 -668z" />
    <glyph glyph-name="Thorn" unicode="&#xde;" horiz-adv-x="1411" 
d="M815 1288q248 0 398.5 -138.5t150.5 -365.5q0 -238 -155.5 -384t-411.5 -146h-271v-254h-360v1516h360v-228h289zM776 551q103 0 160 60t57 161q0 98 -59.5 158.5t-157.5 60.5h-250v-440h250z" />
    <glyph glyph-name="germandbls" unicode="&#xdf;" horiz-adv-x="1308" 
d="M971 864q129 -59 199.5 -161t70.5 -234q0 -220 -141 -354.5t-371 -134.5q-110 0 -178 22l33 287q31 -10 82 -10q97 0 156 59.5t59 157.5q0 100 -66.5 161.5t-175.5 61.5v272q73 0 117.5 46.5t44.5 121.5q0 72 -44.5 117t-117.5 45q-74 0 -119 -43t-45 -115v-1163h-348
v1198q0 189 141 304.5t371 115.5q235 0 378.5 -115.5t143.5 -304.5q0 -107 -49.5 -193.5t-140.5 -140.5z" />
    <glyph glyph-name="agrave" unicode="&#xe0;" horiz-adv-x="1406" 
d="M911 1266h-295l-391 342h404zM946 1116h334v-1116h-334l-6 137q-119 -157 -340 -157q-110 0 -207.5 41.5t-169.5 115t-113.5 181.5t-41.5 235q0 128 42 237.5t113.5 185t169 118.5t207.5 43q221 0 340 -160zM680 279q114 0 183 76.5t69 203.5q0 125 -69.5 203t-182.5 78
q-114 0 -183 -78.5t-69 -204.5q0 -125 69 -201.5t183 -76.5z" />
    <glyph glyph-name="aacute" unicode="&#xe1;" horiz-adv-x="1406" 
d="M1165 1608l-391 -342h-295l283 342h403zM946 1116h334v-1116h-334l-6 137q-119 -157 -340 -157q-110 0 -207.5 41.5t-169.5 115t-113.5 181.5t-41.5 235q0 128 42 237.5t113.5 185t169 118.5t207.5 43q221 0 340 -160zM680 279q114 0 183 76.5t69 203.5q0 125 -69.5 203
t-182.5 78q-114 0 -183 -78.5t-69 -204.5q0 -125 69 -201.5t183 -76.5z" />
    <glyph glyph-name="acircumflex" unicode="&#xe2;" horiz-adv-x="1406" 
d="M694 1407l-114 -141h-320l270 342h328l268 -342h-317zM946 1116h334v-1116h-334l-6 137q-119 -157 -340 -157q-110 0 -207.5 41.5t-169.5 115t-113.5 181.5t-41.5 235q0 128 42 237.5t113.5 185t169 118.5t207.5 43q221 0 340 -160zM680 279q114 0 183 76.5t69 203.5
q0 125 -69.5 203t-182.5 78q-114 0 -183 -78.5t-69 -204.5q0 -125 69 -201.5t183 -76.5z" />
    <glyph glyph-name="atilde" unicode="&#xe3;" horiz-adv-x="1406" 
d="M535 1358q-33 0 -51.5 -21.5t-18.5 -58.5h-184q0 148 67.5 237t179.5 89q57 0 123 -25t121 -49.5t86 -24.5q70 0 70 78h184q0 -155 -67 -240.5t-181 -85.5q-53 0 -119.5 25.5t-123 50.5t-86.5 25zM946 1116h334v-1116h-334l-6 137q-119 -157 -340 -157
q-110 0 -207.5 41.5t-169.5 115t-113.5 181.5t-41.5 235q0 128 42 237.5t113.5 185t169 118.5t207.5 43q221 0 340 -160zM680 279q114 0 183 76.5t69 203.5q0 125 -69.5 203t-182.5 78q-114 0 -183 -78.5t-69 -204.5q0 -125 69 -201.5t183 -76.5z" />
    <glyph glyph-name="adieresis" unicode="&#xe4;" horiz-adv-x="1406" 
d="M424 1245q-88 0 -145.5 56.5t-57.5 144.5t57.5 144.5t145.5 56.5t144.5 -56.5t56.5 -144.5t-56.5 -144.5t-144.5 -56.5zM971 1245q-88 0 -145.5 56.5t-57.5 144.5t57.5 144.5t145.5 56.5t144 -56.5t56 -144.5t-56 -144.5t-144 -56.5zM946 1116h334v-1116h-334l-6 137
q-119 -157 -340 -157q-110 0 -207.5 41.5t-169.5 115t-113.5 181.5t-41.5 235q0 128 42 237.5t113.5 185t169 118.5t207.5 43q221 0 340 -160zM680 279q114 0 183 76.5t69 203.5q0 125 -69.5 203t-182.5 78q-114 0 -183 -78.5t-69 -204.5q0 -125 69 -201.5t183 -76.5z" />
    <glyph glyph-name="aring" unicode="&#xe5;" horiz-adv-x="1406" 
d="M696 1196q-112 0 -181 62t-69 163q0 100 69 162t181 62t180 -62t68 -162q0 -101 -68 -163t-180 -62zM696 1491q-32 0 -51.5 -19.5t-19.5 -50.5q0 -32 19.5 -51.5t51.5 -19.5q31 0 50.5 19.5t19.5 51.5q0 31 -19.5 50.5t-50.5 19.5zM946 1116h334v-1116h-334l-6 137
q-119 -157 -340 -157q-110 0 -207.5 41.5t-169.5 115t-113.5 181.5t-41.5 235q0 128 42 237.5t113.5 185t169 118.5t207.5 43q221 0 340 -160zM680 279q114 0 183 76.5t69 203.5q0 125 -69.5 203t-182.5 78q-114 0 -183 -78.5t-69 -204.5q0 -125 69 -201.5t183 -76.5z" />
    <glyph glyph-name="ae" unicode="&#xe6;" horiz-adv-x="1925" 
d="M1860 575q0 -81 -9 -139h-766q32 -184 215 -184q139 0 228 102l268 -131q-69 -112 -191 -177.5t-274 -65.5q-131 0 -239 46.5t-185 131.5q-65 -86 -173 -132t-234 -46q-201 0 -324 98.5t-123 259.5q0 164 133 264t351 100q103 0 206 -20q-3 89 -63.5 135.5t-171.5 46.5
q-135 0 -238 -71l-147 204q94 71 201 105.5t249 34.5q113 0 206.5 -41t156.5 -113q151 154 379 154q246 0 395.5 -154t149.5 -408zM1288 864q-165 0 -201 -194h408q-35 194 -207 194zM549 227q81 0 137 60.5t57 161.5q-91 16 -161 16q-76 0 -122 -33.5t-46 -87.5
q0 -117 135 -117z" />
    <glyph glyph-name="ccedilla" unicode="&#xe7;" horiz-adv-x="1134" 
d="M696 -100q89 -7 142 -55.5t53 -120.5q0 -87 -75.5 -141t-203.5 -54q-131 0 -209 47l60 123q49 -33 112 -33q42 0 66.5 15.5t24.5 39.5q0 23 -21 35.5t-57 12.5q-32 0 -66 -15l-43 76l82 158q-226 32 -359.5 186t-133.5 385q0 260 169 419t447 159q222 0 391 -133
l-196 -236q-79 72 -189 72q-118 0 -189 -77.5t-71 -203.5q0 -127 70.5 -203.5t189.5 -76.5q146 0 225 90l197 -232q-136 -133 -364 -155z" />
    <glyph glyph-name="egrave" unicode="&#xe8;" horiz-adv-x="1275" 
d="M856 1266h-295l-391 342h403zM1212 575q0 -61 -8 -139h-766q32 -184 215 -184q140 0 226 102l270 -131q-74 -111 -203.5 -177t-288.5 -66q-264 0 -425.5 155.5t-161.5 411.5q0 265 157 427.5t414 162.5t414 -154.5t157 -407.5zM641 864q-165 0 -201 -194h408
q-35 194 -207 194z" />
    <glyph glyph-name="eacute" unicode="&#xe9;" horiz-adv-x="1275" 
d="M1110 1608l-391 -342h-295l283 342h403zM1212 575q0 -61 -8 -139h-766q32 -184 215 -184q140 0 226 102l270 -131q-74 -111 -203.5 -177t-288.5 -66q-264 0 -425.5 155.5t-161.5 411.5q0 265 157 427.5t414 162.5t414 -154.5t157 -407.5zM641 864q-165 0 -201 -194h408
q-35 194 -207 194z" />
    <glyph glyph-name="ecircumflex" unicode="&#xea;" horiz-adv-x="1275" 
d="M639 1407l-115 -141h-319l270 342h328l268 -342h-317zM1212 575q0 -61 -8 -139h-766q32 -184 215 -184q140 0 226 102l270 -131q-74 -111 -203.5 -177t-288.5 -66q-264 0 -425.5 155.5t-161.5 411.5q0 265 157 427.5t414 162.5t414 -154.5t157 -407.5zM641 864
q-165 0 -201 -194h408q-35 194 -207 194z" />
    <glyph glyph-name="edieresis" unicode="&#xeb;" horiz-adv-x="1275" 
d="M369 1245q-88 0 -145.5 56.5t-57.5 144.5t57.5 144.5t145.5 56.5t144 -56.5t56 -144.5t-56 -144.5t-144 -56.5zM915 1245q-88 0 -145 56.5t-57 144.5t57 144.5t145 56.5t144.5 -56.5t56.5 -144.5t-56.5 -144.5t-144.5 -56.5zM1212 575q0 -61 -8 -139h-766
q32 -184 215 -184q140 0 226 102l270 -131q-74 -111 -203.5 -177t-288.5 -66q-264 0 -425.5 155.5t-161.5 411.5q0 265 157 427.5t414 162.5t414 -154.5t157 -407.5zM641 864q-165 0 -201 -194h408q-35 194 -207 194z" />
    <glyph glyph-name="igrave" unicode="&#xec;" horiz-adv-x="604" 
d="M223 1266l-391 342h404l282 -342h-295zM127 0v1116h348v-1116h-348z" />
    <glyph glyph-name="iacute" unicode="&#xed;" horiz-adv-x="604" 
d="M86 1266l283 342h403l-391 -342h-295zM127 0v1116h348v-1116h-348z" />
    <glyph glyph-name="icircumflex" unicode="&#xee;" horiz-adv-x="604" 
d="M301 1407l-115 -141h-319l270 342h328l268 -342h-317zM127 0v1116h348v-1116h-348z" />
    <glyph glyph-name="idieresis" unicode="&#xef;" horiz-adv-x="604" 
d="M31 1245q-88 0 -145.5 56.5t-57.5 144.5t57.5 144.5t145.5 56.5t144 -56.5t56 -144.5t-56 -144.5t-144 -56.5zM578 1245q-88 0 -145.5 56.5t-57.5 144.5t57.5 144.5t145.5 56.5t144 -56.5t56 -144.5t-56 -144.5t-144 -56.5zM127 0v1116h348v-1116h-348z" />
    <glyph glyph-name="eth" unicode="&#xf0;" horiz-adv-x="1366" 
d="M885 1419q407 -328 407 -766q0 -301 -168.5 -487t-441.5 -186q-276 0 -444 159t-168 422q0 122 42 226t114 174.5t169.5 110.5t206.5 40q92 0 166 -27q-76 89 -166 156l-98 -61l-191 123l99 63q-55 31 -123 64l289 188q46 -22 116 -66l103 66l186 -137zM682 279
q112 0 181 77t69 203t-69 203.5t-181 77.5q-114 0 -183 -77.5t-69 -203.5t69 -203t183 -77z" />
    <glyph glyph-name="ntilde" unicode="&#xf1;" horiz-adv-x="1361" 
d="M530 1358q-33 0 -51 -21.5t-18 -58.5h-185q0 148 68 237t180 89q57 0 123 -25t121 -49.5t86 -24.5q70 0 70 78h184q0 -155 -67 -240.5t-181 -85.5q-53 0 -119.5 25.5t-123.5 50.5t-87 25zM811 1137q196 0 316 -120t120 -317v-700h-348v647q0 88 -58 140.5t-153 52.5
q-97 0 -155 -52.5t-58 -140.5v-647h-348v1116h336l4 -125q65 72 154.5 109t189.5 37z" />
    <glyph glyph-name="ograve" unicode="&#xf2;" horiz-adv-x="1357" 
d="M602 1266l-391 342h403l283 -342h-295zM682 -20q-277 0 -445.5 159t-168.5 420q0 260 169 419t445 159q272 0 440 -159.5t168 -418.5q0 -260 -168 -419.5t-440 -159.5zM680 279q112 0 181 77t69 203t-69 203.5t-181 77.5q-114 0 -183 -77.5t-69 -203.5t69 -203t183 -77z
" />
    <glyph glyph-name="oacute" unicode="&#xf3;" horiz-adv-x="1357" 
d="M465 1266l283 342h403l-391 -342h-295zM682 -20q-277 0 -445.5 159t-168.5 420q0 260 169 419t445 159q272 0 440 -159.5t168 -418.5q0 -260 -168 -419.5t-440 -159.5zM680 279q112 0 181 77t69 203t-69 203.5t-181 77.5q-114 0 -183 -77.5t-69 -203.5t69 -203t183 -77z
" />
    <glyph glyph-name="ocircumflex" unicode="&#xf4;" horiz-adv-x="1357" 
d="M680 1407l-115 -141h-319l270 342h328l268 -342h-317zM682 1137q272 0 440 -159.5t168 -418.5q0 -260 -168 -419.5t-440 -159.5q-277 0 -445.5 159t-168.5 420q0 260 169 419t445 159zM680 279q112 0 181 77t69 203t-69 203.5t-181 77.5q-114 0 -183 -77.5t-69 -203.5
t69 -203t183 -77z" />
    <glyph glyph-name="otilde" unicode="&#xf5;" horiz-adv-x="1357" 
d="M850 1257q-53 0 -119.5 25.5t-123.5 50.5t-87 25q-33 0 -51 -21.5t-18 -58.5h-185q0 148 68 237t180 89q57 0 123 -25t121 -49.5t86 -24.5q69 0 69 78h185q0 -155 -67 -240.5t-181 -85.5zM682 -20q-277 0 -445.5 159t-168.5 420q0 260 169 419t445 159q272 0 440 -159.5
t168 -418.5q0 -260 -168 -419.5t-440 -159.5zM680 279q112 0 181 77t69 203t-69 203.5t-181 77.5q-114 0 -183 -77.5t-69 -203.5t69 -203t183 -77z" />
    <glyph glyph-name="odieresis" unicode="&#xf6;" horiz-adv-x="1357" 
d="M410 1245q-88 0 -145.5 56.5t-57.5 144.5t57.5 144.5t145.5 56.5t144 -56.5t56 -144.5t-56 -144.5t-144 -56.5zM956 1245q-88 0 -145 56.5t-57 144.5t57 144.5t145 56.5t144.5 -56.5t56.5 -144.5t-56.5 -144.5t-144.5 -56.5zM682 -20q-277 0 -445.5 159t-168.5 420
q0 260 169 419t445 159q272 0 440 -159.5t168 -418.5q0 -260 -168 -419.5t-440 -159.5zM680 279q112 0 181 77t69 203t-69 203.5t-181 77.5q-114 0 -183 -77.5t-69 -203.5t69 -203t183 -77z" />
    <glyph glyph-name="divide" unicode="&#xf7;" horiz-adv-x="1189" 
d="M598 944q-88 0 -145.5 56.5t-57.5 144.5t57.5 144.5t145.5 56.5t143.5 -56.5t55.5 -144.5t-55.5 -144.5t-143.5 -56.5zM88 580v284h1016v-284h-1016zM598 100q-88 0 -145.5 56.5t-57.5 144.5t57.5 144.5t145.5 56.5t143.5 -56.5t55.5 -144.5t-55.5 -144.5t-143.5 -56.5z
" />
    <glyph glyph-name="oslash" unicode="&#xf8;" horiz-adv-x="1359" 
d="M1128 971q162 -159 162 -412q0 -260 -168 -419.5t-440 -159.5q-189 0 -334 77l-67 -77l-119 88l67 77q-161 161 -161 414q0 260 169 419t445 159q184 0 330 -78l67 78l119 -86zM428 559q0 -81 31 -145l340 397q-53 29 -119 29q-114 0 -183 -77.5t-69 -203.5zM680 279
q112 0 181 77t69 203q0 79 -31 143l-338 -395q54 -28 119 -28z" />
    <glyph glyph-name="ugrave" unicode="&#xf9;" horiz-adv-x="1298" 
d="M569 1266l-391 342h404l282 -342h-295zM649 -20q-241 0 -388.5 130.5t-147.5 344.5v661h348v-647q0 -86 51.5 -138t136.5 -52t137 52t52 138v647h348v-661q0 -214 -147.5 -344.5t-389.5 -130.5z" />
    <glyph glyph-name="uacute" unicode="&#xfa;" horiz-adv-x="1298" 
d="M432 1266l283 342h403l-391 -342h-295zM649 -20q-241 0 -388.5 130.5t-147.5 344.5v661h348v-647q0 -86 51.5 -138t136.5 -52t137 52t52 138v647h348v-661q0 -214 -147.5 -344.5t-389.5 -130.5z" />
    <glyph glyph-name="ucircumflex" unicode="&#xfb;" horiz-adv-x="1298" 
d="M647 1407l-115 -141h-319l270 342h328l268 -342h-317zM838 1116h348v-661q0 -214 -147.5 -344.5t-389.5 -130.5q-241 0 -388.5 130.5t-147.5 344.5v661h348v-647q0 -86 51.5 -138t136.5 -52t137 52t52 138v647z" />
    <glyph glyph-name="udieresis" unicode="&#xfc;" horiz-adv-x="1298" 
d="M377 1245q-88 0 -145.5 56.5t-57.5 144.5t57.5 144.5t145.5 56.5t144.5 -56.5t56.5 -144.5t-56.5 -144.5t-144.5 -56.5zM924 1245q-88 0 -145.5 56.5t-57.5 144.5t57.5 144.5t145.5 56.5t144 -56.5t56 -144.5t-56 -144.5t-144 -56.5zM649 -20q-241 0 -388.5 130.5
t-147.5 344.5v661h348v-647q0 -86 51.5 -138t136.5 -52t137 52t52 138v647h348v-661q0 -214 -147.5 -344.5t-389.5 -130.5z" />
    <glyph glyph-name="yacute" unicode="&#xfd;" horiz-adv-x="1312" 
d="M1110 1608l-391 -342h-295l283 342h403zM838 1116h348v-999q0 -266 -175 -427t-464 -161q-274 0 -443 137l76 273q152 -113 359 -113q130 0 212 77t87 203q-120 -126 -310 -126q-186 0 -299.5 120t-113.5 318v698h348v-647q0 -86 51 -138t137 -52q85 0 136 52t51 138v647
z" />
    <glyph glyph-name="thorn" unicode="&#xfe;" horiz-adv-x="1409" 
d="M807 1137q147 0 268 -70.5t192.5 -202.5t71.5 -301q0 -170 -71.5 -304t-192.5 -206.5t-268 -72.5q-212 0 -332 151v-582h-348v2048h348v-610q121 150 332 150zM729 279q113 0 182.5 77.5t69.5 204.5q0 125 -70 202t-182 77q-114 0 -184 -77.5t-70 -203.5t70 -203t184 -77
z" />
    <glyph glyph-name="ydieresis" unicode="&#xff;" horiz-adv-x="1312" 
d="M369 1245q-88 0 -145.5 56.5t-57.5 144.5t57.5 144.5t145.5 56.5t144 -56.5t56 -144.5t-56 -144.5t-144 -56.5zM915 1245q-88 0 -145 56.5t-57 144.5t57 144.5t145 56.5t144.5 -56.5t56.5 -144.5t-56.5 -144.5t-144.5 -56.5zM838 1116h348v-999q0 -266 -175 -427
t-464 -161q-274 0 -443 137l76 273q152 -113 359 -113q130 0 212 77t87 203q-120 -126 -310 -126q-186 0 -299.5 120t-113.5 318v698h348v-647q0 -86 51 -138t137 -52q85 0 136 52t51 138v647z" />
    <glyph glyph-name="Amacron" unicode="&#x100;" horiz-adv-x="1669" 
d="M1223 1925v-272h-777v272h777zM836 1536q308 0 496 -167.5t188 -442.5v-926h-361v406h-649v-406h-360v926q0 275 188.5 442.5t497.5 167.5zM510 702h649v209q0 148 -88 238t-233 90q-149 0 -238.5 -90t-89.5 -238v-209z" />
    <glyph glyph-name="amacron" unicode="&#x101;" horiz-adv-x="1406" 
d="M1083 1526v-273h-776v273h776zM946 1116h334v-1116h-334l-6 137q-119 -157 -340 -157q-110 0 -207.5 41.5t-169.5 115t-113.5 181.5t-41.5 235q0 128 42 237.5t113.5 185t169 118.5t207.5 43q221 0 340 -160zM680 279q114 0 183 76.5t69 203.5q0 125 -69.5 203t-182.5 78
q-114 0 -183 -78.5t-69 -204.5q0 -125 69 -201.5t183 -76.5z" />
    <glyph glyph-name="Abreve" unicode="&#x102;" horiz-adv-x="1669" 
d="M836 1647q-179 0 -287.5 98.5t-108.5 261.5h260q0 -72 38 -117t98 -45q61 0 98 45t37 117h260q0 -163 -108 -261.5t-287 -98.5zM836 1536q308 0 496 -167.5t188 -442.5v-926h-361v406h-649v-406h-360v926q0 275 188.5 442.5t497.5 167.5zM510 702h649v209q0 148 -88 238
t-233 90q-149 0 -238.5 -90t-89.5 -238v-209z" />
    <glyph glyph-name="abreve" unicode="&#x103;" horiz-adv-x="1406" 
d="M696 1247q-178 0 -286.5 99t-108.5 262h260q0 -72 37.5 -117t97.5 -45q61 0 98 45t37 117h261q0 -163 -108.5 -262t-287.5 -99zM946 1116h334v-1116h-334l-6 137q-119 -157 -340 -157q-110 0 -207.5 41.5t-169.5 115t-113.5 181.5t-41.5 235q0 128 42 237.5t113.5 185
t169 118.5t207.5 43q221 0 340 -160zM680 279q114 0 183 76.5t69 203.5q0 125 -69.5 203t-182.5 78q-114 0 -183 -78.5t-69 -204.5q0 -125 69 -201.5t183 -76.5z" />
    <glyph glyph-name="Aogonek" unicode="&#x104;" horiz-adv-x="1669" 
d="M1497 -248l29 -166q-83 -57 -203 -57q-101 0 -163 53t-62 139q0 140 172 279h-111v406h-649v-406h-360v926q0 275 188.5 442.5t497.5 167.5q308 0 496 -167.5t188 -442.5v-926q-172 -109 -172 -219q0 -27 16.5 -42t46.5 -15q42 0 86 28zM510 702h649v209q0 148 -88 238
t-233 90q-149 0 -238.5 -90t-89.5 -238v-209z" />
    <glyph glyph-name="aogonek" unicode="&#x105;" horiz-adv-x="1406" 
d="M1257 -248l29 -166q-83 -57 -203 -57q-101 0 -163 53t-62 139q0 140 172 279h-84l-6 137q-119 -157 -340 -157q-110 0 -207.5 41.5t-169.5 115t-113.5 181.5t-41.5 235q0 128 42 237.5t113.5 185t169 118.5t207.5 43q221 0 340 -160l6 139h334v-1116q-172 -109 -172 -219
q0 -27 16.5 -42t46.5 -15q42 0 86 28zM680 279q114 0 183 76.5t69 203.5q0 125 -69.5 203t-182.5 78q-114 0 -183 -78.5t-69 -204.5q0 -125 69 -201.5t183 -76.5z" />
    <glyph glyph-name="Cacute" unicode="&#x106;" horiz-adv-x="1585" 
d="M666 1665l282 342h404l-391 -342h-295zM903 -20q-182 0 -336 57t-261.5 159t-167.5 248t-60 320q0 348 226 560t597 212q385 0 610 -242l-225 -231q-58 81 -158.5 128.5t-224.5 47.5q-204 0 -328 -132t-124 -347q0 -218 127 -351t333 -133q140 0 238.5 58.5t171.5 171.5
l242 -217q-232 -309 -660 -309z" />
    <glyph glyph-name="cacute" unicode="&#x107;" horiz-adv-x="1134" 
d="M436 1266l283 342h403l-391 -342h-295zM676 -20q-274 0 -441 159t-167 420q0 260 169 419t447 159q222 0 391 -133l-196 -236q-79 72 -189 72q-118 0 -189 -77.5t-71 -203.5q0 -127 70.5 -203.5t189.5 -76.5q146 0 225 90l197 -232q-161 -157 -436 -157z" />
    <glyph glyph-name="Cdotaccent" unicode="&#x10a;" horiz-adv-x="1585" 
d="M883 1645q-88 0 -145.5 56.5t-57.5 143.5q0 88 57.5 144.5t145.5 56.5t144 -56.5t56 -144.5t-56 -144t-144 -56zM903 -20q-182 0 -336 57t-261.5 159t-167.5 248t-60 320q0 348 226 560t597 212q385 0 610 -242l-225 -231q-58 81 -158.5 128.5t-224.5 47.5
q-204 0 -328 -132t-124 -347q0 -218 127 -351t333 -133q140 0 238.5 58.5t171.5 171.5l242 -217q-232 -309 -660 -309z" />
    <glyph glyph-name="cdotaccent" unicode="&#x10b;" horiz-adv-x="1134" 
d="M653 1245q-88 0 -145 56.5t-57 144.5t57 144.5t145 56.5t144.5 -56.5t56.5 -144.5t-56.5 -144.5t-144.5 -56.5zM676 -20q-274 0 -441 159t-167 420q0 260 169 419t447 159q222 0 391 -133l-196 -236q-79 72 -189 72q-118 0 -189 -77.5t-71 -203.5q0 -127 70.5 -203.5
t189.5 -76.5q146 0 225 90l197 -232q-161 -157 -436 -157z" />
    <glyph glyph-name="Ccaron" unicode="&#x10c;" horiz-adv-x="1585" 
d="M717 1665l-271 342h320l115 -141l114 141h318l-269 -342h-327zM1321 506l242 -217q-232 -309 -660 -309q-182 0 -336 57t-261.5 159t-167.5 248t-60 320q0 348 226 560t597 212q385 0 610 -242l-225 -231q-58 81 -158.5 128.5t-224.5 47.5q-204 0 -328 -132t-124 -347
q0 -218 127 -351t333 -133q140 0 238.5 58.5t171.5 171.5z" />
    <glyph glyph-name="ccaron" unicode="&#x10d;" horiz-adv-x="1134" 
d="M487 1266l-270 342h320l114 -142l115 142h317l-268 -342h-328zM915 369l197 -232q-161 -157 -436 -157q-274 0 -441 159t-167 420q0 260 169 419t447 159q222 0 391 -133l-196 -236q-79 72 -189 72q-118 0 -189 -77.5t-71 -203.5q0 -127 70.5 -203.5t189.5 -76.5
q146 0 225 90z" />
    <glyph glyph-name="Dcaron" unicode="&#x10e;" horiz-adv-x="1638" 
d="M547 1665l-271 342h320l115 -141l114 141h318l-269 -342h-327zM805 1516q340 0 547 -207.5t207 -548.5q0 -225 -93.5 -398t-265 -267.5t-395.5 -94.5h-639v1516h639zM811 297q168 0 271.5 128t103.5 335t-103 333t-272 126h-285v-922h285z" />
    <glyph glyph-name="dcaron" unicode="&#x10f;" horiz-adv-x="1449" 
d="M932 987v610h348v-1597h-334l-6 137q-119 -157 -340 -157q-110 0 -207.5 41.5t-169.5 115t-113.5 181.5t-41.5 235q0 128 42 237.5t113.5 185t169 118.5t207.5 43q211 0 332 -150zM1466 1597h312l-138 -383h-262zM680 279q114 0 183 76.5t69 203.5q0 125 -69.5 203
t-182.5 78q-114 0 -183 -78.5t-69 -204.5q0 -125 69 -201.5t183 -76.5z" />
    <glyph glyph-name="Dcroat" unicode="&#x110;" horiz-adv-x="1638" 
d="M805 1516q340 0 547 -207.5t207 -548.5q0 -225 -93.5 -398t-265 -267.5t-395.5 -94.5h-639v637h-150v248h150v631h639zM811 297q168 0 271.5 128t103.5 335t-103 333t-272 126h-285v-334h301v-248h-301v-340h285z" />
    <glyph glyph-name="dcroat" unicode="&#x111;" horiz-adv-x="1406" 
d="M1427 1464v-247h-147v-1217h-334l-6 137q-119 -157 -340 -157q-110 0 -207.5 41.5t-169.5 115t-113.5 181.5t-41.5 235q0 128 42 237.5t113.5 185t169 118.5t207.5 43q211 0 332 -150v230h-316v247h316v133h348v-133h147zM680 279q114 0 183 76.5t69 203.5
q0 125 -69.5 203t-182.5 78q-114 0 -183 -78.5t-69 -204.5q0 -125 69 -201.5t183 -76.5z" />
    <glyph glyph-name="Emacron" unicode="&#x112;" horiz-adv-x="1359" 
d="M1092 1925v-272h-777v272h777zM526 297h736v-297h-1096v1516h1079v-297h-719v-304h648v-297h-648v-321z" />
    <glyph glyph-name="emacron" unicode="&#x113;" horiz-adv-x="1275" 
d="M1028 1526v-273h-776v273h776zM1212 575q0 -61 -8 -139h-766q32 -184 215 -184q140 0 226 102l270 -131q-74 -111 -203.5 -177t-288.5 -66q-264 0 -425.5 155.5t-161.5 411.5q0 265 157 427.5t414 162.5t414 -154.5t157 -407.5zM641 864q-165 0 -201 -194h408
q-35 194 -207 194z" />
    <glyph glyph-name="Edotaccent" unicode="&#x116;" horiz-adv-x="1359" 
d="M705 1645q-88 0 -145.5 56.5t-57.5 143.5q0 88 57.5 144.5t145.5 56.5t144 -56.5t56 -144.5t-56 -144t-144 -56zM526 297h736v-297h-1096v1516h1079v-297h-719v-304h648v-297h-648v-321z" />
    <glyph glyph-name="edotaccent" unicode="&#x117;" horiz-adv-x="1275" 
d="M641 1245q-88 0 -145.5 56.5t-57.5 144.5t57.5 144.5t145.5 56.5t144.5 -56.5t56.5 -144.5t-56.5 -144.5t-144.5 -56.5zM1212 575q0 -61 -8 -139h-766q32 -184 215 -184q140 0 226 102l270 -131q-74 -111 -203.5 -177t-288.5 -66q-264 0 -425.5 155.5t-161.5 411.5
q0 265 157 427.5t414 162.5t414 -154.5t157 -407.5zM641 864q-165 0 -201 -194h408q-35 194 -207 194z" />
    <glyph glyph-name="Eogonek" unicode="&#x118;" horiz-adv-x="1359" 
d="M1239 -248l29 -166q-83 -57 -203 -57q-101 0 -163 53t-62 139q0 140 172 279h-846v1516h1079v-297h-719v-304h648v-297h-648v-321h736v-297q-172 -109 -172 -219q0 -27 16.5 -42t46.5 -15q42 0 86 28z" />
    <glyph glyph-name="eogonek" unicode="&#x119;" horiz-adv-x="1275" 
d="M1212 575q0 -61 -8 -139h-766q32 -184 215 -184q140 0 226 102l270 -131q-110 -166 -324 -223q-172 -109 -172 -219q0 -27 17 -42t47 -15q42 0 86 28l28 -166q-83 -57 -202 -57q-101 0 -163.5 53t-62.5 139q0 136 154 265q-223 29 -355 180t-132 381q0 265 157 427.5
t414 162.5t414 -154.5t157 -407.5zM641 864q-165 0 -201 -194h408q-35 194 -207 194z" />
    <glyph glyph-name="Ecaron" unicode="&#x11a;" horiz-adv-x="1359" 
d="M539 1665l-271 342h320l114 -141l115 141h318l-269 -342h-327zM526 297h736v-297h-1096v1516h1079v-297h-719v-304h648v-297h-648v-321z" />
    <glyph glyph-name="ecaron" unicode="&#x11b;" horiz-adv-x="1275" 
d="M475 1266l-270 342h319l115 -142l115 142h317l-268 -342h-328zM1212 575q0 -61 -8 -139h-766q32 -184 215 -184q140 0 226 102l270 -131q-74 -111 -203.5 -177t-288.5 -66q-264 0 -425.5 155.5t-161.5 411.5q0 265 157 427.5t414 162.5t414 -154.5t157 -407.5zM641 864
q-165 0 -201 -194h408q-35 194 -207 194z" />
    <glyph glyph-name="Gbreve" unicode="&#x11e;" horiz-adv-x="1691" 
d="M881 1647q-179 0 -287.5 98.5t-108.5 261.5h260q0 -72 38 -117t98 -45q61 0 98 45t37 117h260q0 -163 -108 -261.5t-287 -98.5zM1640 881q5 -102 5 -123q0 -230 -93 -406.5t-267 -274t-404 -97.5q-238 0 -420 96.5t-281.5 273.5t-99.5 408q0 173 57.5 318t161 246.5
t253 157.5t329.5 56q341 0 553 -172l-236 -225q-100 100 -313 100q-195 0 -314.5 -132t-119.5 -349t118.5 -349.5t313.5 -132.5q158 0 259.5 83.5t125.5 224.5h-342v297h714z" />
    <glyph glyph-name="gbreve" unicode="&#x11f;" horiz-adv-x="1406" 
d="M700 1247q-178 0 -286.5 99t-108.5 262h260q0 -72 37.5 -117t97.5 -45q61 0 98.5 45t37.5 117h260q0 -163 -108.5 -262t-287.5 -99zM948 1116h334v-999q0 -266 -187 -427t-497 -161t-500 137l76 273q171 -113 416 -113q155 0 249.5 80.5t94.5 212.5v10
q-120 -149 -332 -149q-147 0 -268 72.5t-192.5 206.5t-71.5 304q0 169 71.5 301t192.5 202.5t268 70.5q220 0 340 -158zM682 279q114 0 183 77t69 203t-69 203.5t-183 77.5t-183 -77t-69 -202q0 -128 69 -205t183 -77z" />
    <glyph glyph-name="Gdotaccent" unicode="&#x120;" horiz-adv-x="1691" 
d="M881 1645q-88 0 -145.5 56.5t-57.5 143.5q0 88 57.5 144.5t145.5 56.5t144 -56.5t56 -144.5t-56 -144t-144 -56zM1640 881q5 -102 5 -123q0 -230 -93 -406.5t-267 -274t-404 -97.5q-238 0 -420 96.5t-281.5 273.5t-99.5 408q0 173 57.5 318t161 246.5t253 157.5t329.5 56
q341 0 553 -172l-236 -225q-100 100 -313 100q-195 0 -314.5 -132t-119.5 -349t118.5 -349.5t313.5 -132.5q158 0 259.5 83.5t125.5 224.5h-342v297h714z" />
    <glyph glyph-name="gdotaccent" unicode="&#x121;" horiz-adv-x="1406" 
d="M700 1245q-88 0 -145 56.5t-57 144.5t57 144.5t145 56.5t144.5 -56.5t56.5 -144.5t-56.5 -144.5t-144.5 -56.5zM948 1116h334v-999q0 -266 -187 -427t-497 -161t-500 137l76 273q171 -113 416 -113q155 0 249.5 80.5t94.5 212.5v10q-120 -149 -332 -149q-147 0 -268 72.5
t-192.5 206.5t-71.5 304q0 169 71.5 301t192.5 202.5t268 70.5q220 0 340 -158zM682 279q114 0 183 77t69 203t-69 203.5t-183 77.5t-183 -77t-69 -202q0 -128 69 -205t183 -77z" />
    <glyph glyph-name="Gcommaaccent" unicode="&#x122;" horiz-adv-x="1691" 
d="M1640 881q5 -102 5 -123q0 -230 -93 -406.5t-267 -274t-404 -97.5q-238 0 -420 96.5t-281.5 273.5t-99.5 408q0 173 57.5 318t161 246.5t253 157.5t329.5 56q341 0 553 -172l-236 -225q-100 100 -313 100q-195 0 -314.5 -132t-119.5 -349t118.5 -349.5t313.5 -132.5
q158 0 259.5 83.5t125.5 224.5h-342v297h714zM618 -451l78 345h312l-127 -345h-263z" />
    <glyph glyph-name="gcommaaccent" unicode="&#x123;" horiz-adv-x="1406" 
d="M915 1597l-88 -383h-311l137 383h262zM948 1116h334v-999q0 -266 -187 -427t-497 -161t-500 137l76 273q171 -113 416 -113q155 0 249.5 80.5t94.5 212.5v10q-120 -149 -332 -149q-147 0 -268 72.5t-192.5 206.5t-71.5 304q0 169 71.5 301t192.5 202.5t268 70.5
q220 0 340 -158zM682 279q114 0 183 77t69 203t-69 203.5t-183 77.5t-183 -77t-69 -202q0 -128 69 -205t183 -77z" />
    <glyph glyph-name="Hbar" unicode="&#x126;" horiz-adv-x="1794" 
d="M1765 1341v-247h-137v-1094h-358v625h-744v-625h-360v1094h-133v247h133v175h360v-175h744v175h358v-175h137zM1270 922v172h-744v-172h744z" />
    <glyph glyph-name="hbar" unicode="&#x127;" horiz-adv-x="1361" 
d="M811 1137q196 0 316 -120t120 -317v-700h-348v647q0 88 -58 140.5t-153 52.5q-97 0 -155 -52.5t-58 -140.5v-647h-348v1217h-147v247h147v133h348v-133h316v-247h-316v-218q63 68 151 103t185 35z" />
    <glyph glyph-name="Imacron" unicode="&#x12a;" horiz-adv-x="692" 
d="M-45 1653v272h776v-272h-776zM166 0v1516h360v-1516h-360z" />
    <glyph glyph-name="imacron" unicode="&#x12b;" horiz-adv-x="604" 
d="M-86 1253v273h776v-273h-776zM127 0v1116h348v-1116h-348z" />
    <glyph glyph-name="Iogonek" unicode="&#x12e;" horiz-adv-x="692" 
d="M504 -248l28 -166q-83 -57 -202 -57q-101 0 -163.5 53t-62.5 139q0 140 172 279h-110v1516h360v-1516q-172 -109 -172 -219q0 -27 17 -42t47 -15q42 0 86 28z" />
    <glyph glyph-name="iogonek" unicode="&#x12f;" horiz-adv-x="604" 
d="M303 1245q-88 0 -145.5 56.5t-57.5 144.5t57.5 144.5t145.5 56.5t144.5 -56.5t56.5 -144.5t-56.5 -144.5t-144.5 -56.5zM367 -276q42 0 86 28l28 -166q-83 -57 -202 -57q-101 0 -163.5 53t-62.5 139q0 140 172 279h-98v1116h348v-1116q-172 -109 -172 -219q0 -27 17 -42
t47 -15z" />
    <glyph glyph-name="Idotaccent" unicode="&#x130;" horiz-adv-x="692" 
d="M344 1645q-88 0 -145.5 56.5t-57.5 143.5q0 88 57.5 144.5t145.5 56.5t144.5 -56.5t56.5 -144.5t-56.5 -144t-144.5 -56zM166 0v1516h360v-1516h-360z" />
    <glyph glyph-name="dotlessi" unicode="&#x131;" horiz-adv-x="604" 
d="M127 0v1116h348v-1116h-348z" />
    <glyph glyph-name="Kcommaaccent" unicode="&#x136;" horiz-adv-x="1478" 
d="M889 778l612 -778h-430l-479 625h-66v-625h-360v1516h360v-594h58l456 594h430zM541 -451l77 345h312l-127 -345h-262z" />
    <glyph glyph-name="kcommaaccent" unicode="&#x137;" horiz-adv-x="1282" 
d="M793 588l518 -588h-441l-370 444h-25v-444h-348v1597h348v-868h31l340 387h438zM432 -451l78 345h311l-127 -345h-262z" />
    <glyph glyph-name="Lacute" unicode="&#x139;" horiz-adv-x="1202" 
d="M813 2007l-391 -342h-295l283 342h403zM526 297h643v-297h-1003v1516h360v-1219z" />
    <glyph glyph-name="lacute" unicode="&#x13a;" horiz-adv-x="604" 
d="M88 1747l283 342h403l-391 -342h-295zM129 0v1597h348v-1597h-348z" />
    <glyph glyph-name="Lcommaaccent" unicode="&#x13b;" horiz-adv-x="1202" 
d="M526 297h643v-297h-1003v1516h360v-1219zM381 -451l78 345h311l-127 -345h-262z" />
    <glyph glyph-name="lcommaaccent" unicode="&#x13c;" horiz-adv-x="604" 
d="M129 0v1597h348v-1597h-348zM61 -451l78 345h312l-127 -345h-263z" />
    <glyph glyph-name="Lcaron" unicode="&#x13d;" horiz-adv-x="1206" 
d="M526 1516v-1219h643v-297h-1003v1516h360zM1171 1516l-151 -457h-313l102 457h362z" />
    <glyph glyph-name="lcaron" unicode="&#x13e;" horiz-adv-x="647" 
d="M129 0v1597h348v-1597h-348zM575 1214l87 383h311l-135 -383h-263z" />
    <glyph glyph-name="Lslash" unicode="&#x141;" horiz-adv-x="1202" 
d="M526 297h643v-297h-1003v498l-98 -70v279l98 67v742h360v-535l209 147v-278l-209 -148v-405z" />
    <glyph glyph-name="lslash" unicode="&#x142;" horiz-adv-x="604" 
d="M639 1128v-278l-162 -115v-735h-348v539l-158 -111v279l158 110v780h348v-583z" />
    <glyph glyph-name="Nacute" unicode="&#x143;" horiz-adv-x="1808" 
d="M686 1665l283 342h403l-391 -342h-295zM166 0v1516h223l901 -908l-8 908h360v-1516h-221l-903 909l8 -909h-360z" />
    <glyph glyph-name="nacute" unicode="&#x144;" horiz-adv-x="1361" 
d="M1161 1608l-391 -342h-295l283 342h403zM811 1137q196 0 316 -120t120 -317v-700h-348v647q0 88 -58 140.5t-153 52.5q-97 0 -155 -52.5t-58 -140.5v-647h-348v1116h336l4 -125q65 72 154.5 109t189.5 37z" />
    <glyph glyph-name="Ncommaaccent" unicode="&#x145;" horiz-adv-x="1808" 
d="M166 0v1516h223l901 -908l-8 908h360v-1516h-221l-903 909l8 -909h-360zM662 -451l77 345h312l-127 -345h-262z" />
    <glyph glyph-name="ncommaaccent" unicode="&#x146;" horiz-adv-x="1361" 
d="M811 1137q196 0 316 -120t120 -317v-700h-348v647q0 88 -58 140.5t-153 52.5q-97 0 -155 -52.5t-58 -140.5v-647h-348v1116h336l4 -125q65 72 154.5 109t189.5 37zM444 -451l78 345h312l-127 -345h-263z" />
    <glyph glyph-name="Ncaron" unicode="&#x147;" horiz-adv-x="1808" 
d="M737 1665l-270 342h319l115 -141l115 141h317l-268 -342h-328zM1282 1516h360v-1516h-221l-903 909l8 -909h-360v1516h223l901 -908z" />
    <glyph glyph-name="ncaron" unicode="&#x148;" horiz-adv-x="1361" 
d="M526 1266l-270 342h319l115 -142l115 142h317l-268 -342h-328zM811 1137q196 0 316 -120t120 -317v-700h-348v647q0 88 -58 140.5t-153 52.5q-97 0 -155 -52.5t-58 -140.5v-647h-348v1116h336l4 -125q65 72 154.5 109t189.5 37z" />
    <glyph glyph-name="Eng" unicode="&#x14a;" horiz-adv-x="1808" 
d="M1282 1516h360v-1622q0 -163 -118.5 -264t-304.5 -101q-199 0 -312 125l94 240q65 -68 146 -68q63 0 99 36t36 95v182l-764 770l8 -909h-360v1516h223l901 -908z" />
    <glyph glyph-name="eng" unicode="&#x14b;" horiz-adv-x="1361" 
d="M811 1137q196 0 316 -120t120 -317v-806q0 -164 -103 -264.5t-270 -100.5q-138 0 -231 35l25 270q44 -8 98 -8q60 0 96.5 41t36.5 108v672q0 88 -58 140.5t-153 52.5q-97 0 -155 -52.5t-58 -140.5v-647h-348v1116h336l4 -125q65 72 154.5 109t189.5 37z" />
    <glyph glyph-name="Omacron" unicode="&#x14c;" horiz-adv-x="1787" 
d="M508 1653v272h776v-272h-776zM897 -20q-182 0 -335 56t-259.5 157.5t-165.5 246.5t-59 318t59 318t165.5 246.5t259.5 157.5t335 56q180 0 331.5 -56t257.5 -157.5t165 -246.5t59 -318t-59 -318t-165 -246.5t-257.5 -157.5t-331.5 -56zM897 276q198 0 320 132.5
t122 349.5q0 216 -122 348.5t-320 132.5q-201 0 -323.5 -132t-122.5 -349t122.5 -349.5t323.5 -132.5z" />
    <glyph glyph-name="omacron" unicode="&#x14d;" horiz-adv-x="1357" 
d="M293 1253v273h776v-273h-776zM682 -20q-277 0 -445.5 159t-168.5 420q0 260 169 419t445 159q272 0 440 -159.5t168 -418.5q0 -260 -168 -419.5t-440 -159.5zM680 279q112 0 181 77t69 203t-69 203.5t-181 77.5q-114 0 -183 -77.5t-69 -203.5t69 -203t183 -77z" />
    <glyph glyph-name="Ohungarumlaut" unicode="&#x150;" horiz-adv-x="1787" 
d="M506 1665l217 342h401l-323 -342h-295zM963 1665l217 342h401l-326 -342h-292zM897 -20q-182 0 -335 56t-259.5 157.5t-165.5 246.5t-59 318t59 318t165.5 246.5t259.5 157.5t335 56q180 0 331.5 -56t257.5 -157.5t165 -246.5t59 -318t-59 -318t-165 -246.5
t-257.5 -157.5t-331.5 -56zM897 276q198 0 320 132.5t122 349.5q0 216 -122 348.5t-320 132.5q-201 0 -323.5 -132t-122.5 -349t122.5 -349.5t323.5 -132.5z" />
    <glyph glyph-name="ohungarumlaut" unicode="&#x151;" horiz-adv-x="1357" 
d="M291 1266l217 342h401l-323 -342h-295zM748 1266l217 342h401l-326 -342h-292zM682 -20q-277 0 -445.5 159t-168.5 420q0 260 169 419t445 159q272 0 440 -159.5t168 -418.5q0 -260 -168 -419.5t-440 -159.5zM680 279q112 0 181 77t69 203t-69 203.5t-181 77.5
q-114 0 -183 -77.5t-69 -203.5t69 -203t183 -77z" />
    <glyph glyph-name="OE" unicode="&#x152;" horiz-adv-x="2545" 
d="M1712 297h735v-297h-1095v129q-197 -149 -480 -149q-356 0 -574 214t-218 564t218 564t574 214q282 0 480 -150v130h1079v-297h-719v-304h647v-297h-647v-321zM897 276q200 0 322 132.5t122 349.5t-122 349t-322 132t-322 -132t-122 -349t122 -349.5t322 -132.5z" />
    <glyph glyph-name="oe" unicode="&#x153;" horiz-adv-x="2138" 
d="M2075 575q0 -81 -9 -139h-766q32 -184 216 -184q139 0 225 102l270 -131q-69 -112 -191 -177.5t-274 -65.5q-141 0 -254 54.5t-184 155.5q-74 -101 -190 -155.5t-261 -54.5q-264 0 -425.5 159t-161.5 420q0 260 161.5 419t425.5 159q146 0 262 -56t191 -157
q68 101 176.5 157t241.5 56q246 0 396.5 -154.5t150.5 -407.5zM1503 864q-164 0 -200 -194h407q-35 194 -207 194zM682 279q112 0 181 77t69 203t-69 203.5t-181 77.5q-114 0 -183 -77.5t-69 -203.5t69 -203t183 -77z" />
    <glyph glyph-name="Racute" unicode="&#x154;" horiz-adv-x="1531" 
d="M1174 2007l-392 -342h-295l283 342h404zM1087 0l-319 524h-242v-524h-360v1516h676q244 0 393 -136.5t149 -359.5q0 -141 -68.5 -250.5t-191.5 -173.5l385 -596h-422zM526 1219v-398h244q109 0 176.5 55t67.5 144t-58 144t-153 55h-277z" />
    <glyph glyph-name="racute" unicode="&#x155;" horiz-adv-x="876" 
d="M944 1608l-391 -342h-295l283 342h403zM469 981q67 74 167.5 115t223.5 41l-22 -320q-160 0 -261.5 -68t-101.5 -176v-573h-348v1116h336z" />
    <glyph glyph-name="Rcommaaccent" unicode="&#x156;" horiz-adv-x="1531" 
d="M1124 596l385 -596h-422l-319 524h-242v-524h-360v1516h676q244 0 393 -136.5t149 -359.5q0 -141 -68.5 -250.5t-191.5 -173.5zM526 1219v-398h244q109 0 176.5 55t67.5 144t-58 144t-153 55h-277zM549 -451l78 345h311l-127 -345h-262z" />
    <glyph glyph-name="rcommaaccent" unicode="&#x157;" horiz-adv-x="876" 
d="M469 981q67 74 167.5 115t223.5 41l-22 -320q-160 0 -261.5 -68t-101.5 -176v-573h-348v1116h336zM145 -451l78 345h312l-127 -345h-263z" />
    <glyph glyph-name="Rcaron" unicode="&#x158;" horiz-adv-x="1531" 
d="M539 1665l-271 342h320l114 -141l115 141h318l-269 -342h-327zM1087 0l-319 524h-242v-524h-360v1516h676q244 0 393 -136.5t149 -359.5q0 -141 -68.5 -250.5t-191.5 -173.5l385 -596h-422zM526 1219v-398h244q109 0 176.5 55t67.5 144t-58 144t-153 55h-277z" />
    <glyph glyph-name="rcaron" unicode="&#x159;" horiz-adv-x="876" 
d="M309 1266l-270 342h319l115 -142l115 142h317l-268 -342h-328zM469 981q67 74 167.5 115t223.5 41l-22 -320q-160 0 -261.5 -68t-101.5 -176v-573h-348v1116h336z" />
    <glyph glyph-name="Sacute" unicode="&#x15a;" horiz-adv-x="1361" 
d="M465 1665l283 342h403l-391 -342h-295zM678 -20q-163 0 -308 50.5t-255 145.5l135 242q184 -142 407 -142q252 0 252 136q0 68 -67 106.5t-211 77.5l-78 20q-108 29 -186 64t-142.5 85.5t-97.5 122.5t-33 165q0 217 161 350t425 133q300 0 530 -174l-157 -250
q-170 127 -369 127q-100 0 -159.5 -34.5t-59.5 -92.5q0 -34 18 -60t56 -46t76 -33t100 -29l78 -22q78 -21 145 -48.5t131.5 -69t110 -91.5t73 -119t27.5 -148q0 -210 -165.5 -338t-436.5 -128z" />
    <glyph glyph-name="sacute" unicode="&#x15b;" horiz-adv-x="1089" 
d="M330 1266l282 342h404l-391 -342h-295zM524 -20q-277 0 -444 139l131 211q151 -80 319 -80q57 0 92 19t35 53t-41 55.5t-127 44.5l-79 20q-161 39 -244.5 107t-83.5 196q0 177 127 284.5t336 107.5q273 0 442 -117l-145 -225q-129 69 -275 69q-60 0 -95.5 -16.5
t-35.5 -46.5q0 -31 36 -50.5t110 -39.5l77 -21q168 -42 260.5 -122t92.5 -222q0 -165 -134.5 -265.5t-353.5 -100.5z" />
    <glyph glyph-name="Scedilla" unicode="&#x15e;" horiz-adv-x="1361" 
d="M1280 446q0 -188 -134.5 -311.5t-361.5 -148.5l-53 -86q89 -7 142 -55.5t53 -120.5q0 -87 -75.5 -141t-203.5 -54q-131 0 -209 47l60 123q50 -33 112 -33q42 0 66 15.5t24 39.5q0 23 -20.5 35.5t-56.5 12.5q-32 0 -66 -15l-43 76l80 154q-281 21 -479 192l135 242
q184 -142 407 -142q252 0 252 136q0 68 -67 106.5t-211 77.5l-78 20q-108 29 -186 64t-142.5 85.5t-97.5 122.5t-33 165q0 217 161 350t425 133q300 0 530 -174l-157 -250q-170 127 -369 127q-100 0 -159.5 -34.5t-59.5 -92.5q0 -34 18 -60t56 -46t76 -33t100 -29l78 -22
q78 -21 145 -48.5t131.5 -69t110 -91.5t73 -119t27.5 -148z" />
    <glyph glyph-name="scedilla" unicode="&#x15f;" horiz-adv-x="1089" 
d="M1012 346q0 -141 -100 -236t-271 -122l-53 -88q89 -7 141.5 -55.5t52.5 -120.5q0 -87 -75 -141t-203 -54q-131 0 -209 47l59 123q50 -33 113 -33q42 0 66 15.5t24 39.5q0 23 -21 35.5t-57 12.5q-31 0 -65 -15l-43 76l80 152q-229 19 -371 137l131 211q151 -80 319 -80
q57 0 92 19t35 53t-41 55.5t-127 44.5l-79 20q-161 39 -244.5 107t-83.5 196q0 177 127 284.5t336 107.5q273 0 442 -117l-145 -225q-129 69 -275 69q-60 0 -95.5 -16.5t-35.5 -46.5q0 -31 36 -50.5t110 -39.5l77 -21q168 -42 260.5 -122t92.5 -222z" />
    <glyph glyph-name="Scaron" unicode="&#x160;" horiz-adv-x="1361" 
d="M516 1665l-270 342h319l115 -141l115 141h317l-268 -342h-328zM793 922q78 -21 145 -48.5t131.5 -69t110 -91.5t73 -119t27.5 -148q0 -210 -165.5 -338t-436.5 -128q-163 0 -308 50.5t-255 145.5l135 242q184 -142 407 -142q252 0 252 136q0 68 -67 106.5t-211 77.5
l-78 20q-108 29 -186 64t-142.5 85.5t-97.5 122.5t-33 165q0 217 161 350t425 133q300 0 530 -174l-157 -250q-170 127 -369 127q-100 0 -159.5 -34.5t-59.5 -92.5q0 -34 18 -60t56 -46t76 -33t100 -29z" />
    <glyph glyph-name="scaron" unicode="&#x161;" horiz-adv-x="1089" 
d="M381 1266l-270 342h319l115 -142l114 142h318l-268 -342h-328zM659 690q168 -42 260.5 -122t92.5 -222q0 -165 -134.5 -265.5t-353.5 -100.5q-277 0 -444 139l131 211q151 -80 319 -80q57 0 92 19t35 53t-41 55.5t-127 44.5l-79 20q-161 39 -244.5 107t-83.5 196
q0 177 127 284.5t336 107.5q273 0 442 -117l-145 -225q-129 69 -275 69q-60 0 -95.5 -16.5t-35.5 -46.5q0 -31 36 -50.5t110 -39.5z" />
    <glyph glyph-name="uni0162" unicode="&#x162;" horiz-adv-x="1318" 
d="M840 0h-80l-62 -100q89 -7 142 -55.5t53 -120.5q0 -87 -75.5 -141t-203.5 -54q-130 0 -208 47l59 123q49 -33 113 -33q42 0 66 15.5t24 39.5q0 23 -21 35.5t-57 12.5q-32 0 -66 -15l-43 76l88 170h-90v1219h-448v297h1257v-297h-448v-1219z" />
    <glyph glyph-name="uni0163" unicode="&#x163;" horiz-adv-x="829" 
d="M481 -20q-21 0 -53 4l-51 -84q90 -7 143 -55.5t53 -120.5q0 -87 -76 -141t-204 -54q-131 0 -209 47l59 123q49 -33 113 -33q42 0 66 15.5t24 39.5q0 23 -21 35.5t-57 12.5q-31 0 -65 -15l-43 76l106 211q-71 48 -110 128.5t-39 182.5v1092h348v-328h291v-285h-291v-405
q0 -66 36 -106.5t93 -40.5q98 0 178 34v-278q-124 -55 -291 -55z" />
    <glyph glyph-name="Tcaron" unicode="&#x164;" horiz-adv-x="1318" 
d="M494 1665l-271 342h320l114 -141l115 141h318l-269 -342h-327zM1288 1516v-297h-448v-1219h-361v1219h-448v297h1257z" />
    <glyph glyph-name="tcaron" unicode="&#x165;" horiz-adv-x="829" 
d="M662 1597h311l-135 -383h-263zM465 426q0 -66 36 -106.5t93 -40.5q98 0 178 34v-278q-124 -55 -291 -55q-163 0 -263.5 102.5t-100.5 269.5v1092h348v-328h291v-285h-291v-405z" />
    <glyph glyph-name="Tbar" unicode="&#x166;" horiz-adv-x="1318" 
d="M1288 1219h-448v-353h227v-248h-227v-618h-361v618h-223v248h223v353h-448v297h1257v-297z" />
    <glyph glyph-name="tbar" unicode="&#x167;" horiz-adv-x="829" 
d="M594 279q98 0 178 34v-278q-124 -55 -291 -55q-163 0 -263.5 102.5t-100.5 269.5v1092h348v-328h291v-285h-291v-139h268v-246h-268v-20q0 -66 36 -106.5t93 -40.5z" />
    <glyph glyph-name="Umacron" unicode="&#x16a;" horiz-adv-x="1667" 
d="M446 1653v272h777v-272h-777zM836 -20q-309 0 -497.5 168t-188.5 444v924h358v-910q0 -148 90 -239t238 -91q145 0 234 91t89 239v910h359v-924q0 -277 -187 -444.5t-495 -167.5z" />
    <glyph glyph-name="umacron" unicode="&#x16b;" horiz-adv-x="1298" 
d="M260 1253v273h776v-273h-776zM649 -20q-241 0 -388.5 130.5t-147.5 344.5v661h348v-647q0 -86 51.5 -138t136.5 -52t137 52t52 138v647h348v-661q0 -214 -147.5 -344.5t-389.5 -130.5z" />
    <glyph glyph-name="Uring" unicode="&#x16e;" horiz-adv-x="1667" 
d="M836 1595q-112 0 -181 62.5t-69 163.5q0 100 69 161.5t181 61.5t179.5 -61.5t67.5 -161.5q0 -102 -67.5 -164t-179.5 -62zM836 1749q31 0 50 20t19 52q0 31 -19 50t-50 19q-32 0 -52 -19t-20 -50q0 -32 20 -52t52 -20zM836 -20q-309 0 -497.5 168t-188.5 444v924h358
v-910q0 -148 90 -239t238 -91q145 0 234 91t89 239v910h359v-924q0 -277 -187 -444.5t-495 -167.5z" />
    <glyph glyph-name="uring" unicode="&#x16f;" horiz-adv-x="1298" 
d="M649 1196q-113 0 -181.5 62t-68.5 163q0 100 69 162t181 62t180 -62t68 -162q0 -101 -68 -163t-180 -62zM649 1350q31 0 50.5 19.5t19.5 51.5q0 31 -19.5 50.5t-50.5 19.5q-32 0 -51.5 -19.5t-19.5 -50.5q0 -32 19.5 -51.5t51.5 -19.5zM649 -20q-241 0 -388.5 130.5
t-147.5 344.5v661h348v-647q0 -86 51.5 -138t136.5 -52t137 52t52 138v647h348v-661q0 -214 -147.5 -344.5t-389.5 -130.5z" />
    <glyph glyph-name="Uhungarumlaut" unicode="&#x170;" horiz-adv-x="1667" 
d="M444 1665l218 342h401l-324 -342h-295zM901 1665l217 342h402l-326 -342h-293zM836 -20q-309 0 -497.5 168t-188.5 444v924h358v-910q0 -148 90 -239t238 -91q145 0 234 91t89 239v910h359v-924q0 -277 -187 -444.5t-495 -167.5z" />
    <glyph glyph-name="uhungarumlaut" unicode="&#x171;" horiz-adv-x="1298" 
d="M258 1266l217 342h402l-324 -342h-295zM715 1266l217 342h401l-325 -342h-293zM649 -20q-241 0 -388.5 130.5t-147.5 344.5v661h348v-647q0 -86 51.5 -138t136.5 -52t137 52t52 138v647h348v-661q0 -214 -147.5 -344.5t-389.5 -130.5z" />
    <glyph glyph-name="Uogonek" unicode="&#x172;" horiz-adv-x="1667" 
d="M1159 1516h359v-924q0 -228 -131 -385t-357 -207q-172 -109 -172 -219q0 -27 17 -42t47 -15q42 0 86 28l28 -166q-83 -57 -202 -57q-101 0 -163.5 53t-62.5 139q0 130 150 261q-278 22 -443 186.5t-165 423.5v924h358v-910q0 -148 90 -239t238 -91q145 0 234 91t89 239
v910z" />
    <glyph glyph-name="uogonek" unicode="&#x173;" horiz-adv-x="1298" 
d="M838 1116h348v-661q0 -172 -98 -292.5t-267 -162.5q-172 -109 -172 -219q0 -27 17 -42t47 -15q42 0 86 28l28 -166q-83 -57 -202 -57q-101 0 -163.5 53t-62.5 139q0 136 154 265q-202 26 -321 152t-119 317v661h348v-647q0 -86 51.5 -138t136.5 -52t137 52t52 138v647z
" />
    <glyph glyph-name="Wcircumflex" unicode="&#x174;" horiz-adv-x="2367" 
d="M1184 1806l-115 -141h-319l270 342h328l268 -342h-318zM1985 1516h382l-512 -1516h-333l-338 1016l-336 -1016h-334l-514 1516h383l315 -1035l320 1035h332l321 -1035z" />
    <glyph glyph-name="wcircumflex" unicode="&#x175;" horiz-adv-x="1892" 
d="M944 1407l-115 -141h-319l270 342h328l268 -342h-317zM1501 1116h381l-397 -1116h-346l-193 655l-192 -655h-346l-398 1116h379l215 -721l201 721h282l199 -721z" />
    <glyph glyph-name="Ycircumflex" unicode="&#x176;" horiz-adv-x="1456" 
d="M729 1806l-115 -141h-319l270 342h328l268 -342h-317zM1059 1516h381l-533 -986v-530h-358v530l-533 986h385l330 -668z" />
    <glyph glyph-name="ycircumflex" unicode="&#x177;" horiz-adv-x="1312" 
d="M639 1407l-115 -141h-319l270 342h328l268 -342h-317zM838 1116h348v-999q0 -266 -175 -427t-464 -161q-274 0 -443 137l76 273q152 -113 359 -113q130 0 212 77t87 203q-120 -126 -310 -126q-186 0 -299.5 120t-113.5 318v698h348v-647q0 -86 51 -138t137 -52
q85 0 136 52t51 138v647z" />
    <glyph glyph-name="Ydieresis" unicode="&#x178;" horiz-adv-x="1456" 
d="M459 1645q-88 0 -145.5 56.5t-57.5 143.5q0 88 57.5 144.5t145.5 56.5t144 -56.5t56 -144.5t-56 -144t-144 -56zM1006 1645q-88 0 -145.5 56.5t-57.5 143.5q0 88 57.5 144.5t145.5 56.5t144 -56.5t56 -144.5t-56 -144t-144 -56zM1059 1516h381l-533 -986v-530h-358v530
l-533 986h385l330 -668z" />
    <glyph glyph-name="Zacute" unicode="&#x179;" horiz-adv-x="1411" 
d="M1171 2007l-391 -342h-295l283 342h403zM569 297h768v-297h-1261v223l745 996h-733v297h1229v-222z" />
    <glyph glyph-name="zacute" unicode="&#x17a;" horiz-adv-x="1157" 
d="M358 1266l283 342h403l-391 -342h-295zM80 0v223l487 608h-477v285h971l2 -221l-488 -608h506v-287h-1001z" />
    <glyph glyph-name="Zdotaccent" unicode="&#x17b;" horiz-adv-x="1411" 
d="M702 1645q-88 0 -145 56t-57 144t57 144.5t145 56.5t144.5 -56.5t56.5 -144.5t-56.5 -144t-144.5 -56zM569 297h768v-297h-1261v223l745 996h-733v297h1229v-222z" />
    <glyph glyph-name="zdotaccent" unicode="&#x17c;" horiz-adv-x="1157" 
d="M575 1245q-88 0 -145 56.5t-57 144.5t57 144.5t145 56.5t144.5 -56.5t56.5 -144.5t-56.5 -144.5t-144.5 -56.5zM80 0v223l487 608h-477v285h971l2 -221l-488 -608h506v-287h-1001z" />
    <glyph glyph-name="Zcaron" unicode="&#x17d;" horiz-adv-x="1411" 
d="M537 1665l-271 342h320l114 -141l115 141h318l-269 -342h-327zM569 297h768v-297h-1261v223l745 996h-733v297h1229v-222z" />
    <glyph glyph-name="zcaron" unicode="&#x17e;" horiz-adv-x="1157" 
d="M410 1266l-271 342h320l114 -142l115 142h318l-269 -342h-327zM575 287h506v-287h-1001v223l487 608h-477v285h971l2 -221z" />
    <glyph glyph-name="florin" unicode="&#x192;" horiz-adv-x="1060" 
d="M866 1239q-80 0 -114 -35.5t-45 -109.5l-43 -242h288v-285h-340l-137 -772h-348l137 772h-162v285h213l62 348q30 163 149 249.5t291 86.5q127 0 209 -35l-39 -278q-56 16 -121 16z" />
    <glyph glyph-name="Scommaaccent" unicode="&#x218;" horiz-adv-x="1361" 
d="M678 -20q-163 0 -308 50.5t-255 145.5l135 242q184 -142 407 -142q252 0 252 136q0 68 -67 106.5t-211 77.5l-78 20q-108 29 -186 64t-142.5 85.5t-97.5 122.5t-33 165q0 217 161 350t425 133q300 0 530 -174l-157 -250q-170 127 -369 127q-100 0 -159.5 -34.5
t-59.5 -92.5q0 -34 18 -60t56 -46t76 -33t100 -29l78 -22q78 -21 145 -48.5t131.5 -69t110 -91.5t73 -119t27.5 -148q0 -210 -165.5 -338t-436.5 -128zM449 -451l77 345h312l-127 -345h-262z" />
    <glyph glyph-name="scommaaccent" unicode="&#x219;" horiz-adv-x="1089" 
d="M524 -20q-277 0 -444 139l131 211q151 -80 319 -80q57 0 92 19t35 53t-41 55.5t-127 44.5l-79 20q-161 39 -244.5 107t-83.5 196q0 177 127 284.5t336 107.5q273 0 442 -117l-145 -225q-129 69 -275 69q-60 0 -95.5 -16.5t-35.5 -46.5q0 -31 36 -50.5t110 -39.5l77 -21
q168 -42 260.5 -122t92.5 -222q0 -165 -134.5 -265.5t-353.5 -100.5zM305 -451l78 345h311l-127 -345h-262z" />
    <glyph glyph-name="uni021A" unicode="&#x21a;" horiz-adv-x="1318" 
d="M1288 1516v-297h-448v-1219h-361v1219h-448v297h1257zM416 -451l78 345h311l-127 -345h-262z" />
    <glyph glyph-name="uni021B" unicode="&#x21b;" horiz-adv-x="829" 
d="M594 279q98 0 178 34v-278q-124 -55 -291 -55q-163 0 -263.5 102.5t-100.5 269.5v1092h348v-328h291v-285h-291v-405q0 -66 36 -106.5t93 -40.5zM182 -451l78 345h311l-127 -345h-262z" />
    <glyph glyph-name="circumflex" unicode="&#x2c6;" horiz-adv-x="1228" 
d="M930 1266h-318l-114 141l-115 -141h-320l271 342h328z" />
    <glyph glyph-name="caron" unicode="&#x2c7;" horiz-adv-x="1228" 
d="M612 1608h318l-268 -342h-328l-271 342h320l115 -142z" />
    <glyph glyph-name="breve" unicode="&#x2d8;" horiz-adv-x="1228" 
d="M446 1247q-178 0 -286.5 99t-108.5 262h260q0 -72 37.5 -117t97.5 -45q61 0 98.5 45t37.5 117h260q0 -163 -108.5 -262t-287.5 -99z" />
    <glyph glyph-name="dotaccent" unicode="&#x2d9;" horiz-adv-x="1228" 
d="M293 1245q-88 0 -145.5 56.5t-57.5 144.5t57.5 144.5t145.5 56.5t144.5 -56.5t56.5 -144.5t-56.5 -144.5t-144.5 -56.5z" />
    <glyph glyph-name="ring" unicode="&#x2da;" horiz-adv-x="1228" 
d="M342 1196q-112 0 -181 62t-69 163q0 100 69 162t181 62t180 -62t68 -162q0 -101 -68 -163t-180 -62zM342 1350q31 0 50.5 19.5t19.5 51.5q0 31 -19.5 50.5t-50.5 19.5q-32 0 -52 -19.5t-20 -50.5q0 -32 20 -51.5t52 -19.5z" />
    <glyph glyph-name="ogonek" unicode="&#x2db;" horiz-adv-x="1228" 
d="M326 -471q-101 0 -163.5 53t-62.5 139q0 116 108.5 223t313.5 214v-158q-172 -109 -172 -219q0 -27 17 -42t47 -15q42 0 86 28l28 -166q-83 -57 -202 -57z" />
    <glyph glyph-name="tilde" unicode="&#x2dc;" horiz-adv-x="1228" 
d="M635 1257q-53 0 -119.5 25.5t-123.5 50.5t-87 25q-33 0 -51 -21.5t-18 -58.5h-185q0 148 68 237t180 89q57 0 123 -25t121 -49.5t86 -24.5q69 0 69 78h185q0 -155 -67 -240.5t-181 -85.5z" />
    <glyph glyph-name="hungarumlaut" unicode="&#x2dd;" horiz-adv-x="1228" 
d="M231 1266l218 342h401l-324 -342h-295zM688 1266l217 342h402l-326 -342h-293z" />
    <glyph glyph-name="gravecomb" unicode="&#x300;" horiz-adv-x="0" 
d="M-496 1266l-391 342h404l282 -342h-295z" />
    <glyph glyph-name="acutecomb" unicode="&#x301;" horiz-adv-x="0" 
d="M-633 1266l283 342h403l-391 -342h-295z" />
    <glyph glyph-name="uni0302" unicode="&#x302;" horiz-adv-x="0" 
d="M-66 1266h-317l-115 141l-114 -141h-320l270 342h328z" />
    <glyph glyph-name="tildecomb" unicode="&#x303;" horiz-adv-x="0" 
d="M-297 1257q-53 0 -119.5 25.5t-123.5 50.5t-87 25q-33 0 -51 -21.5t-18 -58.5h-185q0 148 68 237t180 89q57 0 123 -25t121 -49.5t86 -24.5q70 0 70 78h184q0 -155 -67 -240.5t-181 -85.5z" />
    <glyph glyph-name="uni0304" unicode="&#x304;" horiz-adv-x="0" 
d="M-838 1253v273h777v-273h-777z" />
    <glyph glyph-name="uni0306" unicode="&#x306;" horiz-adv-x="0" 
d="M-446 1247q-179 0 -287.5 99t-108.5 262h260q0 -72 38 -117t98 -45q61 0 98 45t37 117h260q0 -163 -108.5 -262t-286.5 -99z" />
    <glyph glyph-name="uni0307" unicode="&#x307;" horiz-adv-x="0" 
d="M-291 1245q-88 0 -145.5 56.5t-57.5 144.5t57.5 144.5t145.5 56.5t144.5 -56.5t56.5 -144.5t-56.5 -144.5t-144.5 -56.5z" />
    <glyph glyph-name="uni0308" unicode="&#x308;" horiz-adv-x="0" 
d="M-840 1245q-88 0 -145 56.5t-57 144.5t57 144.5t145 56.5t144.5 -56.5t56.5 -144.5t-56.5 -144.5t-144.5 -56.5zM-293 1245q-88 0 -145.5 56.5t-57.5 144.5t57.5 144.5t145.5 56.5t144.5 -56.5t56.5 -144.5t-56.5 -144.5t-144.5 -56.5z" />
    <glyph glyph-name="uni030A" unicode="&#x30a;" horiz-adv-x="0" 
d="M-340 1196q-112 0 -181 62t-69 163q0 100 69 162t181 62t180 -62t68 -162q0 -101 -68 -163t-180 -62zM-340 1350q31 0 50.5 19.5t19.5 51.5q0 31 -19.5 50.5t-50.5 19.5q-32 0 -52 -19.5t-20 -50.5q0 -32 20 -51.5t52 -19.5z" />
    <glyph glyph-name="uni030B" unicode="&#x30b;" horiz-adv-x="0" 
d="M-1012 1266l217 342h402l-324 -342h-295zM-555 1266l217 342h401l-325 -342h-293z" />
    <glyph glyph-name="uni030C" unicode="&#x30c;" horiz-adv-x="0" 
d="M-383 1608h317l-268 -342h-328l-270 342h320l114 -142z" />
    <glyph glyph-name="uni0312" unicode="&#x312;" horiz-adv-x="0" 
d="M-492 1214l138 383h262l-88 -383h-312z" />
    <glyph glyph-name="uni0326" unicode="&#x326;" horiz-adv-x="0" 
d="M-434 -451l78 345h311l-127 -345h-262z" />
    <glyph glyph-name="uni0327" unicode="&#x327;" horiz-adv-x="0" 
d="M-219 -100q89 -7 141.5 -55.5t52.5 -120.5q0 -87 -75 -141t-203 -54q-131 0 -209 47l59 123q49 -33 113 -33q42 0 66 15.5t24 39.5q0 23 -21 35.5t-57 12.5q-31 0 -65 -15l-43 76l88 170h190z" />
    <glyph glyph-name="uni0328" unicode="&#x328;" horiz-adv-x="0" 
d="M-223 -471q-101 0 -163.5 53t-62.5 139q0 116 108.5 223t313.5 214v-158q-172 -109 -172 -219q0 -27 17 -42t47 -15q42 0 86 28l29 -166q-83 -57 -203 -57z" />
    <glyph glyph-name="uni0335" unicode="&#x335;" horiz-adv-x="0" 
d="M-1100 473v248h811v-248h-811z" />
    <glyph glyph-name="uni0336" unicode="&#x336;" horiz-adv-x="0" 
d="M-1810 473v248h1732v-248h-1732z" />
    <glyph glyph-name="uni0337" unicode="&#x337;" horiz-adv-x="0" 
d="M-541 899l338 240v-279l-338 -237v47l-329 -232v279l329 229v-47z" />
    <glyph glyph-name="uni0338" unicode="&#x338;" horiz-adv-x="0" 
d="M-922 -20l-180 110l848 1446l180 -109z" />
    <glyph glyph-name="uni0394" unicode="&#x394;" horiz-adv-x="1738" 
d="M1036 1516l637 -1516h-1607l636 1516h334zM567 297h604l-301 772z" />
    <glyph glyph-name="uni03A9" unicode="&#x3a9;" horiz-adv-x="1669" 
d="M1206 344v-47h340v-297h-622v580q132 27 209 112t77 211q0 152 -103 244t-271 92t-270.5 -92t-102.5 -244q0 -125 77 -210t210 -113v-580h-625v297h342v47q-179 77 -278 222t-99 337q0 188 93 331.5t262.5 222.5t390.5 79q333 0 538 -174.5t205 -458.5q0 -190 -98.5 -336
t-274.5 -223z" />
    <glyph glyph-name="uni03BC" unicode="&#x3bc;" horiz-adv-x="1327" 
d="M852 1116h348v-1116h-336l-4 80q-81 -100 -198 -100q-109 0 -187 90v-521h-348v1567h348v-647q0 -86 51.5 -138t135.5 -52q86 0 138 52t52 138v647z" />
    <glyph glyph-name="pi" unicode="&#x3c0;" horiz-adv-x="1445" 
d="M1247 279q61 0 109 34v-278q-96 -55 -221 -55q-132 0 -213.5 78.5t-81.5 207.5v565h-273v-831h-348v831h-151v285h1286v-285h-166v-493q0 -26 16.5 -42.5t42.5 -16.5z" />
    <glyph glyph-name="Wgrave" unicode="&#x1e80;" horiz-adv-x="2367" 
d="M1401 1665h-295l-391 342h403zM1985 1516h382l-512 -1516h-333l-338 1016l-336 -1016h-334l-514 1516h383l315 -1035l320 1035h332l321 -1035z" />
    <glyph glyph-name="wgrave" unicode="&#x1e81;" horiz-adv-x="1892" 
d="M1161 1266h-295l-391 342h404zM1501 1116h381l-397 -1116h-346l-193 655l-192 -655h-346l-398 1116h379l215 -721l201 721h282l199 -721z" />
    <glyph glyph-name="Wacute" unicode="&#x1e82;" horiz-adv-x="2367" 
d="M1655 2007l-391 -342h-295l282 342h404zM1985 1516h382l-512 -1516h-333l-338 1016l-336 -1016h-334l-514 1516h383l315 -1035l320 1035h332l321 -1035z" />
    <glyph glyph-name="wacute" unicode="&#x1e83;" horiz-adv-x="1892" 
d="M1415 1608l-391 -342h-295l283 342h403zM1501 1116h381l-397 -1116h-346l-193 655l-192 -655h-346l-398 1116h379l215 -721l201 721h282l199 -721z" />
    <glyph glyph-name="Wdieresis" unicode="&#x1e84;" horiz-adv-x="2367" 
d="M913 1645q-88 0 -145 56t-57 144t57 144.5t145 56.5t144.5 -56.5t56.5 -144.5t-56.5 -144t-144.5 -56zM1460 1645q-88 0 -145.5 56.5t-57.5 143.5q0 88 57.5 144.5t145.5 56.5t144.5 -56.5t56.5 -144.5t-56.5 -144t-144.5 -56zM1985 1516h382l-512 -1516h-333l-338 1016
l-336 -1016h-334l-514 1516h383l315 -1035l320 1035h332l321 -1035z" />
    <glyph glyph-name="wdieresis" unicode="&#x1e85;" horiz-adv-x="1892" 
d="M674 1245q-88 0 -145.5 56.5t-57.5 144.5t57.5 144.5t145.5 56.5t144 -56.5t56 -144.5t-56 -144.5t-144 -56.5zM1221 1245q-88 0 -145.5 56.5t-57.5 144.5t57.5 144.5t145.5 56.5t144 -56.5t56 -144.5t-56 -144.5t-144 -56.5zM1501 1116h381l-397 -1116h-346l-193 655
l-192 -655h-346l-398 1116h379l215 -721l201 721h282l199 -721z" />
    <glyph glyph-name="uni1E9E" unicode="&#x1e9e;" horiz-adv-x="1447" 
d="M1094 805q132 -55 205 -149.5t73 -217.5q0 -206 -144 -332t-380 -126q-131 0 -219 30l30 285q56 -19 125 -19q98 0 156.5 52t58.5 137q0 87 -71 139.5t-189 52.5v273q83 0 133 42.5t50 114.5q0 69 -55.5 110.5t-147.5 41.5t-148.5 -42.5t-56.5 -111.5v-1085h-358v1126
q0 185 155 297.5t408 112.5q258 0 416.5 -110.5t158.5 -290.5q0 -106 -52 -190.5t-148 -139.5z" />
    <glyph glyph-name="Ygrave" unicode="&#x1ef2;" horiz-adv-x="1456" 
d="M946 1665h-295l-391 342h404zM1059 1516h381l-533 -986v-530h-358v530l-533 986h385l330 -668z" />
    <glyph glyph-name="ygrave" unicode="&#x1ef3;" horiz-adv-x="1312" 
d="M856 1266h-295l-391 342h403zM838 1116h348v-999q0 -266 -175 -427t-464 -161q-274 0 -443 137l76 273q152 -113 359 -113q130 0 212 77t87 203q-120 -126 -310 -126q-186 0 -299.5 120t-113.5 318v698h348v-647q0 -86 51 -138t137 -52q85 0 136 52t51 138v647z" />
    <glyph glyph-name="endash" unicode="&#x2013;" horiz-adv-x="1310" 
d="M119 473v248h1073v-248h-1073z" />
    <glyph glyph-name="emdash" unicode="&#x2014;" horiz-adv-x="2076" 
d="M119 473v248h1839v-248h-1839z" />
    <glyph glyph-name="quoteleft" unicode="&#x2018;" horiz-adv-x="624" 
d="M567 1516l-133 -568h-362l182 568h313z" />
    <glyph glyph-name="quoteright" unicode="&#x2019;" horiz-adv-x="616" 
d="M82 948l131 568h362l-180 -568h-313z" />
    <glyph glyph-name="quotesinglbase" unicode="&#x201a;" horiz-adv-x="616" 
d="M23 -252l133 567h362l-182 -567h-313z" />
    <glyph glyph-name="quotedblleft" unicode="&#x201c;" horiz-adv-x="1130" 
d="M569 1518l-133 -568h-362l182 568h313zM1073 1518l-131 -568h-362l180 568h313z" />
    <glyph glyph-name="quotedblright" unicode="&#x201d;" horiz-adv-x="1124" 
d="M82 946l131 567h362l-180 -567h-313zM586 946l133 567h362l-182 -567h-313z" />
    <glyph glyph-name="quotedblbase" unicode="&#x201e;" horiz-adv-x="1120" 
d="M23 -252l133 567h362l-182 -567h-313zM528 -252l131 567h363l-180 -567h-314z" />
    <glyph glyph-name="dagger" unicode="&#x2020;" horiz-adv-x="1204" 
d="M1128 1116v-297h-346v-1270h-360v1270h-346v297h346v481h360v-481h346z" />
    <glyph glyph-name="daggerdbl" unicode="&#x2021;" horiz-adv-x="1204" 
d="M1128 819h-346v-164h346v-297h-346v-809h-360v809h-346v297h346v164h-346v297h346v481h360v-481h346v-297z" />
    <glyph glyph-name="bullet" unicode="&#x2022;" horiz-adv-x="845" 
d="M422 340q-126 0 -203.5 76t-77.5 202q0 127 77.5 204t203.5 77q127 0 203.5 -76.5t76.5 -204.5q0 -126 -76.5 -202t-203.5 -76z" />
    <glyph glyph-name="ellipsis" unicode="&#x2026;" horiz-adv-x="1773" 
d="M303 -20q-91 0 -155 65t-64 156t64 155t155 64t155 -64t64 -155t-64 -156t-155 -65zM887 -20q-91 0 -155 65t-64 156t64 155t155 64t155 -64t64 -155t-64 -156t-155 -65zM1470 -20q-91 0 -155 65t-64 156t64 155t155 64t155.5 -64t64.5 -155t-64.5 -156t-155.5 -65z" />
    <glyph glyph-name="perthousand" unicode="&#x2030;" horiz-adv-x="2772" 
d="M473 825q-183 0 -295 98t-112 259q0 160 112 257t295 97t294.5 -97t111.5 -257q0 -161 -111.5 -259t-294.5 -98zM596 -20l-180 110l848 1446l180 -109zM473 1047q56 0 90.5 37t34.5 98t-34.5 97t-90.5 36q-57 0 -92 -36t-35 -97t35 -98t92 -37zM1399 -20
q-183 0 -295.5 97.5t-112.5 258.5q0 160 112.5 257t295.5 97t294 -97t111 -257q0 -161 -111 -258.5t-294 -97.5zM2304 -20q-183 0 -295.5 97.5t-112.5 258.5q0 160 112.5 257t295.5 97t294.5 -97t111.5 -257q0 -161 -111.5 -258.5t-294.5 -97.5zM1399 201q56 0 90.5 37
t34.5 98t-34.5 97t-90.5 36q-59 0 -94 -36t-35 -97t35 -98t94 -37zM2304 201q56 0 90.5 37t34.5 98t-34.5 97t-90.5 36q-57 0 -92 -36t-35 -97t35 -98t92 -37z" />
    <glyph glyph-name="guilsinglleft" unicode="&#x2039;" horiz-adv-x="874" 
d="M805 1030l-361 -477l361 -475h-371l-373 475l373 477h371z" />
    <glyph glyph-name="guilsinglright" unicode="&#x203a;" horiz-adv-x="874" 
d="M440 1030l373 -477l-373 -475h-370l360 475l-360 477h370z" />
    <glyph glyph-name="fraction" unicode="&#x2044;" horiz-adv-x="487" 
d="M-92 -20l-180 110l847 1446l181 -109z" />
    <glyph glyph-name="uni2070" unicode="&#x2070;" horiz-adv-x="819" 
d="M414 799q-164 0 -263.5 128t-99.5 339t99.5 339t263.5 128q159 0 257.5 -128.5t98.5 -338.5t-98.5 -338.5t-257.5 -128.5zM414 979q61 0 98 79.5t37 207.5q0 130 -37 209t-98 79q-62 0 -100 -79.5t-38 -208.5q0 -128 38.5 -207.5t99.5 -79.5z" />
    <glyph glyph-name="uni2074" unicode="&#x2074;" horiz-adv-x="823" 
d="M432 811v164h-405v149l456 596h170v-563h117v-182h-117v-164h-221zM238 1149h200l2 264z" />
    <glyph glyph-name="uni2075" unicode="&#x2075;" horiz-adv-x="755" 
d="M307 799q-182 0 -278 78l65 157q73 -55 195 -55q83 0 133.5 38t50.5 101q0 46 -31.5 76.5t-83.5 30.5q-37 0 -68.5 -15t-45.5 -36l-146 20l66 526h485v-178h-299l-20 -147q16 8 67 8q133 0 217 -74.5t84 -195.5q0 -149 -108.5 -241.5t-282.5 -92.5z" />
    <glyph glyph-name="uni2076" unicode="&#x2076;" horiz-adv-x="757" 
d="M432 1372q116 0 200.5 -78t84.5 -200q0 -132 -91.5 -213.5t-240.5 -81.5t-240.5 80.5t-91.5 212.5q0 83 27.5 152t87.5 151l238 325h245l-268 -350q14 2 49 2zM385 979q46 0 76.5 31.5t30.5 83.5q0 50 -30.5 81t-76.5 31q-47 0 -76.5 -30.5t-29.5 -81.5q0 -52 29 -83.5
t77 -31.5z" />
    <glyph glyph-name="uni2077" unicode="&#x2077;" horiz-adv-x="681" 
d="M31 1720h639l-297 -909h-230l244 731h-356v178z" />
    <glyph glyph-name="uni2078" unicode="&#x2078;" horiz-adv-x="790" 
d="M590 1284q65 -33 101 -87t36 -124q0 -124 -91 -199t-241 -75q-149 0 -240.5 74t-91.5 194q0 72 37 128.5t103 88.5q-54 31 -84.5 81.5t-30.5 111.5q0 117 84 186.5t223 69.5q138 0 222.5 -70t84.5 -184q0 -128 -112 -195zM395 1554q-36 0 -59 -26t-23 -66
q0 -41 22.5 -65.5t59.5 -24.5t59.5 24.5t22.5 65.5q0 40 -23 66t-59 26zM395 979q46 0 76.5 29.5t30.5 76.5q0 49 -30.5 79t-76.5 30q-47 0 -76.5 -30t-29.5 -79q0 -47 29.5 -76.5t76.5 -29.5z" />
    <glyph glyph-name="uni2079" unicode="&#x2079;" horiz-adv-x="757" 
d="M373 1733q149 0 240.5 -80.5t91.5 -212.5q0 -83 -27.5 -152t-87.5 -151l-238 -326h-246l269 350q-14 -2 -49 -2q-116 0 -200.5 78.5t-84.5 200.5q0 132 91.5 213.5t240.5 81.5zM266 1438q0 -50 30.5 -81.5t76.5 -31.5q47 0 76.5 31t29.5 82q0 52 -29 83t-77 31
q-47 0 -77 -31t-30 -83z" />
    <glyph glyph-name="uni2080" unicode="&#x2080;" horiz-adv-x="819" 
d="M414 -217q-164 0 -263.5 128t-99.5 339t99.5 339t263.5 128q159 0 257.5 -128.5t98.5 -338.5t-98.5 -338.5t-257.5 -128.5zM414 -37q61 0 98 79.5t37 207.5q0 130 -37 209.5t-98 79.5q-62 0 -100 -80t-38 -209q0 -128 38.5 -207.5t99.5 -79.5z" />
    <glyph glyph-name="uni2081" unicode="&#x2081;" horiz-adv-x="585" 
d="M262 -205v633l-149 -104l-109 153l309 228h168v-910h-219z" />
    <glyph glyph-name="uni2082" unicode="&#x2082;" horiz-adv-x="765" 
d="M57 -205v139l283 308q1 1 12 13t15 17t16 18.5t18 21.5t16.5 22.5t16.5 24.5t13.5 24t11.5 25t7 23.5t3 23.5q0 37 -23 60.5t-61 23.5q-44 0 -70 -31.5t-26 -81.5l-221 18q0 123 86 198t227 75q139 0 223 -68.5t84 -179.5q0 -83 -48 -160.5t-155 -185.5l-145 -150l360 2
v-180h-643z" />
    <glyph glyph-name="uni2083" unicode="&#x2083;" horiz-adv-x="743" 
d="M434 360q115 -12 183.5 -86.5t68.5 -189.5q0 -136 -98.5 -218.5t-265.5 -82.5q-83 0 -161 23t-124 61l82 160q31 -28 79.5 -46t98.5 -18q76 0 119 33t43 88q0 52 -39.5 83.5t-104.5 31.5q-63 0 -114 -31l-60 111l211 247h-268v179h547v-136z" />
    <glyph glyph-name="uni2084" unicode="&#x2084;" horiz-adv-x="823" 
d="M432 -205v164h-405v150l456 596h170v-564h117v-182h-117v-164h-221zM238 133h200l2 264z" />
    <glyph glyph-name="uni2085" unicode="&#x2085;" horiz-adv-x="755" 
d="M307 -217q-182 0 -278 78l65 157q73 -55 195 -55q83 0 133.5 38t50.5 101q0 46 -31.5 76.5t-83.5 30.5q-37 0 -68.5 -15t-45.5 -36l-146 20l66 527h485v-179h-299l-20 -147q16 8 67 8q133 0 217 -74.5t84 -195.5q0 -149 -108.5 -241.5t-282.5 -92.5z" />
    <glyph glyph-name="uni2086" unicode="&#x2086;" horiz-adv-x="757" 
d="M432 356q116 0 200.5 -78t84.5 -200q0 -132 -91.5 -213.5t-240.5 -81.5t-240.5 80.5t-91.5 212.5q0 83 27.5 152t87.5 151l238 326h245l-268 -351q14 2 49 2zM385 -37q46 0 76.5 31.5t30.5 83.5q0 50 -30.5 81t-76.5 31q-47 0 -76.5 -30.5t-29.5 -81.5q0 -52 29 -83.5
t77 -31.5z" />
    <glyph glyph-name="uni2087" unicode="&#x2087;" horiz-adv-x="681" 
d="M31 705h639l-297 -910h-230l244 731h-356v179z" />
    <glyph glyph-name="uni2088" unicode="&#x2088;" horiz-adv-x="790" 
d="M590 268q65 -33 101 -87t36 -124q0 -124 -91 -199t-241 -75q-149 0 -240.5 74t-91.5 194q0 72 37 128.5t103 88.5q-54 31 -84.5 81.5t-30.5 111.5q0 117 84 186.5t223 69.5q138 0 222.5 -70t84.5 -184q0 -128 -112 -195zM395 539q-36 0 -59 -26.5t-23 -66.5
q0 -41 22.5 -65.5t59.5 -24.5t59.5 24.5t22.5 65.5q0 40 -23 66.5t-59 26.5zM395 -37q46 0 76.5 30t30.5 77q0 49 -30 78.5t-77 29.5q-48 0 -77 -29.5t-29 -78.5q0 -47 29.5 -77t76.5 -30z" />
    <glyph glyph-name="uni2089" unicode="&#x2089;" horiz-adv-x="757" 
d="M373 717q149 0 240.5 -80.5t91.5 -212.5q0 -83 -27.5 -152t-87.5 -151l-238 -326h-246l269 350q-14 -2 -49 -2q-116 0 -200.5 78.5t-84.5 200.5q0 132 91.5 213.5t240.5 81.5zM266 422q0 -50 30.5 -81.5t76.5 -31.5q47 0 76.5 31t29.5 82q0 52 -29 83.5t-77 31.5
q-46 0 -76.5 -31.5t-30.5 -83.5z" />
    <glyph glyph-name="Euro" unicode="&#x20ac;" horiz-adv-x="1761" 
d="M1450 506l242 -217q-232 -309 -660 -309q-288 0 -494.5 135t-285.5 370h-166v220h123q-2 20 -2 59v27h-121v219h156q72 244 281 385t507 141q385 0 610 -242l-225 -231q-58 81 -158.5 128.5t-224.5 47.5q-135 0 -238 -60.5t-159 -168.5h403v-219h-458v-31q0 -37 2 -55
h456v-220h-389q59 -99 160.5 -154t230.5 -55q140 0 238.5 58.5t171.5 171.5z" />
    <glyph glyph-name="uni20B9" unicode="&#x20b9;" horiz-adv-x="1284" 
d="M1192 1516v-220h-283q89 -85 115 -200h158v-222h-156q-41 -217 -217 -333l352 -541h-422l-270 442h-23h-329v297h305q77 0 135 35.5t86 99.5h-526v222h528q-25 58 -74.5 90.5t-115.5 32.5h-338v297h1075z" />
    <glyph glyph-name="uni20BD" unicode="&#x20bd;" horiz-adv-x="1456" 
d="M823 569h-229v-86h410v-219h-410v-264h-361v264h-120v219h120v86h-120v219h120v728h609q247 0 398 -127t151 -334q0 -219 -156 -352.5t-412 -133.5zM594 1219v-353h209q103 0 160 47.5t57 128.5q0 80 -59.5 128.5t-157.5 48.5h-209z" />
    <glyph glyph-name="trademark" unicode="&#x2122;" horiz-adv-x="1523" 
d="M600 1597v-149h-170v-436h-180v436h-174v149h524zM1405 1012h-182l-21 321l-141 -321h-70l-143 321l-19 -321h-182l45 585h195l139 -323l135 323h195z" />
    <glyph glyph-name="oneeighth" unicode="&#x215b;" horiz-adv-x="1863" 
d="M1161 1536l180 -109l-847 -1447l-181 110zM481 606h-219v633l-149 -104l-109 153l309 228h168v-910zM1663 473q137 -69 137 -211q0 -124 -91 -199t-241 -75q-149 0 -240 74t-91 194q0 72 36.5 128.5t102.5 88.5q-54 31 -84.5 81.5t-30.5 111.5q0 117 84 186.5t223 69.5
q138 0 223 -70t85 -184q0 -128 -113 -195zM1468 743q-36 0 -59 -26t-23 -66q0 -41 22.5 -65.5t59.5 -24.5t59.5 24.5t22.5 65.5q0 40 -23 66t-59 26zM1468 168q46 0 76.5 29.5t30.5 76.5q0 49 -30.5 79t-76.5 30q-47 0 -76.5 -30t-29.5 -79q0 -47 29.5 -76.5t76.5 -29.5z
" />
    <glyph glyph-name="threeeighths" unicode="&#x215c;" horiz-adv-x="2021" 
d="M1319 1536l180 -109l-848 -1447l-180 110zM686 895q0 -136 -98.5 -218.5t-265.5 -82.5q-83 0 -161 23t-124 61l82 160q31 -28 79.5 -46t98.5 -18q76 0 119 33t43 88q0 52 -39.5 83.5t-104.5 31.5q-63 0 -114 -31l-60 111l211 247h-268v179h547v-136l-197 -209
q115 -12 183.5 -86.5t68.5 -189.5zM1821 473q137 -69 137 -211q0 -124 -91 -199t-241 -75q-149 0 -240.5 74t-91.5 194q0 72 37 128.5t103 88.5q-54 31 -84.5 81.5t-30.5 111.5q0 117 84 186.5t223 69.5q138 0 222.5 -70t84.5 -184q0 -128 -112 -195zM1626 743
q-36 0 -59 -26t-23 -66q0 -41 22.5 -65.5t59.5 -24.5t59.5 24.5t22.5 65.5q0 40 -23 66t-59 26zM1626 168q46 0 76.5 29.5t30.5 76.5q0 49 -30.5 79t-76.5 30q-47 0 -76.5 -30t-29.5 -79q0 -47 29.5 -76.5t76.5 -29.5z" />
    <glyph glyph-name="fiveeighths" unicode="&#x215d;" horiz-adv-x="2033" 
d="M1331 1536l180 -109l-847 -1447l-181 110zM698 928q0 -149 -108.5 -241.5t-282.5 -92.5q-182 0 -278 78l65 157q73 -55 195 -55q83 0 133.5 38t50.5 101q0 46 -31.5 76.5t-83.5 30.5q-37 0 -68.5 -15t-45.5 -36l-146 20l66 527h485v-179h-299l-20 -147q16 8 67 8
q133 0 217 -74.5t84 -195.5zM1833 473q137 -69 137 -211q0 -124 -91 -199t-241 -75q-149 0 -240 74t-91 194q0 72 36.5 128.5t102.5 88.5q-54 31 -84.5 81.5t-30.5 111.5q0 117 84 186.5t223 69.5q138 0 223 -70t85 -184q0 -128 -113 -195zM1638 743q-36 0 -59 -26t-23 -66
q0 -41 22.5 -65.5t59.5 -24.5t59.5 24.5t22.5 65.5q0 40 -23 66t-59 26zM1638 168q46 0 76.5 29.5t30.5 76.5q0 49 -30.5 79t-76.5 30q-47 0 -76.5 -30t-29.5 -79q0 -47 29.5 -76.5t76.5 -29.5z" />
    <glyph glyph-name="seveneighths" unicode="&#x215e;" horiz-adv-x="1900" 
d="M1198 1536l180 -109l-848 -1447l-180 110zM373 606h-230l244 731h-356v179h639zM1700 473q137 -69 137 -211q0 -124 -91 -199t-241 -75q-149 0 -240 74t-91 194q0 72 36.5 128.5t102.5 88.5q-54 31 -84.5 81.5t-30.5 111.5q0 117 84 186.5t223 69.5q138 0 222.5 -70
t84.5 -184q0 -128 -112 -195zM1505 743q-36 0 -59 -26t-23 -66q0 -41 22.5 -65.5t59.5 -24.5t59.5 24.5t22.5 65.5q0 40 -23 66t-59 26zM1505 168q46 0 76.5 29.5t30.5 76.5q0 49 -30.5 79t-76.5 30q-47 0 -76.5 -30t-29.5 -79q0 -47 29.5 -76.5t76.5 -29.5z" />
    <glyph glyph-name="partialdiff" unicode="&#x2202;" horiz-adv-x="1443" 
d="M670 1536q315 0 506.5 -211.5t191.5 -560.5q0 -232 -93.5 -410.5t-263 -276t-390.5 -97.5q-256 0 -411 125t-155 331q0 226 248.5 372.5t663.5 168.5q-37 123 -116 192.5t-185 69.5q-104 0 -189.5 -47.5t-136.5 -128.5l-225 231q206 242 555 242zM612 276
q156 0 258 109.5t121 296.5q-261 -6 -419 -74.5t-158 -177.5q0 -69 54.5 -111.5t143.5 -42.5z" />
    <glyph glyph-name="emptyset" unicode="&#x2205;" horiz-adv-x="1415" 
d="M1174 1126q145 -158 145 -395q0 -260 -168 -419.5t-440 -159.5q-186 0 -334 77l-70 -77l-135 104l70 78q-146 159 -146 397q0 260 169 419t446 159q186 0 327 -78l70 78l135 -105zM457 731q0 -71 22 -129l342 385q-52 25 -112 25q-114 0 -183 -77.5t-69 -203.5zM709 451
q112 0 180.5 77t68.5 203q0 69 -22 127l-340 -383q50 -24 113 -24z" />
    <glyph glyph-name="product" unicode="&#x220f;" horiz-adv-x="1513" 
d="M1354 1597v-2048h-361v1751h-473v-1751h-358v2048h1192z" />
    <glyph glyph-name="summation" unicode="&#x2211;" horiz-adv-x="1409" 
d="M70 -451v228l573 803l-553 790v227h1219v-297h-785l541 -720l-563 -734h827v-297h-1259z" />
    <glyph glyph-name="minus" unicode="&#x2212;" horiz-adv-x="1269" 
d="M127 580v284h1016v-284h-1016z" />
    <glyph glyph-name="radical" unicode="&#x221a;" horiz-adv-x="1642" 
d="M457 -451l-459 1117h381l252 -723l622 1654h381l-829 -2048h-348z" />
    <glyph glyph-name="infinity" unicode="&#x221e;" horiz-adv-x="1521" 
d="M1053 928q173 0 278 -98t105 -259q0 -160 -105 -257t-278 -97q-92 0 -167.5 35.5t-123.5 99.5q-46 -64 -121.5 -99.5t-169.5 -35.5q-171 0 -277 97.5t-106 256.5q0 161 106 259t277 98q94 0 169.5 -36t121.5 -101q48 65 123 101t168 36zM496 438q56 0 90.5 36.5
t34.5 96.5q0 61 -34.5 98.5t-90.5 37.5q-58 0 -93.5 -37t-35.5 -99q0 -60 35.5 -96.5t93.5 -36.5zM1030 438q54 0 88.5 36.5t34.5 96.5q0 61 -34.5 98.5t-88.5 37.5q-58 0 -93.5 -37t-35.5 -99q0 -60 35.5 -96.5t93.5 -36.5z" />
    <glyph glyph-name="integral" unicode="&#x222b;" horiz-adv-x="944" 
d="M674 1618q173 0 270 -105l-92 -239q-47 47 -107 47q-44 0 -69 -25t-25 -65v-1378q0 -145 -107 -234.5t-276 -89.5t-270 104l94 240q47 -47 105 -47q44 0 69 25t25 65v1378q0 145 108 234.5t275 89.5z" />
    <glyph glyph-name="approxequal" unicode="&#x2248;" horiz-adv-x="1249" 
d="M840 639q-69 0 -154 25t-157 50t-111 25q-51 0 -81 -21.5t-30 -58.5h-184q0 146 79.5 235t209.5 89q73 0 156.5 -24t154 -48t111.5 -24q110 0 110 76h184q0 -153 -78 -238.5t-210 -85.5zM840 229q-69 0 -154 25.5t-157 50.5t-111 25q-51 0 -81 -21.5t-30 -58.5h-184
q0 146 79 234.5t210 88.5q73 0 156.5 -24t154 -48t111.5 -24q110 0 110 76h184q0 -153 -78 -238.5t-210 -85.5z" />
    <glyph glyph-name="notequal" unicode="&#x2260;" horiz-adv-x="1265" 
d="M1141 799h-310l-40 -154h350v-287h-428l-66 -245h-350l65 245h-237v287h315l41 154h-356v286h434l66 246h350l-66 -246h232v-286z" />
    <glyph glyph-name="lessequal" unicode="&#x2264;" horiz-adv-x="1269" 
d="M1135 709v-324l-1020 410v225l1020 410v-326l-537 -197zM113 309h1024v-286h-1024v286z" />
    <glyph glyph-name="greaterequal" unicode="&#x2265;" horiz-adv-x="1267" 
d="M1155 795l-1020 -410v324l539 198l-539 197v326l1020 -410v-225zM133 309h1024v-286h-1024v286z" />
    <glyph glyph-name="lozenge" unicode="&#x25ca;" horiz-adv-x="1329" 
d="M827 1321l433 -659l-433 -662h-325l-430 662l430 659h325zM666 305l235 357l-235 356l-236 -356z" />
    <glyph glyph-name="i.loclTRK" horiz-adv-x="604" 
d="M303 1245q-88 0 -145.5 56.5t-57.5 144.5t57.5 144.5t145.5 56.5t144.5 -56.5t56.5 -144.5t-56.5 -144.5t-144.5 -56.5zM127 0v1116h348v-1116h-348z" />
    <glyph glyph-name="zero.lf" horiz-adv-x="1482" 
d="M674 -20q-270 0 -435 214t-165 564t165 564t435 214q177 0 313 -96.5t210.5 -273.5t74.5 -408t-74.5 -408t-210.5 -273.5t-313 -96.5zM674 276q103 0 165 132.5t62 349.5t-62 349t-165 132t-165.5 -132t-62.5 -349t62.5 -349.5t165.5 -132.5z" />
    <glyph glyph-name="one.lf" horiz-adv-x="954" 
d="M434 0v1057l-252 -174l-178 254l514 379h275v-1516h-359z" />
    <glyph glyph-name="two.lf" horiz-adv-x="1245" 
d="M80 0v225l475 516q99 110 138 168q75 110 75 187q0 63 -39.5 103t-103.5 40q-73 0 -117.5 -51.5t-44.5 -136.5l-365 32q0 204 142.5 328.5t375.5 124.5t375 -113t142 -299q0 -72 -21.5 -141t-69 -141t-104.5 -139.5t-145 -157.5l-246 -254l602 6v-297h-1069z" />
    <glyph glyph-name="three.lf" horiz-adv-x="1212" 
d="M707 942q193 -19 308 -144t115 -317q0 -228 -162.5 -364.5t-441.5 -136.5q-140 0 -268.5 38.5t-204.5 102.5l135 262q52 -48 132 -77.5t167 -29.5q126 0 199.5 55.5t73.5 145.5t-66.5 142.5t-179.5 52.5q-103 0 -192 -47l-97 180l353 414h-449v297h909v-222z" />
    <glyph glyph-name="four.lf" horiz-adv-x="1351" 
d="M719 0v274h-676v246l758 996h276v-945h201v-297h-201v-274h-358zM389 561h340l4 453z" />
    <glyph glyph-name="five.lf" horiz-adv-x="1236" 
d="M508 -20q-298 0 -467 131l106 258q131 -93 328 -93q138 0 222.5 64t84.5 168q0 82 -52 131t-138 49q-65 0 -117 -23t-76 -59l-239 33l104 877h811v-297h-502l-36 -248q44 14 118 14q219 0 359.5 -124.5t140.5 -325.5q0 -249 -180 -402t-467 -153z" />
    <glyph glyph-name="six.lf" horiz-adv-x="1234" 
d="M705 934q127 0 234.5 -56.5t173 -163.5t65.5 -243q0 -220 -151.5 -355.5t-397.5 -135.5q-249 0 -401 133.5t-152 353.5q0 137 45.5 250t142.5 248l404 551h401l-448 -584q27 2 84 2zM627 276q80 0 129 53t49 140q0 86 -49 139.5t-129 53.5q-82 0 -131.5 -53.5
t-49.5 -139.5q0 -88 49.5 -140.5t131.5 -52.5z" />
    <glyph glyph-name="seven.lf" horiz-adv-x="1138" 
d="M47 1516h1061l-494 -1516h-381l414 1219h-600v297z" />
    <glyph glyph-name="eight.lf" horiz-adv-x="1282" 
d="M963 791q108 -55 168.5 -147.5t60.5 -209.5q0 -204 -151.5 -329t-399.5 -125q-247 0 -399 123.5t-152 324.5q0 118 60 211t169 149q-90 53 -139 135t-49 185q0 193 140.5 310.5t369.5 117.5t369.5 -116t140.5 -308q0 -103 -49 -185.5t-139 -135.5zM639 1239
q-61 0 -99 -42.5t-38 -111.5t37.5 -110t99.5 -41q63 0 101 41t38 110t-38 111.5t-101 42.5zM639 276q82 0 131 49.5t49 131.5q0 80 -49.5 130t-130.5 50q-79 0 -128.5 -50t-49.5 -130q0 -82 49 -131.5t129 -49.5z" />
    <glyph glyph-name="nine.lf" horiz-adv-x="1234" 
d="M606 1536q249 0 401 -133.5t152 -353.5q0 -137 -45.5 -250t-142.5 -248l-404 -551h-401l448 584q-27 -2 -84 -2q-127 0 -234.5 56.5t-173 163t-65.5 242.5q0 220 151.5 356t397.5 136zM430 1047q0 -86 49 -139.5t129 -53.5q81 0 130.5 53t49.5 140q0 88 -49 140t-131 52
q-80 0 -129 -52.5t-49 -139.5z" />
    <glyph glyph-name="zero.osf" horiz-adv-x="1449" 
d="M727 -20q-294 0 -473.5 187.5t-179.5 494.5q0 306 180 492.5t473 186.5q291 0 470 -187t179 -492q0 -307 -179 -494.5t-470 -187.5zM727 279q123 0 200 106t77 277t-77 276.5t-200 105.5q-126 0 -203.5 -105t-77.5 -277t77.5 -277.5t203.5 -105.5z" />
    <glyph glyph-name="one.osf" horiz-adv-x="886" 
d="M379 0v860l-184 -125l-181 254l449 332h264v-1321h-348z" />
    <glyph glyph-name="two.osf" horiz-adv-x="1263" 
d="M90 0v225l559 467q142 116 142 209q0 65 -43 104t-113 39q-78 0 -126 -51.5t-48 -136.5l-352 33q0 204 142.5 328t375.5 124t374.5 -113t141.5 -298q0 -50 -9 -94.5t-22 -80.5t-38 -73t-47 -63t-60 -60.5t-65.5 -56.5t-74.5 -58l-209 -157h541v-287h-1069z" />
    <glyph glyph-name="three.osf" horiz-adv-x="1212" 
d="M713 741q189 -19 301 -144.5t112 -317.5q0 -229 -159 -366.5t-432 -137.5q-145 0 -274 37.5t-202 101.5l138 264q52 -48 131 -76t166 -28q127 0 199.5 55t72.5 147q0 90 -67.5 142.5t-182.5 52.5q-108 0 -186 -47l-97 180l363 432h-461v285h912v-221z" />
    <glyph glyph-name="four.osf" horiz-adv-x="1361" 
d="M743 -225v225h-688v221l772 1100h265v-1034h198v-287h-198v-225h-349zM403 276h349l6 517z" />
    <glyph glyph-name="five.osf" horiz-adv-x="1226" 
d="M504 -225q-302 0 -465 129l106 262q126 -92 326 -92q139 0 224 63.5t85 167.5q0 83 -52 132.5t-140 49.5q-65 0 -117 -22t-74 -59l-239 34l104 881h811v-285h-504l-47 -266q43 16 131 16q213 0 350.5 -126t137.5 -328q0 -166 -81 -293t-225.5 -195.5t-330.5 -68.5z" />
    <glyph glyph-name="six.osf" horiz-adv-x="1218" 
d="M692 934q209 0 336 -127t127 -336q0 -220 -148 -355.5t-391 -135.5t-390.5 133.5t-147.5 353.5q0 118 36.5 221.5t129.5 241.5l430 586h391l-449 -586q50 4 76 4zM614 276q82 0 131.5 52.5t49.5 140.5q0 86 -49.5 139.5t-131.5 53.5q-80 0 -129 -53.5t-49 -139.5
q0 -87 49 -140t129 -53z" />
    <glyph glyph-name="seven.osf" horiz-adv-x="1171" 
d="M61 1321h1061l-508 -1550l-335 88l380 1177h-598v285z" />
    <glyph glyph-name="eight.osf" 
d="M944 791q107 -55 166 -147.5t59 -209.5q0 -204 -147.5 -329t-390.5 -125t-392 123.5t-149 324.5q0 119 59 212t166 148q-89 53 -136.5 135t-47.5 185q0 193 137.5 310.5t362.5 117.5q224 0 360.5 -116t136.5 -308q0 -103 -47.5 -185.5t-136.5 -135.5zM629 1239
q-63 0 -101.5 -42.5t-38.5 -111.5t38.5 -110t101.5 -41q62 0 99.5 41t37.5 110t-38 111.5t-99 42.5zM629 276q80 0 129 49.5t49 131.5q0 80 -49.5 130t-128.5 50q-81 0 -130.5 -50t-49.5 -130q0 -82 49 -131.5t131 -49.5z" />
    <glyph glyph-name="nine.osf" horiz-adv-x="1204" 
d="M598 1341q243 0 390 -133t147 -352q0 -121 -36.5 -225t-129.5 -238l-455 -622l-326 88l408 534q-46 -4 -74 -4q-211 0 -338 127t-127 336q0 220 149 354.5t392 134.5zM416 854q0 -88 49 -141.5t131 -53.5q80 0 129 53.5t49 141.5q0 86 -49 138t-129 52q-82 0 -131 -52
t-49 -138z" />
    <glyph glyph-name="zero.tf" 
d="M631 -20q-163 0 -288.5 96.5t-194 273.5t-68.5 408t68.5 408t194 273.5t288.5 96.5t288.5 -96.5t194 -273.5t68.5 -408t-68.5 -408t-194 -273.5t-288.5 -96.5zM631 276q80 0 129 133t49 349t-49 348.5t-129 132.5t-130 -132.5t-50 -348.5t50 -349t130 -133z" />
    <glyph glyph-name="one.tf" 
d="M905 297h269v-297h-1035v297h406v760l-252 -174l-176 254l514 379h274v-1219z" />
    <glyph glyph-name="two.tf" 
d="M88 0v225l475 516q99 110 138 168q75 110 75 187q0 63 -39.5 103t-103.5 40q-73 0 -117.5 -51.5t-44.5 -136.5l-367 32q0 204 143.5 328.5t377.5 124.5q233 0 373.5 -113t140.5 -299q0 -72 -21.5 -141t-69 -141.5t-104 -139t-143.5 -157.5l-246 -254l602 6v-297h-1069z
" />
    <glyph glyph-name="three.tf" 
d="M731 942q192 -19 307 -144.5t115 -316.5q0 -227 -162 -364t-440 -137q-145 0 -273 38t-202 103l135 262q54 -48 133.5 -77.5t165.5 -29.5q127 0 199.5 55t72.5 146q0 90 -67.5 142.5t-182.5 52.5q-103 0 -186 -47l-96 180l350 414h-448v297h911v-222z" />
    <glyph glyph-name="four.tf" 
d="M649 0v274h-633v246l715 996h279v-943h198v-299h-198v-274h-361zM362 563h300l4 451z" />
    <glyph glyph-name="five.tf" 
d="M518 -20q-143 0 -263.5 33.5t-201.5 97.5l107 258q131 -93 325 -93q139 0 224.5 64t85.5 168q0 82 -52.5 131t-140.5 49q-63 0 -115.5 -23t-74.5 -59l-240 33l104 877h811v-297h-503l-37 -248q44 14 121 14q218 0 357.5 -124.5t139.5 -325.5q0 -249 -180 -402t-467 -153z
" />
    <glyph glyph-name="six.tf" 
d="M717 934q127 0 234.5 -56.5t173 -163.5t65.5 -243q0 -220 -151 -355.5t-398 -135.5q-249 0 -400 133.5t-151 353.5q0 137 45 250.5t141 247.5l404 551h401l-448 -584q27 2 84 2zM639 276q80 0 129 53t49 140q0 86 -49 139.5t-129 53.5q-81 0 -130.5 -53t-49.5 -140
q0 -88 49 -140.5t131 -52.5z" />
    <glyph glyph-name="seven.tf" 
d="M109 1516h1060l-495 -1516h-379l412 1219h-598v297z" />
    <glyph glyph-name="eight.tf" 
d="M950 791q109 -55 169.5 -147.5t60.5 -209.5q0 -204 -151 -329t-398 -125q-249 0 -400 123.5t-151 324.5q0 119 60 212.5t169 147.5q-90 53 -139 135t-49 185q0 193 140 310.5t370 117.5q229 0 368.5 -116t139.5 -308q0 -103 -49.5 -185.5t-139.5 -135.5zM629 1239
q-61 0 -99 -42.5t-38 -111.5t37.5 -110t99.5 -41q63 0 101 41t38 110t-38 111.5t-101 42.5zM629 276q82 0 131 49.5t49 131.5q0 80 -49.5 130t-130.5 50q-79 0 -128.5 -50t-49.5 -130q0 -82 49 -131.5t129 -49.5z" />
    <glyph glyph-name="nine.tf" 
d="M618 1536q249 0 401 -133.5t152 -353.5q0 -137 -45.5 -250t-142.5 -248l-403 -551h-402l449 584q-27 -2 -84 -2q-127 0 -234.5 56.5t-173 163t-65.5 242.5q0 220 151 356t397 136zM442 1047q0 -86 49.5 -139.5t129.5 -53.5q81 0 130.5 53t49.5 140q0 88 -49 140t-131 52
q-80 0 -129.5 -52.5t-49.5 -139.5z" />
    <glyph glyph-name="zero.tosf" 
d="M631 -20q-249 0 -401 187.5t-152 494.5q0 306 152 492.5t401 186.5q248 0 399.5 -186.5t151.5 -492.5q0 -307 -151.5 -494.5t-399.5 -187.5zM631 279q80 0 129 105.5t49 277.5q0 171 -49 276.5t-129 105.5t-130 -105.5t-50 -276.5t50 -277t130 -106z" />
    <glyph glyph-name="one.tosf" 
d="M852 287h319v-287h-1034v287h367v573l-187 -125l-180 254l449 332h266v-1034z" />
    <glyph glyph-name="two.tosf" 
d="M88 0v225l559 467q141 115 141 209q0 65 -42.5 104t-112.5 39q-78 0 -126 -51.5t-48 -136.5l-353 33q0 204 143 328t376 124t374.5 -113t141.5 -298q0 -50 -9 -95t-22 -80t-38.5 -72.5t-47 -63.5t-60.5 -60.5t-65.5 -56t-73.5 -58.5l-204 -157h536v-287h-1069z" />
    <glyph glyph-name="three.tosf" 
d="M735 741q189 -19 301.5 -144t112.5 -318q0 -229 -159.5 -366.5t-432.5 -137.5q-144 0 -273 37.5t-200 101.5l135 264q52 -48 131.5 -76t167.5 -28q126 0 199.5 55t73.5 147q0 90 -68.5 142.5t-181.5 52.5q-111 0 -189 -47l-96 180l362 432h-458v285h909v-221z" />
    <glyph glyph-name="four.tosf" 
d="M670 -225v225h-645v221l729 1100h264v-1034h199v-287h-199v-225h-348zM373 276h305l6 492z" />
    <glyph glyph-name="five.tosf" 
d="M520 -225q-302 0 -465 129l107 262q126 -92 325 -92q140 0 225 63.5t85 167.5q0 83 -52.5 132.5t-140.5 49.5q-64 0 -116 -22t-74 -59l-240 34l105 881h811v-285h-504l-47 -266q43 16 131 16q213 0 350 -126t137 -328q0 -166 -81 -293t-225.5 -195.5t-330.5 -68.5z" />
    <glyph glyph-name="six.tosf" 
d="M713 934q209 0 336 -127t127 -336q0 -220 -148 -355.5t-391 -135.5t-391 133.5t-148 353.5q0 118 36.5 221.5t129.5 241.5l430 586h391l-448 -586q50 4 76 4zM635 276q82 0 131 52.5t49 140.5q0 87 -49.5 140t-130.5 53q-80 0 -129 -53.5t-49 -139.5q0 -87 49 -140
t129 -53z" />
    <glyph glyph-name="seven.tosf" 
d="M104 1321h1061l-508 -1550l-333 88l381 1177h-601v285z" />
    <glyph glyph-name="eight.tosf" 
d="M944 791q107 -55 166 -147.5t59 -209.5q0 -204 -147.5 -329t-390.5 -125t-392 123.5t-149 324.5q0 119 59 212t166 148q-89 53 -136.5 135t-47.5 185q0 193 137.5 310.5t362.5 117.5q224 0 360.5 -116t136.5 -308q0 -103 -47.5 -185.5t-136.5 -135.5zM629 1239
q-61 0 -99 -42.5t-38 -111.5t37.5 -110t99.5 -41q63 0 101 41t38 110t-38 111.5t-101 42.5zM629 276q82 0 131 49.5t49 131.5q0 80 -49.5 130t-130.5 50q-79 0 -128.5 -50t-49.5 -130q0 -82 49 -131.5t129 -49.5z" />
    <glyph glyph-name="nine.tosf" 
d="M625 1341q243 0 390.5 -133.5t147.5 -351.5q0 -121 -36.5 -225t-129.5 -238l-454 -622l-326 88l408 534q-50 -4 -76 -4q-209 0 -336 127t-127 336q0 220 148 354.5t391 134.5zM444 854q0 -88 49.5 -141.5t131.5 -53.5q80 0 129 53.5t49 141.5q0 86 -49 138t-129 52
q-82 0 -131.5 -52t-49.5 -138z" />
    <glyph glyph-name="zero.dnom" horiz-adv-x="819" 
d="M414 -12q-164 0 -263.5 128t-99.5 339t99.5 339t263.5 128q159 0 257.5 -128.5t98.5 -338.5t-98.5 -338.5t-257.5 -128.5zM414 168q61 0 98 79.5t37 207.5q0 130 -37 209t-98 79q-62 0 -100 -79.5t-38 -208.5q0 -128 38.5 -207.5t99.5 -79.5z" />
    <glyph glyph-name="one.dnom" horiz-adv-x="585" 
d="M262 0v633l-149 -105l-109 154l309 227h168v-909h-219z" />
    <glyph glyph-name="two.dnom" horiz-adv-x="765" 
d="M57 0v139l283 307q1 1 12 13t15 17t16 18.5t18 21.5t16.5 22.5t16.5 24.5t13.5 24t11.5 25t7 23.5t3 23.5q0 37 -23 60.5t-61 23.5q-44 0 -70 -31t-26 -81l-221 18q0 123 86 198t227 75q139 0 223 -68.5t84 -179.5q0 -83 -48 -160.5t-155 -185.5l-145 -150l360 2v-180
h-643z" />
    <glyph glyph-name="three.dnom" horiz-adv-x="743" 
d="M434 565q115 -12 183.5 -86.5t68.5 -189.5q0 -136 -98.5 -218.5t-265.5 -82.5q-83 0 -161 23t-124 61l82 159q31 -28 79.5 -45.5t98.5 -17.5q76 0 119 33t43 88q0 52 -39.5 83t-104.5 31t-114 -30l-60 110l211 248h-268v178h547v-135z" />
    <glyph glyph-name="four.dnom" horiz-adv-x="823" 
d="M432 0v164h-405v149l456 596h170v-563h117v-182h-117v-164h-221zM238 338h200l2 264z" />
    <glyph glyph-name="five.dnom" horiz-adv-x="755" 
d="M307 -12q-182 0 -278 78l65 157q73 -55 195 -55q83 0 133.5 38t50.5 101q0 46 -31.5 76.5t-83.5 30.5q-37 0 -68.5 -15.5t-45.5 -36.5l-146 21l66 526h485v-178h-299l-20 -147q16 8 67 8q133 0 217 -74.5t84 -195.5q0 -149 -108.5 -241.5t-282.5 -92.5z" />
    <glyph glyph-name="six.dnom" horiz-adv-x="757" 
d="M432 561q116 0 200.5 -78t84.5 -200q0 -132 -91.5 -213.5t-240.5 -81.5t-240.5 80.5t-91.5 212.5q0 83 27.5 152t87.5 151l238 325h245l-268 -350q14 2 49 2zM385 168q46 0 76.5 31.5t30.5 83.5q0 50 -30.5 81t-76.5 31q-47 0 -76.5 -30.5t-29.5 -81.5q0 -52 29 -83.5
t77 -31.5z" />
    <glyph glyph-name="seven.dnom" horiz-adv-x="681" 
d="M31 909h639l-297 -909h-230l244 731h-356v178z" />
    <glyph glyph-name="eight.dnom" horiz-adv-x="790" 
d="M590 473q137 -69 137 -211q0 -124 -91 -199t-241 -75q-149 0 -240.5 74t-91.5 194q0 72 37 128.5t103 88.5q-54 31 -84.5 81.5t-30.5 111.5q0 117 84 186.5t223 69.5q138 0 222.5 -70t84.5 -184q0 -128 -112 -195zM395 743q-36 0 -59 -26t-23 -66q0 -41 22.5 -65.5
t59.5 -24.5t59.5 24.5t22.5 65.5q0 40 -23 66t-59 26zM395 168q46 0 76.5 29.5t30.5 76.5q0 49 -30.5 79t-76.5 30q-47 0 -76.5 -30t-29.5 -79q0 -47 29.5 -76.5t76.5 -29.5z" />
    <glyph glyph-name="nine.dnom" horiz-adv-x="757" 
d="M373 922q149 0 240.5 -80.5t91.5 -212.5q0 -83 -27.5 -152t-87.5 -151l-238 -326h-246l269 350q-14 -2 -49 -2q-116 0 -200.5 78.5t-84.5 200.5q0 132 91.5 213.5t240.5 81.5zM266 627q0 -50 30.5 -81.5t76.5 -31.5q47 0 76.5 31t29.5 82q0 52 -29 83t-77 31
q-47 0 -77 -31t-30 -83z" />
    <glyph glyph-name="zero.numr" horiz-adv-x="819" 
d="M414 594q-164 0 -263.5 128t-99.5 339t99.5 339t263.5 128q159 0 257.5 -128.5t98.5 -338.5t-98.5 -338.5t-257.5 -128.5zM414 774q61 0 98 79.5t37 207.5q0 130 -37 209.5t-98 79.5q-62 0 -100 -80t-38 -209q0 -128 38.5 -207.5t99.5 -79.5z" />
    <glyph glyph-name="one.numr" horiz-adv-x="585" 
d="M262 606v633l-149 -104l-109 153l309 228h168v-910h-219z" />
    <glyph glyph-name="two.numr" horiz-adv-x="765" 
d="M57 606v139l283 308q1 1 12 13t15 17t16 18.5t18 21.5t16.5 22.5t16.5 24.5t13.5 24t11.5 25t7 23.5t3 23.5q0 37 -23 60.5t-61 23.5q-44 0 -70 -31.5t-26 -81.5l-221 18q0 123 86 198t227 75q139 0 223 -68.5t84 -179.5q0 -83 -48 -160.5t-155 -185.5l-145 -150l360 2
v-180h-643z" />
    <glyph glyph-name="three.numr" horiz-adv-x="743" 
d="M434 1171q115 -12 183.5 -86.5t68.5 -189.5q0 -136 -98.5 -218.5t-265.5 -82.5q-83 0 -161 23t-124 61l82 160q31 -28 79.5 -46t98.5 -18q76 0 119 33t43 88q0 52 -39.5 83.5t-104.5 31.5q-63 0 -114 -31l-60 111l211 247h-268v179h547v-136z" />
    <glyph glyph-name="four.numr" horiz-adv-x="823" 
d="M432 606v164h-405v150l456 596h170v-564h117v-182h-117v-164h-221zM238 944h200l2 264z" />
    <glyph glyph-name="five.numr" horiz-adv-x="755" 
d="M307 594q-182 0 -278 78l65 157q73 -55 195 -55q83 0 133.5 38t50.5 101q0 46 -31.5 76.5t-83.5 30.5q-37 0 -68.5 -15t-45.5 -36l-146 20l66 527h485v-179h-299l-20 -147q16 8 67 8q133 0 217 -74.5t84 -195.5q0 -149 -108.5 -241.5t-282.5 -92.5z" />
    <glyph glyph-name="six.numr" horiz-adv-x="757" 
d="M432 1167q116 0 200.5 -78t84.5 -200q0 -132 -91.5 -213.5t-240.5 -81.5t-240.5 80.5t-91.5 212.5q0 83 27.5 152t87.5 151l238 326h245l-268 -351q14 2 49 2zM385 774q46 0 76.5 31.5t30.5 83.5q0 50 -30.5 81t-76.5 31q-47 0 -76.5 -30.5t-29.5 -81.5q0 -52 29 -83.5
t77 -31.5z" />
    <glyph glyph-name="seven.numr" horiz-adv-x="681" 
d="M31 1516h639l-297 -910h-230l244 731h-356v179z" />
    <glyph glyph-name="eight.numr" horiz-adv-x="790" 
d="M590 1079q137 -69 137 -211q0 -124 -91 -199t-241 -75q-149 0 -240.5 74t-91.5 194q0 72 37 128.5t103 88.5q-54 31 -84.5 81.5t-30.5 111.5q0 117 84 186.5t223 69.5q138 0 222.5 -70t84.5 -184q0 -128 -112 -195zM395 1350q-36 0 -59 -26.5t-23 -66.5q0 -41 22.5 -65.5
t59.5 -24.5t59.5 24.5t22.5 65.5q0 40 -23 66.5t-59 26.5zM395 774q46 0 76.5 30t30.5 77q0 49 -30 78.5t-77 29.5q-48 0 -77 -29.5t-29 -78.5q0 -47 29.5 -77t76.5 -30z" />
    <glyph glyph-name="nine.numr" horiz-adv-x="757" 
d="M373 1528q149 0 240.5 -80.5t91.5 -212.5q0 -83 -27.5 -152t-87.5 -151l-238 -326h-246l269 350q-14 -2 -49 -2q-116 0 -200.5 78.5t-84.5 200.5q0 132 91.5 213.5t240.5 81.5zM266 1233q0 -50 30.5 -81.5t76.5 -31.5q47 0 76.5 31t29.5 82q0 52 -29 83.5t-77 31.5
q-46 0 -76.5 -31.5t-30.5 -83.5z" />
    <glyph glyph-name="exclamdown.case" horiz-adv-x="649" 
d="M326 1536q87 0 143.5 -57.5t56.5 -145.5t-56 -143t-144 -55t-145.5 55.5t-57.5 142.5q0 88 57.5 145.5t145.5 57.5zM176 1014h297l33 -1014h-363z" />
    <glyph glyph-name="questiondown.case" horiz-adv-x="1157" 
d="M590 1536q88 0 144.5 -57.5t56.5 -145.5q0 -87 -56.5 -142.5t-144.5 -55.5t-144.5 55.5t-56.5 142.5q0 88 56.5 145.5t144.5 57.5zM737 1014q0 -90 -17 -163t-50.5 -127.5t-60.5 -85.5t-70 -71q-49 -44 -74 -78t-25 -73q0 -63 43.5 -101.5t112.5 -38.5q66 0 112.5 38.5
t53.5 101.5l332 -17q-11 -189 -147 -304t-351 -115q-237 0 -381.5 114t-144.5 301q0 56 14 102t45.5 86.5t56 64.5t70.5 63q44 37 70 61.5t56 63t44 82.5t14 96h297z" />
    <glyph glyph-name="slash.case" horiz-adv-x="907" 
d="M72 0l411 1516h351l-412 -1516h-350z" />
    <glyph glyph-name="braceleft.case" horiz-adv-x="929" 
d="M596 -102q-166 0 -265.5 94.5t-99.5 251.5v239q0 58 -40 92.5t-105 34.5h-10v297h10q65 0 105 34t40 91v242q0 155 99.5 249.5t265.5 94.5q121 0 246 -27v-278q-41 8 -109 8q-64 0 -103.5 -42.5t-39.5 -111.5v-176q0 -86 -50 -149.5t-132 -83.5q82 -20 132 -83t50 -149
v-176q0 -70 39 -112.5t104 -42.5q57 0 109 10v-281q-120 -26 -246 -26z" />
    <glyph glyph-name="braceright.case" horiz-adv-x="929" 
d="M334 -102q-126 0 -246 26v281q52 -10 107 -10q66 0 105.5 42t39.5 113v176q0 86 49 149t131 83q-82 20 -131 83.5t-49 149.5v176q0 69 -39.5 111.5t-105.5 42.5t-107 -8v278q125 27 246 27q165 0 264.5 -94t99.5 -250v-242q0 -57 40.5 -91t105.5 -34h10v-297h-10
q-65 0 -105.5 -34.5t-40.5 -92.5v-239q0 -157 -99 -251.5t-265 -94.5z" />
    <glyph glyph-name="bracketleft.case" horiz-adv-x="880" 
d="M162 -82v1679h629v-297h-269v-1083h269v-299h-629z" />
    <glyph glyph-name="bracketright.case" horiz-adv-x="880" 
d="M719 -82h-629v299h268v1083h-268v297h629v-1679z" />
    <glyph glyph-name="parenleft.case" horiz-adv-x="770" 
d="M393 -82q-59 78 -105.5 154.5t-95 183t-75.5 235.5t-27 267t27 267t75.5 235t95 182.5t105.5 154.5h324q-42 -59 -85.5 -144t-86 -194.5t-69.5 -242.5t-27 -258t27 -258t69.5 -243t86 -195t85.5 -144h-324z" />
    <glyph glyph-name="parenright.case" horiz-adv-x="770" 
d="M53 -82q42 59 85.5 144t86.5 195t70 243t27 258t-27 258t-70 243t-86.5 194.5t-85.5 143.5h324q59 -78 105.5 -154.5t95 -182.5t75.5 -235t27 -267t-27 -267t-75.5 -235.5t-95 -183t-105.5 -154.5h-324z" />
    <glyph glyph-name="logo" horiz-adv-x="2609" 
d="M156 -20q-15 0 -25 10.5t-10 25.5q0 21 10 31l700 698h-663q-47 0 -47 39q0 16 14 33l696 701h-669q-41 0 -41 38v3q0 38 41 38h758q47 0 47 -41q0 -20 -17 -34l-698 -697h676q17 0 29 -12t12 -29v-669l694 692q13 16 35 16q37 0 37 -45v-663l696 692q13 16 33 16
q15 0 25 -12t10 -27q0 -18 -13 -28l-753 -762q-14 -14 -35 -14q-41 0 -41 47v663l-694 -696q-14 -14 -35 -14q-41 0 -41 47v663l-697 -696q-14 -14 -34 -14z" />
    </font>
</defs>
</svg>
