<?xml version="1.0" standalone="no"?>
<!DOCTYPE svg PUBLIC "-//W3C//DTD SVG 1.1//EN" "http://www.w3.org/Graphics/SVG/1.1/DTD/svg11.dtd" >
<svg xmlns="http://www.w3.org/2000/svg" xmlns:xlink="http://www.w3.org/1999/xlink" version="1.1">
<metadata>
Created by FontForge 20170731 at Mon Jul  4 13:47:21 2022
 By Aleksey,,,
Copyright (c) 2016 by Alberto Romanos. All rights reserved.
</metadata>
<defs>
<font id="BwModelicaSS01-Medium" horiz-adv-x="0" >
  <font-face 
    font-family="Bw Modelica SS01 Medium"
    font-weight="600"
    font-stretch="normal"
    units-per-em="2048"
    panose-1="0 0 7 0 0 0 0 0 0 0"
    ascent="1597"
    descent="-451"
    x-height="1094"
    cap-height="1516"
    bbox="-1774 -471 2527 2089"
    underline-thickness="102"
    underline-position="-307"
    unicode-range="U+000D-FB02"
  />
<missing-glyph horiz-adv-x="2609" 
d="M184 -20q-15 0 -24.5 10.5t-9.5 25.5q0 21 10 31l700 698h-663q-47 0 -47 39q0 16 14 33l696 701h-670q-40 0 -40 38v3q0 38 40 38h758q47 0 47 -41q0 -21 -16 -34l-698 -697h675q17 0 29 -12t12 -29v-669l695 692q13 16 34 16q37 0 37 -45v-663l697 692q13 16 32 16
q15 0 25 -12t10 -27q0 -18 -12 -28l-754 -762q-14 -14 -35 -14q-18 0 -27.5 8.5t-11 16.5t-1.5 22v663l-695 -696q-14 -14 -35 -14q-41 0 -41 47v663l-696 -696q-14 -14 -35 -14z" />
    <glyph glyph-name="fi" unicode="fi" horiz-adv-x="1247" 
d="M156 1294q0 146 91 235t242 89q145 0 232 -43l-16 -164q-61 27 -152 27q-85 0 -136.5 -48.5t-51.5 -127.5v-168h331v-172h-331v-922h-209v1294zM987 1321q-57 0 -94 37t-37 94t37 94t94 37q56 0 92.5 -37t36.5 -94t-36.5 -94t-92.5 -37zM883 0v1094h209v-1094h-209z" />
    <glyph glyph-name="fl" unicode="fl" horiz-adv-x="1253" 
d="M156 1294q0 146 91 235t242 89q145 0 232 -43l-16 -164q-61 27 -152 27q-85 0 -136.5 -48.5t-51.5 -127.5v-168h331v-172h-331v-922h-209v1294zM885 1597h209v-1597h-209v1597z" />
    <glyph glyph-name=".notdef" horiz-adv-x="2609" 
d="M184 -20q-15 0 -24.5 10.5t-9.5 25.5q0 21 10 31l700 698h-663q-47 0 -47 39q0 16 14 33l696 701h-670q-40 0 -40 38v3q0 38 40 38h758q47 0 47 -41q0 -21 -16 -34l-698 -697h675q17 0 29 -12t12 -29v-669l695 692q13 16 34 16q37 0 37 -45v-663l697 692q13 16 32 16
q15 0 25 -12t10 -27q0 -18 -12 -28l-754 -762q-14 -14 -35 -14q-18 0 -27.5 8.5t-11 16.5t-1.5 22v663l-695 -696q-14 -14 -35 -14q-41 0 -41 47v663l-696 -696q-14 -14 -35 -14z" />
    <glyph glyph-name=".null" 
 />
    <glyph glyph-name="nonmarkingreturn" horiz-adv-x="682" 
 />
    <glyph glyph-name="CR" unicode="&#xd;" horiz-adv-x="450" 
 />
    <glyph glyph-name="space" unicode=" " horiz-adv-x="526" 
 />
    <glyph glyph-name="exclam" unicode="!" horiz-adv-x="561" 
d="M190 387l-20 1129h221l-20 -1129h-181zM281 -20q-57 0 -94 37t-37 94t37 93t94 36t94 -36t37 -93t-37 -94t-94 -37z" />
    <glyph glyph-name="quotedbl" unicode="&#x22;" horiz-adv-x="757" 
d="M133 1155l-4 442h172l-6 -442h-162zM461 1155l-4 442h172l-4 -442h-164z" />
    <glyph glyph-name="numbersign" unicode="#" horiz-adv-x="1460" 
d="M1356 889h-252l-80 -350h252l-33 -142h-252l-92 -397h-156l93 397h-363l-92 -397h-154l92 397h-249l34 142h248l80 350h-248l33 141h248l94 404h154l-95 -404h363l94 404h156l-94 -404h252zM868 539l80 350h-362l-80 -350h362z" />
    <glyph glyph-name="dollar" unicode="$" horiz-adv-x="1300" 
d="M1204 410q0 -169 -122.5 -283.5t-329.5 -140.5v-170h-217v170q-257 26 -410 176l86 149q168 -151 416 -151q162 0 256 61.5t94 167.5q0 44 -18 80.5t-47 64t-77 52t-98 42.5t-119 38l-94 26q-74 20 -131.5 43t-112 57.5t-90.5 76.5t-57.5 101t-21.5 130
q0 173 116.5 288.5t315.5 141.5v170h217v-170q219 -26 379 -168l-99 -152q-166 146 -391 146q-141 0 -226 -61.5t-85 -161.5q0 -42 16 -77t40 -58.5t64.5 -45t78 -35t90.5 -28.5l98 -27q62 -18 114 -38t109.5 -48t101 -63t80 -79t55.5 -101t19 -123z" />
    <glyph glyph-name="percent" unicode="%" horiz-adv-x="1665" 
d="M432 848q-162 0 -261 94.5t-99 249.5t99 249.5t261 94.5q163 0 262 -94.5t99 -249.5t-99 -249.5t-262 -94.5zM455 -20l-115 71l870 1485l115 -70zM434 987q82 0 133 56.5t51 148.5q0 93 -51 150t-133 57q-85 0 -136.5 -56.5t-51.5 -150.5q0 -92 51.5 -148.5t136.5 -56.5z
M1235 -20q-163 0 -263 94.5t-100 249.5t100 249.5t263 94.5q161 0 259.5 -94.5t98.5 -249.5t-98.5 -249.5t-259.5 -94.5zM1235 117q82 0 133 57t51 150t-51 148.5t-133 55.5q-85 0 -136.5 -55.5t-51.5 -148.5q0 -94 51.5 -150.5t136.5 -56.5z" />
    <glyph glyph-name="ampersand" unicode="&#x26;" horiz-adv-x="1593" 
d="M1292 160q112 0 205 37v-168q-109 -49 -270 -49q-96 0 -169 42.5t-112 118.5q-68 -79 -167 -120t-216 -41q-206 0 -333.5 119.5t-127.5 312.5q0 143 79 248t220 157q-105 48 -164 134.5t-59 199.5q0 173 131 279t346 106q209 0 338 -107t129 -282v-252h359v-164h-361
v-387q0 -83 47.5 -133.5t124.5 -50.5zM655 1356q-117 0 -187.5 -62.5t-70.5 -165.5q0 -105 70.5 -169t187.5 -64h258v229q0 104 -71 168t-187 64zM614 160q126 0 211.5 65.5t85.5 190.5v315h-258q-151 0 -242.5 -79t-91.5 -208t81.5 -206.5t213.5 -77.5z" />
    <glyph glyph-name="quotesingle" unicode="'" horiz-adv-x="430" 
d="M133 1155l-4 442h172l-6 -442h-162z" />
    <glyph glyph-name="parenleft" unicode="(" horiz-adv-x="641" 
d="M401 -369q-40 62 -76 127.5t-79.5 165t-74.5 201t-52 231t-21 258.5t21 258.5t52 231t74.5 201t79.5 165t76 127.5h193q-30 -52 -50 -90t-57.5 -115.5t-63 -155t-52 -176t-40.5 -213t-14 -233.5t14 -233.5t40.5 -213t52 -176t63 -155t57.5 -115.5t50 -90h-193z" />
    <glyph glyph-name="parenright" unicode=")" horiz-adv-x="641" 
d="M47 -369q38 66 62 111.5t70 151.5t74 202t50.5 236.5t22.5 281.5t-22.5 281.5t-50.5 236.5t-74 202t-70 151.5t-62 111.5h193q40 -62 76 -127.5t79.5 -165t74.5 -201t52 -231t21 -258.5t-21 -258.5t-52 -231t-74.5 -201t-79.5 -165t-76 -127.5h-193z" />
    <glyph glyph-name="asterisk" unicode="*" horiz-adv-x="804" 
d="M696 1251l-190 -57l121 -158l-111 -80l-113 164l-114 -164l-111 80l121 158l-190 57l41 131l188 -65l-6 199h139l-6 -201l188 67z" />
    <glyph glyph-name="plus" unicode="+" horiz-adv-x="1114" 
d="M1018 801v-174h-356v-361h-209v361h-359v174h359v360h209v-360h356z" />
    <glyph glyph-name="comma" unicode="," horiz-adv-x="528" 
d="M23 -297l141 510h244l-175 -510h-210z" />
    <glyph glyph-name="hyphen" unicode="-" horiz-adv-x="933" 
d="M137 514v152h660v-152h-660z" />
    <glyph glyph-name="period" unicode="." horiz-adv-x="507" 
d="M254 -20q-59 0 -101 42.5t-42 102.5q0 59 42.5 101t100.5 42q60 0 101.5 -42t41.5 -101q0 -60 -41.5 -102.5t-101.5 -42.5z" />
    <glyph glyph-name="slash" unicode="/" horiz-adv-x="866" 
d="M82 -205l489 1802h211l-489 -1802h-211z" />
    <glyph glyph-name="zero" unicode="0" horiz-adv-x="1296" 
d="M649 -20q-250 0 -402.5 214t-152.5 564t152.5 564t402.5 214t402.5 -214t152.5 -564t-152.5 -564t-402.5 -214zM649 160q149 0 238.5 164.5t89.5 433.5t-89.5 433.5t-238.5 164.5t-239.5 -164.5t-90.5 -433.5t90.5 -433.5t239.5 -164.5z" />
    <glyph glyph-name="one" unicode="1" horiz-adv-x="878" 
d="M469 0v1233l-340 -244l-111 158l502 369h166v-1516h-217z" />
    <glyph glyph-name="two" unicode="2" horiz-adv-x="1181" 
d="M90 0v137l463 502q5 6 36 39t42.5 46t40.5 46.5t43 53.5t38 53.5t36 59.5t26 57.5t19.5 62.5t5.5 61q0 108 -68.5 173t-181.5 65q-119 0 -190.5 -73.5t-71.5 -192.5l-224 18q0 193 132.5 310.5t349.5 117.5q214 0 344.5 -109t130.5 -290q0 -67 -21 -135.5t-50 -123.5
t-83.5 -125t-97 -117t-113.5 -122l-319 -336l704 2v-180h-991z" />
    <glyph glyph-name="three" unicode="3" horiz-adv-x="1171" 
d="M596 895q216 0 348.5 -123t132.5 -321q0 -213 -150.5 -342t-402.5 -129q-141 0 -260.5 42t-189.5 119l84 160q120 -141 342 -141q160 0 256 79.5t96 209.5q0 127 -91.5 202.5t-244.5 75.5q-123 0 -221 -49l-57 110l487 547h-588v181h875v-138l-455 -485q12 2 39 2z" />
    <glyph glyph-name="four" unicode="4" horiz-adv-x="1280" 
d="M772 0v311h-727v154l772 1051h172v-1024h221v-181h-221v-311h-217zM299 487h479l4 660z" />
    <glyph glyph-name="five" unicode="5" horiz-adv-x="1187" 
d="M512 -20q-288 0 -446 137l63 159q133 -116 363 -116q169 0 271.5 85.5t102.5 225.5q0 128 -81 205.5t-214 77.5q-141 0 -254 -66l-147 21l104 807h746v-181h-557l-64 -428q111 29 211 29q215 0 349.5 -124.5t134.5 -326.5q0 -226 -161.5 -365.5t-420.5 -139.5z" />
    <glyph glyph-name="six" unicode="6" horiz-adv-x="1177" 
d="M641 922q200 0 332.5 -128.5t132.5 -334.5q0 -215 -139.5 -347t-368.5 -132q-230 0 -370 130.5t-140 344.5q0 112 34 206t103 193l457 662h246l-439 -611q73 17 152 17zM596 160q128 0 206.5 82t78.5 215t-78.5 215t-206.5 82q-127 0 -205 -81.5t-78 -215.5t78 -215.5
t205 -81.5z" />
    <glyph glyph-name="seven" unicode="7" horiz-adv-x="1071" 
d="M45 1516h991l-526 -1516h-234l478 1335h-709v181z" />
    <glyph glyph-name="eight" unicode="8" horiz-adv-x="1236" 
d="M866 788q124 -50 193 -146.5t69 -227.5q0 -195 -140.5 -314.5t-369.5 -119.5t-369 118.5t-140 311.5q0 131 69 228.5t193 147.5q-104 48 -162.5 137t-58.5 205q0 183 128.5 295.5t339.5 112.5t340 -111.5t129 -294.5q0 -116 -58.5 -205t-162.5 -137zM618 1356
q-108 0 -175.5 -67t-67.5 -175q0 -107 67 -173.5t176 -66.5t175.5 66.5t66.5 173.5q0 108 -67 175t-175 67zM618 160q128 0 205.5 73t77.5 193t-78 194t-205 74t-205.5 -74t-78.5 -194t78 -193t206 -73z" />
    <glyph glyph-name="nine" unicode="9" horiz-adv-x="1177" 
d="M578 1536q230 0 369.5 -130.5t139.5 -344.5q0 -112 -34 -206t-103 -193l-456 -662h-246l438 610q-69 -16 -151 -16q-200 0 -332.5 128.5t-132.5 334.5q0 215 139.5 347t368.5 132zM295 1059q0 -133 78.5 -215t206.5 -82q127 0 204.5 81.5t77.5 215.5t-77.5 215.5
t-204.5 81.5q-128 0 -206.5 -82t-78.5 -215z" />
    <glyph glyph-name="colon" unicode=":" horiz-adv-x="546" 
d="M274 825q-60 0 -102.5 42.5t-42.5 101.5q0 60 42.5 102.5t102.5 42.5q59 0 101.5 -42.5t42.5 -102.5q0 -59 -43 -101.5t-101 -42.5zM274 -20q-60 0 -102.5 42.5t-42.5 102.5q0 59 42.5 101t102.5 42q59 0 101.5 -42.5t42.5 -100.5q0 -60 -42.5 -102.5t-101.5 -42.5z" />
    <glyph glyph-name="semicolon" unicode=";" horiz-adv-x="626" 
d="M326 825q-60 0 -103 42.5t-43 101.5q0 60 43 102.5t103 42.5q59 0 101 -42.5t42 -102.5q0 -59 -42.5 -101.5t-100.5 -42.5zM82 -297l141 510h246l-174 -510h-213z" />
    <glyph glyph-name="less" unicode="&#x3c;" horiz-adv-x="1126" 
d="M981 1217v-197l-647 -303l647 -303v-197l-905 434v131z" />
    <glyph glyph-name="equal" unicode="=" horiz-adv-x="1210" 
d="M143 858v174h924v-174h-924zM143 395v174h924v-174h-924z" />
    <glyph glyph-name="greater" unicode="&#x3e;" horiz-adv-x="1126" 
d="M145 1217l906 -435v-131l-906 -434v197l648 303l-648 303v197z" />
    <glyph glyph-name="question" unicode="?" horiz-adv-x="1093" 
d="M440 387q0 93 15 171t34.5 128t54 97.5t58.5 71.5t64 58q43 37 66 60.5t42 64t19 88.5q0 103 -70.5 166.5t-187.5 63.5q-112 0 -184.5 -63.5t-80.5 -166.5l-202 11q9 180 137 289.5t330 109.5q218 0 350.5 -109t132.5 -286q0 -59 -13.5 -107t-44 -88.5t-54.5 -64
t-70 -62.5q-36 -31 -53 -47t-48 -49t-46.5 -62t-34 -70.5t-26 -92.5t-7.5 -111h-181zM530 -20q-57 0 -94 37t-37 94t37 93t94 36q56 0 92.5 -36t36.5 -93t-36.5 -94t-92.5 -37z" />
    <glyph glyph-name="at" unicode="@" horiz-adv-x="2242" 
d="M1358 977h201v-551q0 -75 38.5 -120.5t102.5 -45.5q101 0 163 110t62 283q0 212 -97.5 372.5t-273 246.5t-403.5 86q-251 0 -441 -103.5t-292.5 -291.5t-102.5 -435q0 -184 58.5 -336t165.5 -259t264 -165.5t348 -58.5q119 0 277.5 20t277.5 54l63 -164
q-131 -41 -305 -65.5t-319 -24.5q-317 0 -555 125t-365 351.5t-127 524.5q0 301 129.5 530t368.5 353.5t555 124.5q218 0 400.5 -62t311 -174.5t200 -274.5t71.5 -357q0 -262 -118.5 -426t-311.5 -164q-107 0 -186 53.5t-115 147.5q-47 -95 -136 -149t-210 -54
q-189 0 -309.5 125.5t-120.5 328.5q0 205 120.5 333t305.5 128q200 0 301 -157zM1098 258q114 0 183 76.5t69 200.5q0 125 -69 201.5t-183 76.5t-183 -76.5t-69 -201.5t69 -201t183 -76z" />
    <glyph glyph-name="A" unicode="A" horiz-adv-x="1638" 
d="M819 1536q289 0 465 -158t176 -417v-961h-217v481h-848v-481h-217v961q0 259 176 417t465 158zM395 664h848v286q0 182 -116.5 294t-305.5 112q-192 0 -309 -112t-117 -294v-286z" />
    <glyph glyph-name="B" unicode="B" horiz-adv-x="1423" 
d="M1028 797q141 -40 221 -136.5t80 -230.5q0 -194 -139.5 -312t-368.5 -118h-626v1516h602q206 0 331 -107.5t125 -284.5q0 -108 -58.5 -191.5t-166.5 -135.5zM414 1335v-467h334q126 0 203 65t77 169t-78.5 168.5t-204.5 64.5h-331zM805 180q133 0 215 70t82 184
t-81.5 184t-213.5 70h-393v-508h391z" />
    <glyph glyph-name="C" unicode="C" horiz-adv-x="1562" 
d="M883 -20q-352 0 -568.5 215.5t-216.5 566.5q0 230 97.5 406t275.5 272t410 96q360 0 583 -246l-137 -139q-76 94 -188 149.5t-252 55.5q-253 0 -407 -163.5t-154 -430.5q0 -270 154 -436t405 -166q309 0 477 254l149 -135q-107 -143 -267.5 -221t-360.5 -78z" />
    <glyph glyph-name="D" unicode="D" horiz-adv-x="1587" 
d="M748 1516q333 0 536 -208.5t203 -551.5q0 -168 -53.5 -309t-149.5 -239.5t-233.5 -153t-302.5 -54.5h-553v1516h553zM739 180q235 0 379 159t144 417q0 261 -144 420t-379 159h-325v-1155h325z" />
    <glyph glyph-name="E" unicode="E" horiz-adv-x="1304" 
d="M414 180h776v-180h-995v1516h979v-181h-760v-475h702v-180h-702v-500z" />
    <glyph glyph-name="F" unicode="F" horiz-adv-x="1169" 
d="M1098 1335h-684v-516h600v-180h-600v-639h-219v1516h903v-181z" />
    <glyph glyph-name="G" unicode="G" horiz-adv-x="1650" 
d="M1587 827q2 -23 2 -69q0 -354 -197.5 -566t-531.5 -212q-169 0 -311 56t-240.5 157.5t-153.5 246.5t-55 318q0 231 94 408t266.5 273.5t399.5 96.5q315 0 520 -162l-143 -137q-136 119 -375 119q-241 0 -388.5 -164.5t-147.5 -433.5t147.5 -433.5t388.5 -164.5
q217 0 351.5 132.5t148.5 354.5h-440v180h665z" />
    <glyph glyph-name="H" unicode="H" horiz-adv-x="1701" 
d="M1290 1516h217v-1516h-217v680h-876v-680h-219v1516h219v-654h876v654z" />
    <glyph glyph-name="I" unicode="I" horiz-adv-x="608" 
d="M195 0v1516h219v-1516h-219z" />
    <glyph glyph-name="J" unicode="J" horiz-adv-x="1177" 
d="M997 1516v-1041q0 -224 -141.5 -359.5t-374.5 -135.5q-260 0 -426 180l109 147q118 -147 305 -147q140 0 225.5 89.5t85.5 235.5v850h-669v181h886z" />
    <glyph glyph-name="K" unicode="K" horiz-adv-x="1415" 
d="M1151 0l-526 684h-211v-684h-219v1516h219v-650h209l505 650h263l-582 -738l604 -778h-262z" />
    <glyph glyph-name="L" unicode="L" horiz-adv-x="1136" 
d="M414 180h692v-180h-911v1516h219v-1336z" />
    <glyph glyph-name="M" unicode="M" horiz-adv-x="2033" 
d="M1884 0h-217l-63 1149l-525 -1149h-125l-522 1145l-63 -1145h-219l96 1526h235l537 -1174l534 1174h236z" />
    <glyph glyph-name="N" unicode="N" horiz-adv-x="1746" 
d="M195 0v1516h137l1007 -1143l-6 1143h219v-1516h-137l-1005 1143l4 -1143h-219z" />
    <glyph glyph-name="O" unicode="O" horiz-adv-x="1746" 
d="M874 -20q-230 0 -406.5 96.5t-273 273.5t-96.5 408t96.5 408t273 273.5t406.5 96.5q172 0 316 -56t245 -157.5t157.5 -246.5t56.5 -318t-56.5 -318t-157.5 -246.5t-245 -157.5t-316 -56zM874 160q246 0 397.5 165t151.5 433t-151.5 433t-397.5 165q-247 0 -397.5 -164.5
t-150.5 -433.5t150.5 -433.5t397.5 -164.5z" />
    <glyph glyph-name="P" unicode="P" horiz-adv-x="1349" 
d="M776 1516q230 0 371 -131t141 -345q0 -220 -142.5 -354.5t-375.5 -134.5h-356v-551h-219v1516h581zM750 731q144 0 227.5 82.5t83.5 220.5q0 135 -85 218t-226 83h-336v-604h336z" />
    <glyph glyph-name="Q" unicode="Q" horiz-adv-x="1748" 
d="M1690 0h-260l-101 106q-189 -126 -455 -126q-230 0 -406.5 96.5t-273 273.5t-96.5 408t96.5 408t273 273.5t406.5 96.5q172 0 316 -56t245 -157.5t157.5 -246.5t56.5 -318q0 -316 -179 -527zM874 160q185 0 318 94l-268 289h250l147 -156q102 151 102 371
q0 268 -151.5 433t-397.5 165q-247 0 -397.5 -164.5t-150.5 -433.5t150.5 -433.5t397.5 -164.5z" />
    <glyph glyph-name="R" unicode="R" horiz-adv-x="1460" 
d="M1419 0h-256l-377 590h-18h-354v-590h-219v1516h596q233 0 375.5 -127t142.5 -336q0 -151 -80.5 -261.5t-222.5 -162.5zM414 1335v-565h338q149 0 239 77.5t90 205.5q0 127 -87 204.5t-230 77.5h-350z" />
    <glyph glyph-name="S" unicode="S" horiz-adv-x="1300" 
d="M639 -20q-155 0 -288.5 46t-225.5 136l86 149q168 -151 416 -151q162 0 256 61.5t94 167.5q0 44 -18 80.5t-47 64t-77 52t-98 42.5t-119 38l-94 26q-74 20 -131.5 43t-112 57.5t-90.5 76.5t-57.5 101t-21.5 130q0 197 147.5 316.5t390.5 119.5q295 0 490 -174l-99 -152
q-166 146 -391 146q-141 0 -226 -61.5t-85 -161.5q0 -42 16 -77t40 -58.5t64.5 -45t78 -35t90.5 -28.5l98 -27q62 -18 114 -38t109.5 -48t101 -63t80 -79t55.5 -101t19 -123q0 -193 -155.5 -311.5t-409.5 -118.5z" />
    <glyph glyph-name="T" unicode="T" horiz-adv-x="1226" 
d="M1198 1516v-181h-475v-1335h-219v1335h-475v181h1169z" />
    <glyph glyph-name="U" unicode="U" horiz-adv-x="1636" 
d="M819 -20q-289 0 -466 158t-177 419v959h217v-951q0 -182 117 -293.5t309 -111.5q189 0 305.5 112t116.5 293v951h219v-959q0 -261 -176 -419t-465 -158z" />
    <glyph glyph-name="V" unicode="V" horiz-adv-x="1519" 
d="M657 0l-655 1516h234l526 -1248l522 1248h234l-656 -1516h-205z" />
    <glyph glyph-name="W" unicode="W" horiz-adv-x="2293" 
d="M2048 1516h233l-532 -1516h-205l-397 1204l-397 -1204h-203l-535 1516h234l413 -1223l385 1223h205l389 -1223z" />
    <glyph glyph-name="X" unicode="X" horiz-adv-x="1357" 
d="M1356 0h-252l-424 618l-426 -618h-252l555 782l-512 734h252l381 -564l381 564h252l-510 -732z" />
    <glyph glyph-name="Y" unicode="Y" horiz-adv-x="1378" 
d="M1116 1516h234l-551 -928v-588h-219v588l-551 928h235l426 -734z" />
    <glyph glyph-name="Z" unicode="Z" horiz-adv-x="1325" 
d="M367 180h886v-180h-1181v137l868 1198h-856v181h1149v-138z" />
    <glyph glyph-name="bracketleft" unicode="[" horiz-adv-x="763" 
d="M180 -369v1966h527v-180h-310v-1605h310v-181h-527z" />
    <glyph glyph-name="backslash" unicode="\" horiz-adv-x="866" 
d="M571 -205l-489 1802h211l489 -1802h-211z" />
    <glyph glyph-name="bracketright" unicode="]" horiz-adv-x="763" 
d="M584 -369h-527v181h310v1605h-310v180h527v-1966z" />
    <glyph glyph-name="asciicircum" unicode="^" horiz-adv-x="1050" 
d="M952 653h-207l-219 439l-221 -439h-207l324 645h207z" />
    <glyph glyph-name="underscore" unicode="_" horiz-adv-x="1138" 
d="M51 -152v152h1036v-152h-1036z" />
    <glyph glyph-name="grave" unicode="`" horiz-adv-x="1228" 
d="M319 1268l-339 317h249l273 -317h-183z" />
    <glyph glyph-name="a" unicode="a" horiz-adv-x="1376" 
d="M1020 1094h203v-1094h-203l-4 201q-128 -221 -404 -221q-228 0 -376 156t-148 407q0 254 148 412.5t376 158.5q276 0 404 -221zM659 160q159 0 257 106.5t98 280.5q0 173 -98.5 280t-256.5 107q-160 0 -257 -107t-97 -282q0 -173 97 -279t257 -106z" />
    <glyph glyph-name="b" unicode="b" horiz-adv-x="1378" 
d="M766 1114q227 0 374.5 -158.5t147.5 -412.5q0 -251 -147.5 -407t-374.5 -156q-281 0 -404 219l-6 -199h-200v1597h209v-698q126 215 401 215zM717 160q160 0 257 106t97 279q0 175 -97 282t-257 107q-158 0 -255 -107t-97 -280q0 -175 97 -281t255 -106z" />
    <glyph glyph-name="c" unicode="c" horiz-adv-x="1107" 
d="M655 -20q-255 0 -411 156t-156 411t158 411t416 156q206 0 364 -123l-119 -143q-106 86 -243 86q-161 0 -260 -107t-99 -280q0 -174 99.5 -280.5t261.5 -106.5q172 0 274 108l121 -141q-153 -147 -406 -147z" />
    <glyph glyph-name="d" unicode="d" horiz-adv-x="1376" 
d="M1014 1597h209v-1597h-203l-4 201q-128 -221 -404 -221q-228 0 -376 156t-148 407q0 254 148 412.5t376 158.5q275 0 402 -219v702zM659 160q159 0 257 106.5t98 280.5q0 173 -98.5 280t-256.5 107q-160 0 -257 -107t-97 -282q0 -173 97 -279t257 -106z" />
    <glyph glyph-name="e" unicode="e" horiz-adv-x="1230" 
d="M1149 561q0 -65 -4 -90h-834q15 -153 96 -239.5t220 -86.5q189 0 313 160l160 -86q-77 -114 -199 -176.5t-272 -62.5q-242 0 -390.5 155t-148.5 408q0 257 146 414t385 157q238 0 383 -152t145 -401zM621 948q-134 0 -215 -88.5t-95 -245.5h623q-14 157 -96 245.5
t-217 88.5z" />
    <glyph glyph-name="f" unicode="f" horiz-adv-x="724" 
d="M553 1438q-85 0 -136.5 -48.5t-51.5 -127.5v-168h331v-172h-331v-922h-209v1294q0 146 91 235t242 89q145 0 232 -43l-16 -164q-61 27 -152 27z" />
    <glyph glyph-name="g" unicode="g" horiz-adv-x="1376" 
d="M1022 1094h203v-1004q0 -253 -171 -407t-452 -154q-298 0 -483 141l45 166q183 -127 432 -127q189 0 304.5 106t115.5 281v101q-127 -217 -402 -217q-228 0 -376 158.5t-148 412.5q0 251 148 407t376 156q276 0 404 -221zM662 160q158 0 256 107t98 280t-98 280t-256 107
q-160 0 -257.5 -106t-97.5 -279q0 -175 97.5 -282t257.5 -107z" />
    <glyph glyph-name="h" unicode="h" horiz-adv-x="1320" 
d="M737 1114q198 0 320.5 -117t122.5 -309v-688h-209v651q0 127 -83 205t-220 78t-220 -78t-83 -205v-651h-209v1597h209v-659q121 176 372 176z" />
    <glyph glyph-name="i" unicode="i" horiz-adv-x="522" 
d="M262 1321q-57 0 -94 37t-37 94t37 94t94 37q56 0 92.5 -37t36.5 -94t-36.5 -94t-92.5 -37zM158 0v1094h209v-1094h-209z" />
    <glyph glyph-name="j" unicode="j" horiz-adv-x="522" 
d="M260 1321q-56 0 -93.5 37t-37.5 94t37.5 94t93.5 37q57 0 94 -37t37 -94t-37 -94t-94 -37zM158 -451v1545h209v-1545h-209z" />
    <glyph glyph-name="k" unicode="k" horiz-adv-x="1202" 
d="M942 0l-416 487h-161v-487h-209v1597h209v-935h163l390 432h264l-484 -519l510 -575h-266z" />
    <glyph glyph-name="l" unicode="l" horiz-adv-x="528" 
d="M160 0v1597h209v-1597h-209z" />
    <glyph glyph-name="m" unicode="m" horiz-adv-x="2000" 
d="M1421 1114q197 0 317 -117t120 -309v-688h-209v651q0 128 -74 205.5t-195 77.5q-122 0 -196 -78t-74 -205v-651h-209v651q0 128 -73.5 205.5t-194.5 77.5t-194.5 -77.5t-73.5 -205.5v-651h-209v1094h200l4 -150q54 82 142 126t200 44q119 0 210 -51t143 -143
q54 93 149 143.5t217 50.5z" />
    <glyph glyph-name="n" unicode="n" horiz-adv-x="1320" 
d="M737 1114q198 0 320.5 -117t122.5 -309v-688h-209v651q0 127 -83 205t-220 78t-220 -78t-83 -205v-651h-209v1094h200l4 -162q59 88 155.5 135t221.5 47z" />
    <glyph glyph-name="o" unicode="o" horiz-adv-x="1316" 
d="M659 -20q-257 0 -414 156t-157 411t157 411t414 156q255 0 412.5 -156t157.5 -411t-157.5 -411t-412.5 -156zM659 160q158 0 255.5 107t97.5 280t-97.5 280t-255.5 107q-159 0 -256.5 -106.5t-97.5 -280.5t97.5 -280.5t256.5 -106.5z" />
    <glyph glyph-name="p" unicode="p" horiz-adv-x="1378" 
d="M766 1114q227 0 374.5 -156t147.5 -407q0 -254 -147.5 -412.5t-374.5 -158.5q-275 0 -401 215v-646h-209v1545h200l6 -199q123 219 404 219zM717 160q160 0 257 107t97 282q0 173 -97 279t-257 106q-158 0 -255 -107t-97 -280t97 -280t255 -107z" />
    <glyph glyph-name="q" unicode="q" horiz-adv-x="1376" 
d="M1020 1094h203v-1545h-209v648q-127 -217 -402 -217q-228 0 -376 158.5t-148 412.5q0 251 148 407t376 156q276 0 404 -221zM659 160q158 0 256.5 107t98.5 280t-98.5 280t-256.5 107q-160 0 -257 -106t-97 -279q0 -175 97 -282t257 -107z" />
    <glyph glyph-name="r" unicode="r" horiz-adv-x="794" 
d="M360 930q125 184 418 184l-14 -192q-184 0 -291.5 -84.5t-107.5 -225.5v-612h-209v1094h200z" />
    <glyph glyph-name="s" unicode="s" horiz-adv-x="1015" 
d="M494 -20q-258 0 -396 120l82 129q134 -86 316 -86q97 0 156 41.5t59 108.5q0 60 -54.5 99.5t-154.5 68.5l-105 28q-72 20 -123 42t-93.5 55.5t-63.5 80.5t-21 109q0 152 112.5 245t295.5 93q234 0 391 -104l-90 -140q-128 78 -287 78q-93 0 -150 -38.5t-57 -102.5
q0 -57 47.5 -91.5t137.5 -60.5l104 -28q326 -87 326 -318q0 -149 -118 -239t-314 -90z" />
    <glyph glyph-name="t" unicode="t" horiz-adv-x="763" 
d="M526 160q112 0 205 37v-168q-109 -49 -272 -49q-141 0 -227.5 88t-86.5 233v1112h209v-319h361v-172h-361v-578q0 -83 47.5 -133.5t124.5 -50.5z" />
    <glyph glyph-name="u" unicode="u" horiz-adv-x="1271" 
d="M637 -20q-224 0 -360 122.5t-136 323.5v668h209v-654q0 -126 78.5 -203t208.5 -77q129 0 207 77t78 203v654h208v-668q0 -201 -135 -323.5t-358 -122.5z" />
    <glyph glyph-name="v" unicode="v" horiz-adv-x="1198" 
d="M494 0l-476 1094h230l350 -854l352 854h228l-473 -1094h-211z" />
    <glyph glyph-name="w" unicode="w" horiz-adv-x="1875" 
d="M1624 1094h229l-413 -1094h-211l-291 848l-291 -848h-211l-413 1094h229l303 -854l295 854h176l295 -854z" />
    <glyph glyph-name="x" unicode="x" horiz-adv-x="1153" 
d="M1135 0h-252l-305 416l-308 -416h-252l431 559l-406 535h252l283 -387l280 387h252l-405 -535z" />
    <glyph glyph-name="y" unicode="y" horiz-adv-x="1286" 
d="M924 1094h209v-1004q0 -253 -155 -407t-409 -154q-269 0 -438 141l45 166q165 -127 387 -127q163 0 262 106t99 281v56q-118 -172 -357 -172q-192 0 -309 117t-117 309v688h209v-654q0 -126 79 -203t208 -77t208 77t79 203v654z" />
    <glyph glyph-name="z" unicode="z" horiz-adv-x="1081" 
d="M78 0v135l610 787h-600v172h897v-136l-610 -784h635v-174h-932z" />
    <glyph glyph-name="braceleft" unicode="{" horiz-adv-x="827" 
d="M551 -389q-139 0 -224 84.5t-85 224.5v402q0 92 -45 147t-117 55h-14v181h14q72 0 117 55.5t45 146.5v402q0 139 85 224t224 85q114 0 217 -25v-172q-76 17 -145 17q-74 0 -119 -52.5t-45 -138.5v-364q0 -101 -45.5 -175t-120.5 -94q75 -20 120.5 -93.5t45.5 -174.5v-364
q0 -86 45 -138.5t119 -52.5q73 0 145 16v-172q-99 -24 -217 -24z" />
    <glyph glyph-name="bar" unicode="|" horiz-adv-x="581" 
d="M182 -451v2048h217v-2048h-217z" />
    <glyph glyph-name="braceright" unicode="}" horiz-adv-x="827" 
d="M276 -389q-118 0 -217 24v172q72 -16 146 -16t119 52.5t45 138.5v364q0 101 45.5 174.5t120.5 93.5q-75 20 -120.5 94t-45.5 175v364q0 86 -45 138.5t-119 52.5q-69 0 -146 -17v172q103 25 217 25q140 0 225 -85t85 -224v-402q0 -91 45 -146.5t117 -55.5h14v-181h-14
q-72 0 -117 -55t-45 -147v-402q0 -139 -85 -224t-225 -85z" />
    <glyph glyph-name="asciitilde" unicode="~" horiz-adv-x="1202" 
d="M803 463q-54 0 -113.5 21t-101.5 45.5t-92.5 45.5t-89.5 21q-61 0 -100.5 -30.5t-39.5 -82.5h-119q0 121 71.5 194t184.5 73q56 0 115 -20.5t101 -45.5t92 -45.5t90 -20.5q63 0 102 29.5t39 81.5h119q0 -123 -71 -194.5t-187 -71.5z" />
    <glyph glyph-name="uni00A0" unicode="&#xa0;" horiz-adv-x="526" 
 />
    <glyph glyph-name="exclamdown" unicode="&#xa1;" horiz-adv-x="530" 
d="M266 852q-57 0 -94 37.5t-37 93.5q0 57 37 94t94 37t93 -37t36 -94q0 -56 -36.5 -93.5t-92.5 -37.5zM156 -451l20 1158h180l19 -1158h-219z" />
    <glyph glyph-name="cent" unicode="&#xa2;" horiz-adv-x="1171" 
d="M1061 229q-117 -114 -297 -139v-172h-197v170q-219 26 -349 178t-130 383q0 230 130 381.5t349 179.5v170h197v-172q145 -23 262 -114l-119 -144q-106 86 -243 86q-161 0 -260 -107t-99 -280q0 -174 99.5 -280.5t261.5 -106.5q171 0 274 109z" />
    <glyph glyph-name="sterling" unicode="&#xa3;" horiz-adv-x="1234" 
d="M457 174h663v-174h-1014v172h134v455h-113v174h113v344q0 177 119.5 284t314.5 107t314.5 -108t119.5 -285l-213 -15q0 102 -61 165t-160 63q-97 0 -157 -61t-60 -162v-332h581v-174h-581v-453z" />
    <glyph glyph-name="currency" unicode="&#xa4;" horiz-adv-x="1277" 
d="M1102 705q0 -138 -78 -256l125 -125l-127 -129l-127 124q-118 -75 -256 -75q-141 0 -256 73l-125 -124l-129 129l125 124q-80 116 -80 259t80 256l-125 124l129 129l127 -127q113 74 254 74t256 -76l127 127l127 -129l-125 -125q78 -115 78 -253zM639 401q121 0 206 89
t85 215q0 125 -85 214t-206 89t-207 -89t-86 -214q0 -126 86 -215t207 -89z" />
    <glyph glyph-name="yen" unicode="&#xa5;" horiz-adv-x="1441" 
d="M1382 1516l-477 -805h258v-140h-332v-110h332v-139h-332v-322h-219v322h-333v139h333v110h-333v140h260l-478 805h236l426 -734l426 734h233z" />
    <glyph glyph-name="brokenbar" unicode="&#xa6;" horiz-adv-x="575" 
d="M178 778v819h219v-819h-219zM178 -451v820h219v-820h-219z" />
    <glyph glyph-name="section" unicode="&#xa7;" horiz-adv-x="1226" 
d="M1120 492q0 -164 -102 -275q102 -105 102 -258q0 -194 -142.5 -312t-375.5 -118q-142 0 -264.5 46t-208.5 136l84 150q158 -152 377 -152q142 0 223.5 62t81.5 168q0 102 -78.5 162t-234.5 110l-84 29q-70 22 -123 45t-104 57.5t-83.5 76t-52.5 100t-20 130.5
q0 164 100 281q-100 97 -100 252q0 196 136 316t359 120q268 0 451 -174l-96 -152q-152 146 -353 146q-122 0 -196 -62t-74 -162q0 -42 14.5 -76.5t35 -57.5t58 -44.5t69 -34t81.5 -30.5l86 -27q71 -24 125.5 -48t115.5 -63t101 -84.5t66 -111.5t26 -145zM600 426l86 -29
q102 -33 168 -67q55 55 55 141q0 57 -23 101.5t-69.5 78t-101 58t-133.5 49.5l-84 26q-54 16 -117 43q-53 -59 -53 -145q0 -56 20 -97.5t61.5 -71t83 -47.5t107.5 -40z" />
    <glyph glyph-name="dieresis" unicode="&#xa8;" horiz-adv-x="1228" 
d="M254 1321q-57 0 -94 37t-37 94t37 94t94 37q56 0 92.5 -37t36.5 -94t-36.5 -94t-92.5 -37zM711 1321q-57 0 -94 37t-37 94t37 94t94 37q56 0 92.5 -37t36.5 -94t-36.5 -94t-92.5 -37z" />
    <glyph glyph-name="copyright" unicode="&#xa9;" horiz-adv-x="1761" 
d="M881 -20q-351 0 -564 213.5t-213 564.5t213 564.5t564 213.5q350 0 563 -214t213 -564t-213 -564t-563 -214zM881 82q292 0 471.5 186t179.5 490t-179.5 491t-471.5 187t-472 -187t-180 -491t180 -490t472 -186zM895 324q-197 0 -318.5 118.5t-121.5 311.5
q0 192 120.5 309t317.5 117q201 0 328 -136l-95 -96q-85 109 -229 109q-130 0 -209.5 -84t-79.5 -219q0 -139 80 -223.5t209 -84.5q160 0 250 134l100 -91q-121 -165 -352 -165z" />
    <glyph glyph-name="ordfeminine" unicode="&#xaa;" horiz-adv-x="813" 
d="M397 1536q125 0 201 -69.5t76 -186.5v-414h-133l-2 111q-34 -58 -91.5 -90.5t-125.5 -32.5q-100 0 -162 55t-62 144q0 94 76 150.5t201 56.5q59 0 164 -19v25q0 77 -46 120.5t-128 43.5q-99 0 -164 -62l-62 82q106 86 258 86zM360 952q71 0 125 54t54 143q-78 16 -148 16
q-69 0 -110 -29.5t-41 -78.5q0 -48 31.5 -76.5t88.5 -28.5z" />
    <glyph glyph-name="guillemotleft" unicode="&#xab;" horiz-adv-x="1265" 
d="M668 1018l-355 -465l355 -465h-222l-364 465l364 465h222zM1176 1018l-355 -465l355 -465h-224l-364 465l364 465h224z" />
    <glyph glyph-name="logicalnot" unicode="&#xac;" horiz-adv-x="1210" 
d="M1063 907v-495h-209v323h-715v172h924z" />
    <glyph glyph-name="uni00AD" unicode="&#xad;" horiz-adv-x="933" 
d="M137 514v152h660v-152h-660z" />
    <glyph glyph-name="registered" unicode="&#xae;" horiz-adv-x="845" 
d="M424 1618q141 0 228 -86.5t87 -228.5q0 -141 -87 -228.5t-228 -87.5q-142 0 -230 87.5t-88 228.5q0 142 87.5 228.5t230.5 86.5zM424 1030q118 0 190 75t72 198t-72 198.5t-190 75.5q-120 0 -192 -75.5t-72 -198.5t72 -198t192 -75zM551 1362q0 -66 -64 -92l88 -135h-71
l-76 125h-70v-125h-61v333h137q54 0 85.5 -29t31.5 -77zM358 1417v-108h66q29 0 46 14.5t17 38.5q0 25 -16 40t-43 15h-70z" />
    <glyph glyph-name="macron" unicode="&#xaf;" horiz-adv-x="1228" 
d="M109 1303v165h677v-165h-677z" />
    <glyph glyph-name="degree" unicode="&#xb0;" horiz-adv-x="733" 
d="M367 1114q-123 0 -199 69t-76 183t76 183t199 69q124 0 199 -69t75 -183t-75 -183t-199 -69zM367 1225q62 0 99.5 38.5t37.5 102.5q0 63 -38 102t-99 39q-62 0 -101 -39t-39 -102q0 -64 39 -102.5t101 -38.5z" />
    <glyph glyph-name="plusminus" unicode="&#xb1;" horiz-adv-x="1218" 
d="M713 954h350v-174h-350v-360h-209v360h-350v174h350v361h209v-361zM154 115v174h909v-174h-909z" />
    <glyph glyph-name="uni00B2" unicode="&#xb2;" horiz-adv-x="735" 
d="M63 811v90l279 301q4 4 26.5 28.5t32.5 36t30.5 36.5t31 43t23.5 42t18.5 47t5.5 46q0 63 -38.5 99t-104.5 36q-67 0 -108.5 -42.5t-41.5 -111.5l-143 13q0 117 80 187.5t211 70.5q129 0 207.5 -66.5t78.5 -175.5q0 -92 -54.5 -175.5t-160.5 -193.5l-186 -196l414 2v-117
h-601z" />
    <glyph glyph-name="uni00B3" unicode="&#xb3;" horiz-adv-x="724" 
d="M369 1352q130 0 209 -74.5t79 -194.5q0 -128 -90 -206t-243 -78q-85 0 -157.5 25t-115.5 69l53 104q72 -82 203 -82q93 0 149 46.5t56 121.5q0 72 -53.5 116t-141.5 44q-72 0 -129 -31l-41 72l285 320h-342v116h528v-88l-264 -280h15z" />
    <glyph glyph-name="acute" unicode="&#xb4;" horiz-adv-x="1228" 
d="M240 1268l272 317h248l-340 -317h-180z" />
    <glyph glyph-name="paragraph" unicode="&#xb6;" horiz-adv-x="1212" 
d="M1004 1516v-1967h-162v1813h-199v-1813h-162v1276h-135q-127 0 -203.5 96t-76.5 253q0 155 88 248.5t233 93.5h617z" />
    <glyph glyph-name="periodcentered" unicode="&#xb7;" horiz-adv-x="534" 
d="M266 449q-59 0 -101 42.5t-42 102.5q0 58 42.5 100.5t100.5 42.5q60 0 103 -42t43 -101q0 -60 -43 -102.5t-103 -42.5z" />
    <glyph glyph-name="cedilla" unicode="&#xb8;" horiz-adv-x="1228" 
d="M274 -123q101 0 161.5 -46.5t60.5 -121.5q0 -80 -69.5 -130t-186.5 -50q-127 0 -199 55l41 82q49 -43 137 -43q61 0 96 23.5t35 62.5q0 37 -33.5 58.5t-89.5 21.5q-43 0 -86 -16l-28 51l102 176h125l-78 -123h12z" />
    <glyph glyph-name="uni00B9" unicode="&#xb9;" horiz-adv-x="548" 
d="M285 811v729l-199 -143l-70 100l301 223h109v-909h-141z" />
    <glyph glyph-name="ordmasculine" unicode="&#xba;" horiz-adv-x="876" 
d="M440 854q-156 0 -251 94t-95 248t94.5 247t251.5 93q154 0 249 -93.5t95 -246.5q0 -154 -95 -248t-249 -94zM440 971q91 0 147 62t56 163q0 100 -56 162.5t-147 62.5q-92 0 -149.5 -62.5t-57.5 -162.5q0 -101 57.5 -163t149.5 -62z" />
    <glyph glyph-name="guillemotright" unicode="&#xbb;" horiz-adv-x="1265" 
d="M313 1018l365 -465l-365 -465h-223l354 465l-354 465h223zM819 1018l365 -465l-365 -465h-221l354 465l-354 465h221z" />
    <glyph glyph-name="onequarter" unicode="&#xbc;" horiz-adv-x="1689" 
d="M385 -20l-115 71l871 1485l114 -70zM285 606v729l-199 -143l-70 100l301 224h109v-910h-141zM1366 0v184h-434v99l463 626h112v-606h129v-119h-129v-184h-141zM1087 297h283v385z" />
    <glyph glyph-name="onehalf" unicode="&#xbd;" horiz-adv-x="1712" 
d="M385 -20l-115 71l871 1485l114 -70zM285 606v729l-199 -143l-70 100l301 224h109v-910h-141zM1040 0v90l279 301q4 4 26.5 28.5t32.5 36t30.5 36.5t31 43t23.5 42t18.5 47t5.5 46q0 63 -39 99t-105 36q-67 0 -108 -42.5t-41 -111.5l-143 13q0 117 79.5 187.5t210.5 70.5
q129 0 208 -66.5t79 -175.5q0 -92 -54.5 -175.5t-160.5 -193.5l-186 -196l413 2v-117h-600z" />
    <glyph glyph-name="threequarters" unicode="&#xbe;" horiz-adv-x="1865" 
d="M1317 1536l115 -70l-871 -1486l-115 71zM657 879q0 -128 -90 -206.5t-243 -78.5q-85 0 -157.5 25t-115.5 69l53 105q72 -82 203 -82q93 0 149 46.5t56 121.5q0 72 -53.5 115.5t-141.5 43.5q-74 0 -129 -30l-41 71l285 320h-342v117h528v-89l-264 -280h15q130 0 209 -74
t79 -194zM1683 303h129v-119h-129v-184h-141v184h-434v99l463 626h112v-606zM1546 297v385l-282 -385h282z" />
    <glyph glyph-name="questiondown" unicode="&#xbf;" horiz-adv-x="1079" 
d="M557 852q-57 0 -94 37.5t-37 93.5q0 57 37 94t94 37t93 -37t36 -94q0 -56 -36.5 -93.5t-92.5 -37.5zM553 -471q-218 0 -351.5 109t-133.5 286q0 40 6 74.5t21.5 65.5t27 51.5t39.5 49t40.5 40.5t47.5 43q42 38 64 59.5t56 66t51.5 86.5t31.5 106.5t14 140.5h180
q0 -98 -14.5 -180t-34 -134.5t-54 -103t-58.5 -75.5t-64 -62q-43 -37 -66 -60.5t-42 -64t-19 -88.5q0 -103 70.5 -166.5t187.5 -63.5q110 0 183 63.5t79 166.5l203 -11q-7 -180 -135.5 -289.5t-329.5 -109.5z" />
    <glyph glyph-name="Agrave" unicode="&#xc0;" horiz-adv-x="1638" 
d="M950 1690h-182l-340 317h250zM819 1536q289 0 465 -158t176 -417v-961h-217v481h-848v-481h-217v961q0 259 176 417t465 158zM395 664h848v286q0 182 -116.5 294t-305.5 112q-192 0 -309 -112t-117 -294v-286z" />
    <glyph glyph-name="Aacute" unicode="&#xc1;" horiz-adv-x="1638" 
d="M1208 2007l-340 -317h-180l273 317h247zM819 1536q289 0 465 -158t176 -417v-961h-217v481h-848v-481h-217v961q0 259 176 417t465 158zM395 664h848v286q0 182 -116.5 294t-305.5 112q-192 0 -309 -112t-117 -294v-286z" />
    <glyph glyph-name="Acircumflex" unicode="&#xc2;" horiz-adv-x="1638" 
d="M819 1890l-172 -200h-196l266 317h205l266 -317h-197zM819 1536q289 0 465 -158t176 -417v-961h-217v481h-848v-481h-217v961q0 259 176 417t465 158zM395 664h848v286q0 182 -116.5 294t-305.5 112q-192 0 -309 -112t-117 -294v-286z" />
    <glyph glyph-name="Atilde" unicode="&#xc3;" horiz-adv-x="1638" 
d="M653 1831q-43 0 -70.5 -30.5t-27.5 -82.5h-119q0 121 59.5 194t155.5 73q47 0 96 -20.5t83.5 -45.5t76 -45.5t74.5 -20.5q44 0 71 29.5t27 81.5h119q0 -123 -59 -194.5t-156 -71.5q-45 0 -93.5 21t-84 45.5t-77.5 45.5t-75 21zM819 1536q289 0 465 -158t176 -417v-961
h-217v481h-848v-481h-217v961q0 259 176 417t465 158zM395 664h848v286q0 182 -116.5 294t-305.5 112q-192 0 -309 -112t-117 -294v-286z" />
    <glyph glyph-name="Adieresis" unicode="&#xc4;" horiz-adv-x="1638" 
d="M592 1743q-57 0 -94 37t-37 94t37 94t94 37q56 0 92.5 -37t36.5 -94t-36.5 -94t-92.5 -37zM1049 1743q-57 0 -94 37t-37 94t37 94t94 37q56 0 92.5 -37t36.5 -94t-36.5 -94t-92.5 -37zM819 1536q289 0 465 -158t176 -417v-961h-217v481h-848v-481h-217v961q0 259 176 417
t465 158zM395 664h848v286q0 182 -116.5 294t-305.5 112q-192 0 -309 -112t-117 -294v-286z" />
    <glyph glyph-name="Aring" unicode="&#xc5;" horiz-adv-x="1638" 
d="M819 1618q-104 0 -167.5 59.5t-63.5 159.5q0 97 63.5 157t167.5 60t168 -60t64 -157q0 -99 -63.5 -159t-168.5 -60zM819 1954q-51 0 -82.5 -32.5t-31.5 -84.5q0 -54 31.5 -87.5t82.5 -33.5t82 33.5t31 87.5q0 53 -31 85t-82 32zM819 1536q289 0 465 -158t176 -417v-961
h-217v481h-848v-481h-217v961q0 259 176 417t465 158zM395 664h848v286q0 182 -116.5 294t-305.5 112q-192 0 -309 -112t-117 -294v-286z" />
    <glyph glyph-name="AE" unicode="&#xc6;" horiz-adv-x="1923" 
d="M1135 180h675v-180h-892v481h-529v-481h-217v838q0 306 204.5 492t541.5 186h874v-181h-657v-475h600v-180h-600v-500zM389 664h529v671q-237 0 -383 -140t-146 -368v-163z" />
    <glyph glyph-name="Ccedilla" unicode="&#xc7;" horiz-adv-x="1562" 
d="M1511 279q-99 -134 -245 -210.5t-328 -86.5l-66 -105h13q101 0 161 -46.5t60 -121.5q0 -80 -69.5 -130t-186.5 -50q-127 0 -199 55l41 82q49 -43 137 -43q61 0 96.5 23.5t35.5 62.5q0 37 -33.5 58.5t-89.5 21.5q-43 0 -86 -16l-29 51l92 158q-325 22 -521 234t-196 546
q0 230 97.5 406t275.5 272t410 96q360 0 583 -246l-137 -139q-76 94 -188 149.5t-252 55.5q-253 0 -407 -163.5t-154 -430.5q0 -270 154 -436t405 -166q309 0 477 254z" />
    <glyph glyph-name="Egrave" unicode="&#xc8;" horiz-adv-x="1304" 
d="M815 1690h-182l-340 317h250zM414 180h776v-180h-995v1516h979v-181h-760v-475h702v-180h-702v-500z" />
    <glyph glyph-name="Eacute" unicode="&#xc9;" horiz-adv-x="1304" 
d="M1073 2007l-340 -317h-180l272 317h248zM414 180h776v-180h-995v1516h979v-181h-760v-475h702v-180h-702v-500z" />
    <glyph glyph-name="Ecircumflex" unicode="&#xca;" horiz-adv-x="1304" 
d="M684 1890l-172 -200h-197l267 317h204l267 -317h-197zM414 180h776v-180h-995v1516h979v-181h-760v-475h702v-180h-702v-500z" />
    <glyph glyph-name="Edieresis" unicode="&#xcb;" horiz-adv-x="1304" 
d="M457 1743q-57 0 -94 37t-37 94t37 94t94 37q56 0 92.5 -37t36.5 -94t-36.5 -94t-92.5 -37zM913 1743q-57 0 -94 37t-37 94t37 94t94 37q56 0 92.5 -37t36.5 -94t-36.5 -94t-92.5 -37zM414 180h776v-180h-995v1516h979v-181h-760v-475h702v-180h-702v-500z" />
    <glyph glyph-name="Igrave" unicode="&#xcc;" horiz-adv-x="608" 
d="M252 1690l-340 317h250l272 -317h-182zM195 0v1516h219v-1516h-219z" />
    <glyph glyph-name="Iacute" unicode="&#xcd;" horiz-adv-x="608" 
d="M172 1690l272 317h248l-340 -317h-180zM195 0v1516h219v-1516h-219z" />
    <glyph glyph-name="Icircumflex" unicode="&#xce;" horiz-adv-x="608" 
d="M406 2007l266 -317h-197l-172 200l-172 -200h-197l267 317h205zM195 0v1516h219v-1516h-219z" />
    <glyph glyph-name="Idieresis" unicode="&#xcf;" horiz-adv-x="608" 
d="M76 1743q-57 0 -94 37t-37 94t37 94t94 37q56 0 92.5 -37t36.5 -94t-36.5 -94t-92.5 -37zM532 1743q-57 0 -94 37t-37 94t37 94t94 37q56 0 93 -37t37 -94t-37 -94t-93 -37zM195 0v1516h219v-1516h-219z" />
    <glyph glyph-name="Eth" unicode="&#xd0;" horiz-adv-x="1587" 
d="M748 1516q333 0 536 -208.5t203 -551.5q0 -168 -53.5 -309t-149.5 -239.5t-233.5 -153t-302.5 -54.5h-553v684h-166v152h166v680h553zM739 180q235 0 379 159t144 417q0 261 -144 420t-379 159h-325v-499h377v-152h-377v-504h325z" />
    <glyph glyph-name="Ntilde" unicode="&#xd1;" horiz-adv-x="1746" 
d="M1036 1698q-45 0 -93.5 21t-83.5 45.5t-77 45.5t-75 21q-44 0 -71.5 -30.5t-27.5 -82.5h-119q0 121 60 194t156 73q47 0 96 -20.5t83.5 -45.5t75.5 -45.5t74 -20.5q44 0 71.5 30t27.5 81h118q0 -123 -59 -194.5t-156 -71.5zM195 0v1516h137l1007 -1143l-6 1143h219v-1516
h-137l-1005 1143l4 -1143h-219z" />
    <glyph glyph-name="Ograve" unicode="&#xd2;" horiz-adv-x="1746" 
d="M823 1690l-340 317h250l273 -317h-183zM874 -20q-230 0 -406.5 96.5t-273 273.5t-96.5 408t96.5 408t273 273.5t406.5 96.5q172 0 316 -56t245 -157.5t157.5 -246.5t56.5 -318t-56.5 -318t-157.5 -246.5t-245 -157.5t-316 -56zM874 160q246 0 397.5 165t151.5 433
t-151.5 433t-397.5 165q-247 0 -397.5 -164.5t-150.5 -433.5t150.5 -433.5t397.5 -164.5z" />
    <glyph glyph-name="Oacute" unicode="&#xd3;" horiz-adv-x="1746" 
d="M743 1690l273 317h248l-340 -317h-181zM874 -20q-230 0 -406.5 96.5t-273 273.5t-96.5 408t96.5 408t273 273.5t406.5 96.5q172 0 316 -56t245 -157.5t157.5 -246.5t56.5 -318t-56.5 -318t-157.5 -246.5t-245 -157.5t-316 -56zM874 160q246 0 397.5 165t151.5 433
t-151.5 433t-397.5 165q-247 0 -397.5 -164.5t-150.5 -433.5t150.5 -433.5t397.5 -164.5z" />
    <glyph glyph-name="Ocircumflex" unicode="&#xd4;" horiz-adv-x="1746" 
d="M874 1890l-172 -200h-196l266 317h205l266 -317h-196zM874 1536q172 0 316 -56t245 -157.5t157.5 -246.5t56.5 -318t-56.5 -318t-157.5 -246.5t-245 -157.5t-316 -56q-230 0 -406.5 96.5t-273 273.5t-96.5 408t96.5 408t273 273.5t406.5 96.5zM874 160q246 0 397.5 165
t151.5 433t-151.5 433t-397.5 165q-247 0 -397.5 -164.5t-150.5 -433.5t150.5 -433.5t397.5 -164.5z" />
    <glyph glyph-name="Otilde" unicode="&#xd5;" horiz-adv-x="1746" 
d="M1038 1698q-45 0 -93.5 21t-83.5 45.5t-77 45.5t-75 21q-44 0 -71.5 -30.5t-27.5 -82.5h-118q0 121 59.5 194t155.5 73q47 0 96 -20.5t83.5 -45.5t75.5 -45.5t74 -20.5q44 0 71.5 30t27.5 81h118q0 -123 -59 -194.5t-156 -71.5zM874 -20q-230 0 -406.5 96.5t-273 273.5
t-96.5 408t96.5 408t273 273.5t406.5 96.5q172 0 316 -56t245 -157.5t157.5 -246.5t56.5 -318t-56.5 -318t-157.5 -246.5t-245 -157.5t-316 -56zM874 160q246 0 397.5 165t151.5 433t-151.5 433t-397.5 165q-247 0 -397.5 -164.5t-150.5 -433.5t150.5 -433.5t397.5 -164.5z
" />
    <glyph glyph-name="Odieresis" unicode="&#xd6;" horiz-adv-x="1746" 
d="M647 1743q-57 0 -94 37t-37 94t37 94t94 37q56 0 92.5 -37t36.5 -94t-36.5 -94t-92.5 -37zM1104 1743q-57 0 -94 37t-37 94t37 94t94 37q56 0 92.5 -37t36.5 -94t-36.5 -94t-92.5 -37zM874 -20q-230 0 -406.5 96.5t-273 273.5t-96.5 408t96.5 408t273 273.5t406.5 96.5
q172 0 316 -56t245 -157.5t157.5 -246.5t56.5 -318t-56.5 -318t-157.5 -246.5t-245 -157.5t-316 -56zM874 160q246 0 397.5 165t151.5 433t-151.5 433t-397.5 165q-247 0 -397.5 -164.5t-150.5 -433.5t150.5 -433.5t397.5 -164.5z" />
    <glyph glyph-name="multiply" unicode="&#xd7;" horiz-adv-x="1050" 
d="M930 989l-277 -276l275 -275l-129 -129l-273 275l-274 -275l-129 129l274 275l-276 276l129 127l276 -274l275 274z" />
    <glyph glyph-name="Oslash" unicode="&#xd8;" horiz-adv-x="1753" 
d="M1493 1255q156 -201 156 -497q0 -173 -56.5 -318t-157.5 -246.5t-245 -157.5t-316 -56q-286 0 -485 147l-145 -147l-133 124l147 152q-160 202 -160 502q0 231 96.5 408t273 273.5t406.5 96.5q288 0 488 -152l147 152l136 -125zM326 758q0 -199 86 -346l809 827
q-142 117 -347 117q-247 0 -397.5 -164.5t-150.5 -433.5zM874 160q246 0 397.5 165t151.5 433q0 193 -84 342l-809 -828q143 -112 344 -112z" />
    <glyph glyph-name="Ugrave" unicode="&#xd9;" horiz-adv-x="1636" 
d="M768 1690l-340 317h250l272 -317h-182zM819 -20q-289 0 -466 158t-177 419v959h217v-951q0 -182 117 -293.5t309 -111.5q189 0 305.5 112t116.5 293v951h219v-959q0 -261 -176 -419t-465 -158z" />
    <glyph glyph-name="Uacute" unicode="&#xda;" horiz-adv-x="1636" 
d="M688 1690l273 317h247l-340 -317h-180zM819 -20q-289 0 -466 158t-177 419v959h217v-951q0 -182 117 -293.5t309 -111.5q189 0 305.5 112t116.5 293v951h219v-959q0 -261 -176 -419t-465 -158z" />
    <glyph glyph-name="Ucircumflex" unicode="&#xdb;" horiz-adv-x="1636" 
d="M819 1890l-172 -200h-196l266 317h205l266 -317h-197zM1241 1516h219v-959q0 -261 -176 -419t-465 -158t-466 158t-177 419v959h217v-951q0 -182 117 -293.5t309 -111.5q189 0 305.5 112t116.5 293v951z" />
    <glyph glyph-name="Udieresis" unicode="&#xdc;" horiz-adv-x="1636" 
d="M592 1743q-57 0 -94 37t-37 94t37 94t94 37q56 0 92.5 -37t36.5 -94t-36.5 -94t-92.5 -37zM1049 1743q-57 0 -94 37t-37 94t37 94t94 37q56 0 92.5 -37t36.5 -94t-36.5 -94t-92.5 -37zM819 -20q-289 0 -466 158t-177 419v959h217v-951q0 -182 117 -293.5t309 -111.5
q189 0 305.5 112t116.5 293v951h219v-959q0 -261 -176 -419t-465 -158z" />
    <glyph glyph-name="Yacute" unicode="&#xdd;" horiz-adv-x="1378" 
d="M1081 2007l-340 -317h-180l273 317h247zM1116 1516h234l-551 -928v-588h-219v588l-551 928h235l426 -734z" />
    <glyph glyph-name="Thorn" unicode="&#xde;" horiz-adv-x="1353" 
d="M776 1251q231 0 371.5 -129.5t140.5 -343.5q0 -221 -142.5 -356t-375.5 -135h-356v-287h-219v1516h219v-265h362zM750 469q143 0 227 82.5t84 218.5q0 135 -85 218t-226 83h-336v-602h336z" />
    <glyph glyph-name="germandbls" unicode="&#xdf;" horiz-adv-x="1261" 
d="M870 860q144 -52 225 -160t81 -254q0 -210 -139 -338t-365 -128q-103 0 -166 24l20 172q49 -16 111 -16q145 0 232 83.5t87 221.5t-91.5 222.5t-241.5 84.5v164q116 0 187 70t71 184q0 112 -71 180t-187 68q-117 0 -187.5 -67t-70.5 -179v-1192h-209v1212
q0 183 128 294.5t339 111.5q214 0 344.5 -111.5t130.5 -294.5q0 -120 -60 -211t-168 -141z" />
    <glyph glyph-name="agrave" unicode="&#xe0;" horiz-adv-x="1376" 
d="M807 1268h-182l-340 317h250zM1020 1094h203v-1094h-203l-4 201q-128 -221 -404 -221q-228 0 -376 156t-148 407q0 254 148 412.5t376 158.5q276 0 404 -221zM659 160q159 0 257 106.5t98 280.5q0 173 -98.5 280t-256.5 107q-160 0 -257 -107t-97 -282q0 -173 97 -279
t257 -106z" />
    <glyph glyph-name="aacute" unicode="&#xe1;" horiz-adv-x="1376" 
d="M1065 1585l-340 -317h-180l272 317h248zM1020 1094h203v-1094h-203l-4 201q-128 -221 -404 -221q-228 0 -376 156t-148 407q0 254 148 412.5t376 158.5q276 0 404 -221zM659 160q159 0 257 106.5t98 280.5q0 173 -98.5 280t-256.5 107q-160 0 -257 -107t-97 -282
q0 -173 97 -279t257 -106z" />
    <glyph glyph-name="acircumflex" unicode="&#xe2;" horiz-adv-x="1376" 
d="M676 1468l-172 -200h-197l266 317h205l266 -317h-196zM1020 1094h203v-1094h-203l-4 201q-128 -221 -404 -221q-228 0 -376 156t-148 407q0 254 148 412.5t376 158.5q276 0 404 -221zM659 160q159 0 257 106.5t98 280.5q0 173 -98.5 280t-256.5 107q-160 0 -257 -107
t-97 -282q0 -173 97 -279t257 -106z" />
    <glyph glyph-name="atilde" unicode="&#xe3;" horiz-adv-x="1376" 
d="M510 1409q-43 0 -70.5 -30.5t-27.5 -82.5h-119q0 121 59.5 194t155.5 73q47 0 96 -20.5t83.5 -45t76 -45t74.5 -20.5q44 0 71 29.5t27 80.5h119q0 -123 -59 -194.5t-156 -71.5q-45 0 -93.5 21t-84 45.5t-77.5 45.5t-75 21zM1020 1094h203v-1094h-203l-4 201
q-128 -221 -404 -221q-228 0 -376 156t-148 407q0 254 148 412.5t376 158.5q276 0 404 -221zM659 160q159 0 257 106.5t98 280.5q0 173 -98.5 280t-256.5 107q-160 0 -257 -107t-97 -282q0 -173 97 -279t257 -106z" />
    <glyph glyph-name="adieresis" unicode="&#xe4;" horiz-adv-x="1376" 
d="M449 1321q-57 0 -94.5 37t-37.5 94t37.5 94t94.5 37q56 0 92.5 -37t36.5 -94t-36.5 -94t-92.5 -37zM905 1321q-57 0 -94 37t-37 94t37 94t94 37q56 0 92.5 -37t36.5 -94t-36.5 -94t-92.5 -37zM1020 1094h203v-1094h-203l-4 201q-128 -221 -404 -221q-228 0 -376 156
t-148 407q0 254 148 412.5t376 158.5q276 0 404 -221zM659 160q159 0 257 106.5t98 280.5q0 173 -98.5 280t-256.5 107q-160 0 -257 -107t-97 -282q0 -173 97 -279t257 -106z" />
    <glyph glyph-name="aring" unicode="&#xe5;" horiz-adv-x="1376" 
d="M676 1196q-105 0 -168.5 60t-63.5 159q0 97 64 157t168 60t167.5 -60t63.5 -157q0 -100 -63.5 -159.5t-167.5 -59.5zM676 1532q-51 0 -83 -32.5t-32 -84.5q0 -54 32 -87.5t83 -33.5t81.5 33.5t30.5 87.5q0 53 -30.5 85t-81.5 32zM1020 1094h203v-1094h-203l-4 201
q-128 -221 -404 -221q-228 0 -376 156t-148 407q0 254 148 412.5t376 158.5q276 0 404 -221zM659 160q159 0 257 106.5t98 280.5q0 173 -98.5 280t-256.5 107q-160 0 -257 -107t-97 -282q0 -173 97 -279t257 -106z" />
    <glyph glyph-name="ae" unicode="&#xe6;" horiz-adv-x="1931" 
d="M1851 561q0 -40 -4 -90h-833q15 -153 95.5 -239.5t219.5 -86.5q189 0 313 160l160 -86q-75 -115 -193 -177t-263 -62t-259.5 63.5t-183.5 175.5q-61 -113 -179 -176t-259 -63q-179 0 -288 89.5t-109 237.5q0 154 125 247t331 93q137 0 283 -31v50q0 131 -79.5 206.5
t-217.5 75.5q-169 0 -281 -106l-92 125q159 147 410 147q128 0 228 -54.5t155 -150.5q69 97 173 151t232 54q232 0 374 -152t142 -401zM1321 948q-134 0 -213.5 -88.5t-93.5 -245.5h620q-14 158 -95.5 246t-217.5 88zM496 131q58 0 112.5 23.5t99 66t71.5 108t28 144.5
q-139 29 -256 29q-120 0 -192 -52t-72 -137q0 -84 55 -133t154 -49z" />
    <glyph glyph-name="ccedilla" unicode="&#xe7;" horiz-adv-x="1107" 
d="M647 -123q101 0 161 -46.5t60 -121.5q0 -80 -69.5 -130t-186.5 -50q-126 0 -198 55l41 82q49 -43 137 -43q61 0 96 23.5t35 62.5q0 37 -33.5 58.5t-89.5 21.5q-43 0 -86 -16l-29 51l93 160q-224 25 -357 177t-133 386q0 255 158 411t416 156q206 0 364 -123l-119 -143
q-106 86 -243 86q-161 0 -260 -107t-99 -280q0 -174 99.5 -280.5t261.5 -106.5q172 0 274 108l121 -141q-138 -132 -361 -145l-65 -105h12z" />
    <glyph glyph-name="egrave" unicode="&#xe8;" horiz-adv-x="1230" 
d="M752 1268h-183l-340 317h250zM1149 561q0 -65 -4 -90h-834q15 -153 96 -239.5t220 -86.5q189 0 313 160l160 -86q-77 -114 -199 -176.5t-272 -62.5q-242 0 -390.5 155t-148.5 408q0 257 146 414t385 157q238 0 383 -152t145 -401zM621 948q-134 0 -215 -88.5t-95 -245.5
h623q-14 157 -96 245.5t-217 88.5z" />
    <glyph glyph-name="eacute" unicode="&#xe9;" horiz-adv-x="1230" 
d="M1010 1585l-340 -317h-181l273 317h248zM1149 561q0 -65 -4 -90h-834q15 -153 96 -239.5t220 -86.5q189 0 313 160l160 -86q-77 -114 -199 -176.5t-272 -62.5q-242 0 -390.5 155t-148.5 408q0 257 146 414t385 157q238 0 383 -152t145 -401zM621 948q-134 0 -215 -88.5
t-95 -245.5h623q-14 157 -96 245.5t-217 88.5z" />
    <glyph glyph-name="ecircumflex" unicode="&#xea;" horiz-adv-x="1230" 
d="M621 1468l-172 -200h-197l266 317h205l266 -317h-196zM1149 561q0 -65 -4 -90h-834q15 -153 96 -239.5t220 -86.5q189 0 313 160l160 -86q-77 -114 -199 -176.5t-272 -62.5q-242 0 -390.5 155t-148.5 408q0 257 146 414t385 157q238 0 383 -152t145 -401zM621 948
q-134 0 -215 -88.5t-95 -245.5h623q-14 157 -96 245.5t-217 88.5z" />
    <glyph glyph-name="edieresis" unicode="&#xeb;" horiz-adv-x="1230" 
d="M393 1321q-57 0 -94 37t-37 94t37 94t94 37q56 0 92.5 -37t36.5 -94t-36.5 -94t-92.5 -37zM850 1321q-57 0 -94 37t-37 94t37 94t94 37q56 0 92.5 -37t36.5 -94t-36.5 -94t-92.5 -37zM1149 561q0 -65 -4 -90h-834q15 -153 96 -239.5t220 -86.5q189 0 313 160l160 -86
q-77 -114 -199 -176.5t-272 -62.5q-242 0 -390.5 155t-148.5 408q0 257 146 414t385 157q238 0 383 -152t145 -401zM621 948q-134 0 -215 -88.5t-95 -245.5h623q-14 157 -96 245.5t-217 88.5z" />
    <glyph glyph-name="igrave" unicode="&#xec;" horiz-adv-x="522" 
d="M211 1268l-340 317h250l272 -317h-182zM158 0v1094h209v-1094h-209z" />
    <glyph glyph-name="iacute" unicode="&#xed;" horiz-adv-x="522" 
d="M131 1268l272 317h248l-340 -317h-180zM158 0v1094h209v-1094h-209z" />
    <glyph glyph-name="icircumflex" unicode="&#xee;" horiz-adv-x="522" 
d="M365 1585l266 -317h-197l-172 200l-172 -200h-196l266 317h205zM158 0v1094h209v-1094h-209z" />
    <glyph glyph-name="idieresis" unicode="&#xef;" horiz-adv-x="522" 
d="M35 1321q-57 0 -94 37t-37 94t37 94t94 37q56 0 92.5 -37t36.5 -94t-36.5 -94t-92.5 -37zM492 1321q-57 0 -94.5 37t-37.5 94t37.5 94t94.5 37q56 0 92.5 -37t36.5 -94t-36.5 -94t-92.5 -37zM158 0v1094h209v-1094h-209z" />
    <glyph glyph-name="eth" unicode="&#xf0;" horiz-adv-x="1325" 
d="M778 1438q220 -172 335.5 -381t115.5 -443q0 -288 -155.5 -461t-411.5 -173q-258 0 -415 155.5t-157 413.5q0 246 147.5 398.5t374.5 152.5q155 0 267 -72q-99 164 -273 297l-141 -92l-119 80l143 96q-62 40 -161 94l174 115q91 -49 160 -96l145 96l117 -86zM662 160
q157 0 254.5 107t97.5 280t-97.5 280t-254.5 107q-160 0 -257.5 -107t-97.5 -280t97.5 -280t257.5 -107z" />
    <glyph glyph-name="ntilde" unicode="&#xf1;" horiz-adv-x="1320" 
d="M504 1409q-43 0 -70.5 -30.5t-27.5 -82.5h-119q0 121 59.5 194t155.5 73q47 0 96 -20.5t83.5 -45t75.5 -45t74 -20.5q44 0 71.5 29.5t27.5 80.5h119q0 -123 -59 -194.5t-156 -71.5q-45 0 -93.5 21t-84 45.5t-77.5 45.5t-75 21zM737 1114q198 0 320.5 -117t122.5 -309
v-688h-209v651q0 127 -83 205t-220 78t-220 -78t-83 -205v-651h-209v1094h200l4 -162q59 88 155.5 135t221.5 47z" />
    <glyph glyph-name="ograve" unicode="&#xf2;" horiz-adv-x="1316" 
d="M608 1268l-340 317h250l273 -317h-183zM659 -20q-257 0 -414 156t-157 411t157 411t414 156q255 0 412.5 -156t157.5 -411t-157.5 -411t-412.5 -156zM659 160q158 0 255.5 107t97.5 280t-97.5 280t-255.5 107q-159 0 -256.5 -106.5t-97.5 -280.5t97.5 -280.5
t256.5 -106.5z" />
    <glyph glyph-name="oacute" unicode="&#xf3;" horiz-adv-x="1316" 
d="M528 1268l273 317h248l-340 -317h-181zM659 -20q-257 0 -414 156t-157 411t157 411t414 156q255 0 412.5 -156t157.5 -411t-157.5 -411t-412.5 -156zM659 160q158 0 255.5 107t97.5 280t-97.5 280t-255.5 107q-159 0 -256.5 -106.5t-97.5 -280.5t97.5 -280.5
t256.5 -106.5z" />
    <glyph glyph-name="ocircumflex" unicode="&#xf4;" horiz-adv-x="1316" 
d="M659 1468l-172 -200h-196l266 317h205l266 -317h-197zM659 1114q255 0 412.5 -156t157.5 -411t-157.5 -411t-412.5 -156q-257 0 -414 156t-157 411t157 411t414 156zM659 160q158 0 255.5 107t97.5 280t-97.5 280t-255.5 107q-159 0 -256.5 -106.5t-97.5 -280.5
t97.5 -280.5t256.5 -106.5z" />
    <glyph glyph-name="otilde" unicode="&#xf5;" horiz-adv-x="1316" 
d="M823 1276q-45 0 -93.5 21t-83.5 45.5t-77 45.5t-75 21q-44 0 -71.5 -30.5t-27.5 -82.5h-119q0 121 60 194t156 73q47 0 96 -20.5t83.5 -45t75.5 -45t74 -20.5q44 0 71.5 29.5t27.5 80.5h118q0 -123 -59 -194.5t-156 -71.5zM659 -20q-257 0 -414 156t-157 411t157 411
t414 156q255 0 412.5 -156t157.5 -411t-157.5 -411t-412.5 -156zM659 160q158 0 255.5 107t97.5 280t-97.5 280t-255.5 107q-159 0 -256.5 -106.5t-97.5 -280.5t97.5 -280.5t256.5 -106.5z" />
    <glyph glyph-name="odieresis" unicode="&#xf6;" horiz-adv-x="1316" 
d="M432 1321q-57 0 -94 37t-37 94t37 94t94 37q56 0 92.5 -37t36.5 -94t-36.5 -94t-92.5 -37zM889 1321q-57 0 -94 37t-37 94t37 94t94 37q56 0 92.5 -37t36.5 -94t-36.5 -94t-92.5 -37zM659 -20q-257 0 -414 156t-157 411t157 411t414 156q255 0 412.5 -156t157.5 -411
t-157.5 -411t-412.5 -156zM659 160q158 0 255.5 107t97.5 280t-97.5 280t-255.5 107q-159 0 -256.5 -106.5t-97.5 -280.5t97.5 -280.5t256.5 -106.5z" />
    <glyph glyph-name="divide" unicode="&#xf7;" horiz-adv-x="1169" 
d="M586 936q-57 0 -94 37t-37 94t37 93t94 36q56 0 92.5 -36t36.5 -93t-36.5 -94t-92.5 -37zM123 627v174h924v-174h-924zM586 231q-57 0 -94 37t-37 94t37 93.5t94 36.5q56 0 92.5 -36.5t36.5 -93.5t-36.5 -94t-92.5 -37z" />
    <glyph glyph-name="oslash" unicode="&#xf8;" horiz-adv-x="1320" 
d="M1229 989l-101 -100q101 -141 101 -342q0 -255 -157.5 -411t-412.5 -156q-195 0 -340 96l-96 -96l-131 124l98 99q-102 142 -102 344q0 255 157 411t414 156q199 0 342 -98l99 98zM305 547q0 -105 39 -191l516 518q-85 60 -201 60q-159 0 -256.5 -106.5t-97.5 -280.5z
M1012 547q0 108 -37 186l-514 -516q82 -57 198 -57q158 0 255.5 107t97.5 280z" />
    <glyph glyph-name="ugrave" unicode="&#xf9;" horiz-adv-x="1271" 
d="M586 1268l-340 317h250l272 -317h-182zM637 -20q-224 0 -360 122.5t-136 323.5v668h209v-654q0 -126 78.5 -203t208.5 -77q129 0 207 77t78 203v654h208v-668q0 -201 -135 -323.5t-358 -122.5z" />
    <glyph glyph-name="uacute" unicode="&#xfa;" horiz-adv-x="1271" 
d="M506 1268l272 317h248l-340 -317h-180zM637 -20q-224 0 -360 122.5t-136 323.5v668h209v-654q0 -126 78.5 -203t208.5 -77q129 0 207 77t78 203v654h208v-668q0 -201 -135 -323.5t-358 -122.5z" />
    <glyph glyph-name="ucircumflex" unicode="&#xfb;" horiz-adv-x="1271" 
d="M637 1468l-172 -200h-197l267 317h204l267 -317h-197zM922 1094h208v-668q0 -201 -135 -323.5t-358 -122.5q-224 0 -360 122.5t-136 323.5v668h209v-654q0 -126 78.5 -203t208.5 -77q129 0 207 77t78 203v654z" />
    <glyph glyph-name="udieresis" unicode="&#xfc;" horiz-adv-x="1271" 
d="M410 1321q-57 0 -94 37t-37 94t37 94t94 37q56 0 92.5 -37t36.5 -94t-36.5 -94t-92.5 -37zM866 1321q-57 0 -94 37t-37 94t37 94t94 37q56 0 92.5 -37t36.5 -94t-36.5 -94t-92.5 -37zM637 -20q-224 0 -360 122.5t-136 323.5v668h209v-654q0 -126 78.5 -203t208.5 -77
q129 0 207 77t78 203v654h208v-668q0 -201 -135 -323.5t-358 -122.5z" />
    <glyph glyph-name="yacute" unicode="&#xfd;" horiz-adv-x="1286" 
d="M1016 1585l-340 -317h-180l272 317h248zM924 1094h209v-1004q0 -253 -155 -407t-409 -154q-269 0 -438 141l45 166q165 -127 387 -127q163 0 262 106t99 281v56q-118 -172 -357 -172q-192 0 -309 117t-117 309v688h209v-654q0 -126 79 -203t208 -77t208 77t79 203v654z
" />
    <glyph glyph-name="thorn" unicode="&#xfe;" horiz-adv-x="1378" 
d="M766 1114q227 0 374.5 -156t147.5 -407q0 -254 -147.5 -412.5t-374.5 -158.5q-275 0 -401 215v-646h-209v2048h209v-698q126 215 401 215zM717 160q160 0 257 107t97 282q0 173 -97 279t-257 106q-158 0 -255 -107t-97 -280t97 -280t255 -107z" />
    <glyph glyph-name="ydieresis" unicode="&#xff;" horiz-adv-x="1286" 
d="M399 1321q-57 0 -94 37t-37 94t37 94t94 37q56 0 92.5 -37t36.5 -94t-36.5 -94t-92.5 -37zM856 1321q-57 0 -94 37t-37 94t37 94t94 37q56 0 92.5 -37t36.5 -94t-36.5 -94t-92.5 -37zM924 1094h209v-1004q0 -253 -155 -407t-409 -154q-269 0 -438 141l45 166
q165 -127 387 -127q163 0 262 106t99 281v56q-118 -172 -357 -172q-192 0 -309 117t-117 309v688h209v-654q0 -126 79 -203t208 -77t208 77t79 203v654z" />
    <glyph glyph-name="Amacron" unicode="&#x100;" horiz-adv-x="1638" 
d="M1159 1890v-166h-678v166h678zM819 1536q289 0 465 -158t176 -417v-961h-217v481h-848v-481h-217v961q0 259 176 417t465 158zM395 664h848v286q0 182 -116.5 294t-305.5 112q-192 0 -309 -112t-117 -294v-286z" />
    <glyph glyph-name="amacron" unicode="&#x101;" horiz-adv-x="1376" 
d="M1016 1468v-165h-678v165h678zM1020 1094h203v-1094h-203l-4 201q-128 -221 -404 -221q-228 0 -376 156t-148 407q0 254 148 412.5t376 158.5q276 0 404 -221zM659 160q159 0 257 106.5t98 280.5q0 173 -98.5 280t-256.5 107q-160 0 -257 -107t-97 -282q0 -173 97 -279
t257 -106z" />
    <glyph glyph-name="Abreve" unicode="&#x102;" horiz-adv-x="1638" 
d="M819 1671q-158 0 -254 92t-96 244h164q0 -96 51 -154.5t135 -58.5q83 0 135 59t52 154h161q0 -152 -95.5 -244t-252.5 -92zM819 1536q289 0 465 -158t176 -417v-961h-217v481h-848v-481h-217v961q0 259 176 417t465 158zM395 664h848v286q0 182 -116.5 294t-305.5 112
q-192 0 -309 -112t-117 -294v-286z" />
    <glyph glyph-name="abreve" unicode="&#x103;" horiz-adv-x="1376" 
d="M676 1249q-158 0 -254 92t-96 244h163q0 -96 51.5 -154.5t135.5 -58.5q83 0 134.5 59t51.5 154h162q0 -152 -95.5 -244t-252.5 -92zM1020 1094h203v-1094h-203l-4 201q-128 -221 -404 -221q-228 0 -376 156t-148 407q0 254 148 412.5t376 158.5q276 0 404 -221zM659 160
q159 0 257 106.5t98 280.5q0 173 -98.5 280t-256.5 107q-160 0 -257 -107t-97 -282q0 -173 97 -279t257 -106z" />
    <glyph glyph-name="Aogonek" unicode="&#x104;" horiz-adv-x="1638" 
d="M1446 -305l20 -109q-72 -57 -176 -57q-86 0 -139 47t-53 123q0 150 200 301h-55v481h-848v-481h-217v961q0 259 176 417t465 158t465 -158t176 -417v-961q-207 -137 -207 -268q0 -36 23 -58t61 -22q63 0 109 43zM395 664h848v286q0 182 -116.5 294t-305.5 112
q-192 0 -309 -112t-117 -294v-286z" />
    <glyph glyph-name="aogonek" unicode="&#x105;" horiz-adv-x="1376" 
d="M1208 -305l21 -109q-72 -57 -176 -57q-86 0 -139.5 47t-53.5 123q0 149 201 301h-41l-4 201q-128 -221 -404 -221q-228 0 -376 156t-148 407q0 254 148 412.5t376 158.5q276 0 404 -221l4 201h203v-1094q-207 -137 -207 -268q0 -36 23 -58t61 -22q62 0 108 43zM659 160
q159 0 257 106.5t98 280.5q0 173 -98.5 280t-256.5 107q-160 0 -257 -107t-97 -282q0 -173 97 -279t257 -106z" />
    <glyph glyph-name="Cacute" unicode="&#x106;" horiz-adv-x="1562" 
d="M731 1690l273 317h247l-340 -317h-180zM883 -20q-352 0 -568.5 215.5t-216.5 566.5q0 230 97.5 406t275.5 272t410 96q360 0 583 -246l-137 -139q-76 94 -188 149.5t-252 55.5q-253 0 -407 -163.5t-154 -430.5q0 -270 154 -436t405 -166q309 0 477 254l149 -135
q-107 -143 -267.5 -221t-360.5 -78z" />
    <glyph glyph-name="cacute" unicode="&#x107;" horiz-adv-x="1107" 
d="M508 1268l272 317h248l-340 -317h-180zM655 -20q-255 0 -411 156t-156 411t158 411t416 156q206 0 364 -123l-119 -143q-106 86 -243 86q-161 0 -260 -107t-99 -280q0 -174 99.5 -280.5t261.5 -106.5q172 0 274 108l121 -141q-153 -147 -406 -147z" />
    <glyph glyph-name="Cdotaccent" unicode="&#x10a;" horiz-adv-x="1562" 
d="M862 1743q-57 0 -94 37t-37 94t37 94t94 37q56 0 92.5 -37t36.5 -94t-36.5 -94t-92.5 -37zM883 -20q-352 0 -568.5 215.5t-216.5 566.5q0 230 97.5 406t275.5 272t410 96q360 0 583 -246l-137 -139q-76 94 -188 149.5t-252 55.5q-253 0 -407 -163.5t-154 -430.5
q0 -270 154 -436t405 -166q309 0 477 254l149 -135q-107 -143 -267.5 -221t-360.5 -78z" />
    <glyph glyph-name="cdotaccent" unicode="&#x10b;" horiz-adv-x="1107" 
d="M639 1321q-57 0 -94 37t-37 94t37 94t94 37q56 0 92.5 -37t36.5 -94t-36.5 -94t-92.5 -37zM655 -20q-255 0 -411 156t-156 411t158 411t416 156q206 0 364 -123l-119 -143q-106 86 -243 86q-161 0 -260 -107t-99 -280q0 -174 99.5 -280.5t261.5 -106.5q172 0 274 108
l121 -141q-153 -147 -406 -147z" />
    <glyph glyph-name="Ccaron" unicode="&#x10c;" horiz-adv-x="1562" 
d="M760 1690l-266 317h196l172 -201l172 201h197l-266 -317h-205zM1362 414l149 -135q-107 -143 -267.5 -221t-360.5 -78q-352 0 -568.5 215.5t-216.5 566.5q0 230 97.5 406t275.5 272t410 96q360 0 583 -246l-137 -139q-76 94 -188 149.5t-252 55.5q-253 0 -407 -163.5
t-154 -430.5q0 -270 154 -436t405 -166q309 0 477 254z" />
    <glyph glyph-name="ccaron" unicode="&#x10d;" horiz-adv-x="1107" 
d="M537 1268l-267 317h197l172 -201l172 201h197l-267 -317h-204zM940 268l121 -141q-153 -147 -406 -147q-255 0 -411 156t-156 411t158 411t416 156q206 0 364 -123l-119 -143q-106 86 -243 86q-161 0 -260 -107t-99 -280q0 -174 99.5 -280.5t261.5 -106.5q172 0 274 108z
" />
    <glyph glyph-name="Dcaron" unicode="&#x10e;" horiz-adv-x="1587" 
d="M571 1690l-266 317h197l172 -201l172 201h196l-266 -317h-205zM748 1516q333 0 536 -208.5t203 -551.5q0 -168 -53.5 -309t-149.5 -239.5t-233.5 -153t-302.5 -54.5h-553v1516h553zM739 180q235 0 379 159t144 417q0 261 -144 420t-379 159h-325v-1155h325z" />
    <glyph glyph-name="dcaron" unicode="&#x10f;" horiz-adv-x="1404" 
d="M1014 895v702h209v-1597h-203l-4 201q-128 -221 -404 -221q-228 0 -376 156t-148 407q0 254 148 412.5t376 158.5q275 0 402 -219zM1432 1597h190l-141 -383h-160zM659 160q159 0 257 106.5t98 280.5q0 173 -98.5 280t-256.5 107q-160 0 -257 -107t-97 -282
q0 -173 97 -279t257 -106z" />
    <glyph glyph-name="Dcroat" unicode="&#x110;" horiz-adv-x="1587" 
d="M748 1516q333 0 536 -208.5t203 -551.5q0 -168 -53.5 -309t-149.5 -239.5t-233.5 -153t-302.5 -54.5h-553v684h-166v152h166v680h553zM739 180q235 0 379 159t144 417q0 261 -144 420t-379 159h-325v-499h377v-152h-377v-504h325z" />
    <glyph glyph-name="dcroat" unicode="&#x111;" horiz-adv-x="1376" 
d="M1386 1415v-151h-163v-1264h-203l-4 201q-128 -221 -404 -221q-228 0 -376 156t-148 407q0 254 148 412.5t376 158.5q275 0 402 -219v369h-389v151h389v182h209v-182h163zM659 160q159 0 257 106.5t98 280.5q0 173 -98.5 280t-256.5 107q-160 0 -257 -107t-97 -282
q0 -173 97 -279t257 -106z" />
    <glyph glyph-name="Emacron" unicode="&#x112;" horiz-adv-x="1304" 
d="M1024 1890v-166h-678v166h678zM414 180h776v-180h-995v1516h979v-181h-760v-475h702v-180h-702v-500z" />
    <glyph glyph-name="emacron" unicode="&#x113;" horiz-adv-x="1230" 
d="M961 1468v-165h-678v165h678zM1149 561q0 -65 -4 -90h-834q15 -153 96 -239.5t220 -86.5q189 0 313 160l160 -86q-77 -114 -199 -176.5t-272 -62.5q-242 0 -390.5 155t-148.5 408q0 257 146 414t385 157q238 0 383 -152t145 -401zM621 948q-134 0 -215 -88.5t-95 -245.5
h623q-14 157 -96 245.5t-217 88.5z" />
    <glyph glyph-name="Edotaccent" unicode="&#x116;" horiz-adv-x="1304" 
d="M684 1743q-57 0 -94 37t-37 94t37 94t94 37q56 0 92.5 -37t36.5 -94t-36.5 -94t-92.5 -37zM414 180h776v-180h-995v1516h979v-181h-760v-475h702v-180h-702v-500z" />
    <glyph glyph-name="edotaccent" unicode="&#x117;" horiz-adv-x="1230" 
d="M621 1321q-57 0 -94.5 37t-37.5 94t37.5 94t94.5 37q56 0 92.5 -37t36.5 -94t-36.5 -94t-92.5 -37zM1149 561q0 -65 -4 -90h-834q15 -153 96 -239.5t220 -86.5q189 0 313 160l160 -86q-77 -114 -199 -176.5t-272 -62.5q-242 0 -390.5 155t-148.5 408q0 257 146 414
t385 157q238 0 383 -152t145 -401zM621 948q-134 0 -215 -88.5t-95 -245.5h623q-14 157 -96 245.5t-217 88.5z" />
    <glyph glyph-name="Eogonek" unicode="&#x118;" horiz-adv-x="1304" 
d="M1176 -305l20 -109q-72 -57 -176 -57q-86 0 -139.5 47t-53.5 123q0 149 201 301h-833v1516h979v-181h-760v-475h702v-180h-702v-500h776v-180q-207 -137 -207 -268q0 -36 23 -58t61 -22q63 0 109 43z" />
    <glyph glyph-name="eogonek" unicode="&#x119;" horiz-adv-x="1230" 
d="M1149 561q0 -65 -4 -90h-834q15 -153 96 -239.5t220 -86.5q189 0 313 160l160 -86q-112 -166 -309 -219q-207 -137 -207 -268q0 -36 23 -58t61 -22q62 0 108 43l21 -109q-72 -57 -176 -57q-86 0 -139.5 47t-53.5 123q0 144 176 281q-231 9 -372.5 163t-141.5 400
q0 257 146 414t385 157q238 0 383 -152t145 -401zM621 948q-134 0 -215 -88.5t-95 -245.5h623q-14 157 -96 245.5t-217 88.5z" />
    <glyph glyph-name="Ecaron" unicode="&#x11a;" horiz-adv-x="1304" 
d="M582 1690l-267 317h197l172 -201l172 201h197l-267 -317h-204zM414 180h776v-180h-995v1516h979v-181h-760v-475h702v-180h-702v-500z" />
    <glyph glyph-name="ecaron" unicode="&#x11b;" horiz-adv-x="1230" 
d="M518 1268l-266 317h197l172 -201l172 201h196l-266 -317h-205zM1149 561q0 -65 -4 -90h-834q15 -153 96 -239.5t220 -86.5q189 0 313 160l160 -86q-77 -114 -199 -176.5t-272 -62.5q-242 0 -390.5 155t-148.5 408q0 257 146 414t385 157q238 0 383 -152t145 -401z
M621 948q-134 0 -215 -88.5t-95 -245.5h623q-14 157 -96 245.5t-217 88.5z" />
    <glyph glyph-name="Gbreve" unicode="&#x11e;" horiz-adv-x="1650" 
d="M860 1671q-158 0 -254 92t-96 244h164q0 -96 51 -154.5t135 -58.5q83 0 135 59t52 154h161q0 -152 -95.5 -244t-252.5 -92zM1587 827q2 -23 2 -69q0 -354 -197.5 -566t-531.5 -212q-169 0 -311 56t-240.5 157.5t-153.5 246.5t-55 318q0 231 94 408t266.5 273.5
t399.5 96.5q315 0 520 -162l-143 -137q-136 119 -375 119q-241 0 -388.5 -164.5t-147.5 -433.5t147.5 -433.5t388.5 -164.5q217 0 351.5 132.5t148.5 354.5h-440v180h665z" />
    <glyph glyph-name="gbreve" unicode="&#x11f;" horiz-adv-x="1376" 
d="M682 1249q-158 0 -254 92t-96 244h164q0 -96 51 -154.5t135 -58.5q83 0 134.5 59t51.5 154h162q0 -152 -95.5 -244t-252.5 -92zM1022 1094h203v-1004q0 -253 -171 -407t-452 -154q-298 0 -483 141l45 166q183 -127 432 -127q189 0 304.5 106t115.5 281v101
q-127 -217 -402 -217q-228 0 -376 158.5t-148 412.5q0 251 148 407t376 156q276 0 404 -221zM662 160q158 0 256 107t98 280t-98 280t-256 107q-160 0 -257.5 -106t-97.5 -279q0 -175 97.5 -282t257.5 -107z" />
    <glyph glyph-name="Gdotaccent" unicode="&#x120;" horiz-adv-x="1650" 
d="M860 1743q-57 0 -94 37t-37 94t37 94t94 37q56 0 92.5 -37t36.5 -94t-36.5 -94t-92.5 -37zM1587 827q2 -23 2 -69q0 -354 -197.5 -566t-531.5 -212q-169 0 -311 56t-240.5 157.5t-153.5 246.5t-55 318q0 231 94 408t266.5 273.5t399.5 96.5q315 0 520 -162l-143 -137
q-136 119 -375 119q-241 0 -388.5 -164.5t-147.5 -433.5t147.5 -433.5t388.5 -164.5q217 0 351.5 132.5t148.5 354.5h-440v180h665z" />
    <glyph glyph-name="gdotaccent" unicode="&#x121;" horiz-adv-x="1376" 
d="M682 1321q-57 0 -94 37t-37 94t37 94t94 37q56 0 92.5 -37t36.5 -94t-36.5 -94t-92.5 -37zM1022 1094h203v-1004q0 -253 -171 -407t-452 -154q-298 0 -483 141l45 166q183 -127 432 -127q189 0 304.5 106t115.5 281v101q-127 -217 -402 -217q-228 0 -376 158.5
t-148 412.5q0 251 148 407t376 156q276 0 404 -221zM662 160q158 0 256 107t98 280t-98 280t-256 107q-160 0 -257.5 -106t-97.5 -279q0 -175 97.5 -282t257.5 -107z" />
    <glyph glyph-name="Gcommaaccent" unicode="&#x122;" horiz-adv-x="1650" 
d="M1587 827q2 -23 2 -69q0 -354 -197.5 -566t-531.5 -212q-169 0 -311 56t-240.5 157.5t-153.5 246.5t-55 318q0 231 94 408t266.5 273.5t399.5 96.5q315 0 520 -162l-143 -137q-136 119 -375 119q-241 0 -388.5 -164.5t-147.5 -433.5t147.5 -433.5t388.5 -164.5
q217 0 351.5 132.5t148.5 354.5h-440v180h665zM655 -451l101 345h190l-131 -345h-160z" />
    <glyph glyph-name="gcommaaccent" unicode="&#x123;" horiz-adv-x="1376" 
d="M860 1597l-110 -383h-191l141 383h160zM1022 1094h203v-1004q0 -253 -171 -407t-452 -154q-298 0 -483 141l45 166q183 -127 432 -127q189 0 304.5 106t115.5 281v101q-127 -217 -402 -217q-228 0 -376 158.5t-148 412.5q0 251 148 407t376 156q276 0 404 -221zM662 160
q158 0 256 107t98 280t-98 280t-256 107q-160 0 -257.5 -106t-97.5 -279q0 -175 97.5 -282t257.5 -107z" />
    <glyph glyph-name="Hbar" unicode="&#x126;" horiz-adv-x="1701" 
d="M1671 1274v-152h-164v-1122h-217v680h-876v-680h-219v1122h-162v152h162v242h219v-242h876v242h217v-242h164zM1290 862v260h-876v-260h876z" />
    <glyph glyph-name="hbar" unicode="&#x127;" horiz-adv-x="1320" 
d="M737 1114q198 0 320.5 -117t122.5 -309v-688h-209v651q0 127 -83 205t-220 78t-220 -78t-83 -205v-651h-209v1264h-166v151h166v182h209v-182h387v-151h-387v-326q121 176 372 176z" />
    <glyph glyph-name="Imacron" unicode="&#x12a;" horiz-adv-x="608" 
d="M-35 1724v166h678v-166h-678zM195 0v1516h219v-1516h-219z" />
    <glyph glyph-name="imacron" unicode="&#x12b;" horiz-adv-x="522" 
d="M-76 1303v165h678v-165h-678zM158 0v1094h209v-1094h-209z" />
    <glyph glyph-name="Iogonek" unicode="&#x12e;" horiz-adv-x="608" 
d="M399 -305l21 -109q-72 -57 -176 -57q-86 0 -139.5 47t-53.5 123q0 149 201 301h-57v1516h219v-1516q-207 -137 -207 -268q0 -36 23 -58t61 -22q62 0 108 43z" />
    <glyph glyph-name="iogonek" unicode="&#x12f;" horiz-adv-x="522" 
d="M262 1321q-57 0 -94 37t-37 94t37 94t94 37q56 0 92.5 -37t36.5 -94t-36.5 -94t-92.5 -37zM244 -348q62 0 108 43l21 -109q-72 -57 -176 -57q-86 0 -139.5 47t-53.5 123q0 149 201 301h-47v1094h209v-1094q-207 -137 -207 -268q0 -36 23 -58t61 -22z" />
    <glyph glyph-name="Idotaccent" unicode="&#x130;" horiz-adv-x="608" 
d="M303 1743q-57 0 -94 37t-37 94t37 94t94 37q56 0 92.5 -37t36.5 -94t-36.5 -94t-92.5 -37zM195 0v1516h219v-1516h-219z" />
    <glyph glyph-name="dotlessi" unicode="&#x131;" horiz-adv-x="522" 
d="M158 0v1094h209v-1094h-209z" />
    <glyph glyph-name="Kcommaaccent" unicode="&#x136;" horiz-adv-x="1415" 
d="M809 778l604 -778h-262l-526 684h-211v-684h-219v1516h219v-650h209l505 650h263zM563 -451l101 345h190l-131 -345h-160z" />
    <glyph glyph-name="kcommaaccent" unicode="&#x137;" horiz-adv-x="1202" 
d="M698 575l510 -575h-266l-416 487h-161v-487h-209v1597h209v-935h163l390 432h264zM434 -451l101 345h190l-131 -345h-160z" />
    <glyph glyph-name="Lacute" unicode="&#x139;" horiz-adv-x="1136" 
d="M692 2007l-340 -317h-180l272 317h248zM414 180h692v-180h-911v1516h219v-1336z" />
    <glyph glyph-name="lacute" unicode="&#x13a;" horiz-adv-x="528" 
d="M133 1772l273 317h247l-340 -317h-180zM160 0v1597h209v-1597h-209z" />
    <glyph glyph-name="Lcommaaccent" unicode="&#x13b;" horiz-adv-x="1136" 
d="M414 180h692v-180h-911v1516h219v-1336zM414 -451l100 345h191l-132 -345h-159z" />
    <glyph glyph-name="lcommaaccent" unicode="&#x13c;" horiz-adv-x="528" 
d="M160 0v1597h209v-1597h-209zM74 -451l100 345h191l-132 -345h-159z" />
    <glyph glyph-name="Lcaron" unicode="&#x13d;" horiz-adv-x="1124" 
d="M414 180h692v-180h-911v1516h219v-1336zM1040 1516l-149 -424h-189l119 424h219z" />
    <glyph glyph-name="lcaron" unicode="&#x13e;" horiz-adv-x="550" 
d="M160 0v1597h209v-1597h-209zM467 1214l111 383h190l-141 -383h-160z" />
    <glyph glyph-name="Lslash" unicode="&#x141;" horiz-adv-x="1136" 
d="M414 180h692v-180h-911v629l-138 -97v173l138 96v715h219v-588l217 151v-172l-217 -151v-576z" />
    <glyph glyph-name="lslash" unicode="&#x142;" horiz-adv-x="528" 
d="M551 1079v-172l-182 -127v-780h-209v662l-183 -130v173l183 126v766h209v-645z" />
    <glyph glyph-name="Nacute" unicode="&#x143;" horiz-adv-x="1746" 
d="M741 1690l273 317h248l-340 -317h-181zM195 0v1516h137l1007 -1143l-6 1143h219v-1516h-137l-1005 1143l4 -1143h-219z" />
    <glyph glyph-name="nacute" unicode="&#x144;" horiz-adv-x="1320" 
d="M1059 1585l-340 -317h-180l272 317h248zM737 1114q198 0 320.5 -117t122.5 -309v-688h-209v651q0 127 -83 205t-220 78t-220 -78t-83 -205v-651h-209v1094h200l4 -162q59 88 155.5 135t221.5 47z" />
    <glyph glyph-name="Ncommaaccent" unicode="&#x145;" horiz-adv-x="1746" 
d="M195 0v1516h137l1007 -1143l-6 1143h219v-1516h-137l-1005 1143l4 -1143h-219zM684 -451l100 345h191l-131 -345h-160z" />
    <glyph glyph-name="ncommaaccent" unicode="&#x146;" horiz-adv-x="1320" 
d="M737 1114q198 0 320.5 -117t122.5 -309v-688h-209v651q0 127 -83 205t-220 78t-220 -78t-83 -205v-651h-209v1094h200l4 -162q59 88 155.5 135t221.5 47zM477 -451l101 345h190l-131 -345h-160z" />
    <glyph glyph-name="Ncaron" unicode="&#x147;" horiz-adv-x="1746" 
d="M770 1690l-266 317h196l172 -201l172 201h197l-266 -317h-205zM1333 1516h219v-1516h-137l-1005 1143l4 -1143h-219v1516h137l1007 -1143z" />
    <glyph glyph-name="ncaron" unicode="&#x148;" horiz-adv-x="1320" 
d="M567 1268l-266 317h197l172 -201l172 201h196l-266 -317h-205zM737 1114q198 0 320.5 -117t122.5 -309v-688h-209v651q0 127 -83 205t-220 78t-220 -78t-83 -205v-651h-209v1094h200l4 -162q59 88 155.5 135t221.5 47z" />
    <glyph glyph-name="Eng" unicode="&#x14a;" horiz-adv-x="1746" 
d="M1333 1516h219v-1657q0 -149 -101.5 -239.5t-268.5 -90.5q-183 0 -287 113l59 147q80 -80 189 -80q89 0 139.5 52.5t50.5 138.5v192l-923 1051l4 -1143h-219v1516h137l1007 -1143z" />
    <glyph glyph-name="eng" unicode="&#x14b;" horiz-adv-x="1320" 
d="M737 1114q198 0 320.5 -117t122.5 -309v-829q0 -149 -89.5 -239.5t-236.5 -90.5q-123 0 -199 33l17 164q52 -17 123 -17q79 0 127.5 54.5t48.5 144.5v743q0 127 -83 205t-220 78t-220 -78t-83 -205v-651h-209v1094h200l4 -162q59 88 155.5 135t221.5 47z" />
    <glyph glyph-name="Omacron" unicode="&#x14c;" horiz-adv-x="1746" 
d="M537 1724v166h677v-166h-677zM874 -20q-230 0 -406.5 96.5t-273 273.5t-96.5 408t96.5 408t273 273.5t406.5 96.5q172 0 316 -56t245 -157.5t157.5 -246.5t56.5 -318t-56.5 -318t-157.5 -246.5t-245 -157.5t-316 -56zM874 160q246 0 397.5 165t151.5 433t-151.5 433
t-397.5 165q-247 0 -397.5 -164.5t-150.5 -433.5t150.5 -433.5t397.5 -164.5z" />
    <glyph glyph-name="omacron" unicode="&#x14d;" horiz-adv-x="1316" 
d="M322 1303v165h677v-165h-677zM659 -20q-257 0 -414 156t-157 411t157 411t414 156q255 0 412.5 -156t157.5 -411t-157.5 -411t-412.5 -156zM659 160q158 0 255.5 107t97.5 280t-97.5 280t-255.5 107q-159 0 -256.5 -106.5t-97.5 -280.5t97.5 -280.5t256.5 -106.5z" />
    <glyph glyph-name="Ohungarumlaut" unicode="&#x150;" horiz-adv-x="1746" 
d="M594 1690l217 317h250l-285 -317h-182zM946 1690l217 317h248l-285 -317h-180zM874 -20q-230 0 -406.5 96.5t-273 273.5t-96.5 408t96.5 408t273 273.5t406.5 96.5q172 0 316 -56t245 -157.5t157.5 -246.5t56.5 -318t-56.5 -318t-157.5 -246.5t-245 -157.5t-316 -56z
M874 160q246 0 397.5 165t151.5 433t-151.5 433t-397.5 165q-247 0 -397.5 -164.5t-150.5 -433.5t150.5 -433.5t397.5 -164.5z" />
    <glyph glyph-name="ohungarumlaut" unicode="&#x151;" horiz-adv-x="1316" 
d="M379 1268l217 317h250l-285 -317h-182zM731 1268l217 317h248l-285 -317h-180zM659 -20q-257 0 -414 156t-157 411t157 411t414 156q255 0 412.5 -156t157.5 -411t-157.5 -411t-412.5 -156zM659 160q158 0 255.5 107t97.5 280t-97.5 280t-255.5 107q-159 0 -256.5 -106.5
t-97.5 -280.5t97.5 -280.5t256.5 -106.5z" />
    <glyph glyph-name="OE" unicode="&#x152;" horiz-adv-x="2541" 
d="M1649 180h778v-180h-995v227q-99 -119 -245 -183t-325 -64q-227 0 -400 96.5t-267.5 273.5t-94.5 408t94.5 408t267.5 273.5t400 96.5q179 0 325 -64.5t245 -183.5v228h978v-181h-761v-475h704v-180h-704v-500zM877 160q246 0 396 164.5t150 433.5t-150 433.5t-396 164.5
q-247 0 -399 -164.5t-152 -433.5t152 -433.5t399 -164.5z" />
    <glyph glyph-name="oe" unicode="&#x153;" horiz-adv-x="2152" 
d="M2073 561q0 -27 -5 -90h-835q15 -153 96 -239.5t221 -86.5q95 0 175 42.5t137 117.5l161 -86q-75 -114 -193.5 -176.5t-262.5 -62.5q-152 0 -268.5 71.5t-180.5 200.5q-67 -129 -189 -200.5t-282 -71.5q-252 0 -404.5 156t-152.5 411t152.5 411t404.5 156
q160 0 283 -71.5t190 -200.5q61 129 174 200.5t262 71.5q232 0 374.5 -152t142.5 -401zM1542 948q-134 0 -214.5 -88.5t-94.5 -245.5h622q-14 158 -95.5 246t-217.5 88zM659 160q158 0 255.5 107t97.5 280t-97.5 280t-255.5 107t-256 -107t-98 -280t98 -280t256 -107z" />
    <glyph glyph-name="Racute" unicode="&#x154;" horiz-adv-x="1460" 
d="M1073 2007l-340 -317h-180l272 317h248zM1419 0h-256l-377 590h-18h-354v-590h-219v1516h596q233 0 375.5 -127t142.5 -336q0 -151 -80.5 -261.5t-222.5 -162.5zM414 1335v-565h338q149 0 239 77.5t90 205.5q0 127 -87 204.5t-230 77.5h-350z" />
    <glyph glyph-name="racute" unicode="&#x155;" horiz-adv-x="794" 
d="M831 1585l-339 -317h-181l273 317h247zM360 930q125 184 418 184l-14 -192q-184 0 -291.5 -84.5t-107.5 -225.5v-612h-209v1094h200z" />
    <glyph glyph-name="Rcommaaccent" unicode="&#x156;" horiz-adv-x="1460" 
d="M1006 629l413 -629h-256l-377 590h-18h-354v-590h-219v1516h596q233 0 375.5 -127t142.5 -336q0 -151 -80.5 -261.5t-222.5 -162.5zM414 1335v-565h338q149 0 239 77.5t90 205.5q0 127 -87 204.5t-230 77.5h-350zM559 -451l100 345h191l-131 -345h-160z" />
    <glyph glyph-name="rcommaaccent" unicode="&#x157;" horiz-adv-x="794" 
d="M360 930q125 184 418 184l-14 -192q-184 0 -291.5 -84.5t-107.5 -225.5v-612h-209v1094h200zM123 -451l100 345h191l-131 -345h-160z" />
    <glyph glyph-name="Rcaron" unicode="&#x158;" horiz-adv-x="1460" 
d="M582 1690l-267 317h197l172 -201l172 201h197l-267 -317h-204zM1419 0h-256l-377 590h-18h-354v-590h-219v1516h596q233 0 375.5 -127t142.5 -336q0 -151 -80.5 -261.5t-222.5 -162.5zM414 1335v-565h338q149 0 239 77.5t90 205.5q0 127 -87 204.5t-230 77.5h-350z" />
    <glyph glyph-name="rcaron" unicode="&#x159;" horiz-adv-x="794" 
d="M340 1268l-266 317h196l172 -201l172 201h197l-266 -317h-205zM360 930q125 184 418 184l-14 -192q-184 0 -291.5 -84.5t-107.5 -225.5v-612h-209v1094h200z" />
    <glyph glyph-name="Sacute" unicode="&#x15a;" horiz-adv-x="1300" 
d="M520 1690l273 317h247l-340 -317h-180zM639 -20q-155 0 -288.5 46t-225.5 136l86 149q168 -151 416 -151q162 0 256 61.5t94 167.5q0 44 -18 80.5t-47 64t-77 52t-98 42.5t-119 38l-94 26q-74 20 -131.5 43t-112 57.5t-90.5 76.5t-57.5 101t-21.5 130q0 197 147.5 316.5
t390.5 119.5q295 0 490 -174l-99 -152q-166 146 -391 146q-141 0 -226 -61.5t-85 -161.5q0 -42 16 -77t40 -58.5t64.5 -45t78 -35t90.5 -28.5l98 -27q62 -18 114 -38t109.5 -48t101 -63t80 -79t55.5 -101t19 -123q0 -193 -155.5 -311.5t-409.5 -118.5z" />
    <glyph glyph-name="sacute" unicode="&#x15b;" horiz-adv-x="1015" 
d="M373 1268l272 317h248l-340 -317h-180zM494 -20q-258 0 -396 120l82 129q134 -86 316 -86q97 0 156 41.5t59 108.5q0 60 -54.5 99.5t-154.5 68.5l-105 28q-72 20 -123 42t-93.5 55.5t-63.5 80.5t-21 109q0 152 112.5 245t295.5 93q234 0 391 -104l-90 -140
q-128 78 -287 78q-93 0 -150 -38.5t-57 -102.5q0 -57 47.5 -91.5t137.5 -60.5l104 -28q326 -87 326 -318q0 -149 -118 -239t-314 -90z" />
    <glyph glyph-name="Scedilla" unicode="&#x15e;" horiz-adv-x="1300" 
d="M1204 410q0 -176 -130 -291t-349 -135l-68 -107h13q101 0 161 -46.5t60 -121.5q0 -80 -69.5 -130t-186.5 -50q-127 0 -199 55l41 82q49 -43 137 -43q61 0 96 23.5t35 62.5q0 37 -33 58.5t-89 21.5q-43 0 -86 -16l-29 51l90 156q-142 6 -264.5 52t-208.5 130l86 149
q168 -151 416 -151q162 0 256 61.5t94 167.5q0 44 -18 80.5t-47 64t-77 52t-98 42.5t-119 38l-94 26q-74 20 -131.5 43t-112 57.5t-90.5 76.5t-57.5 101t-21.5 130q0 197 147.5 316.5t390.5 119.5q295 0 490 -174l-99 -152q-166 146 -391 146q-141 0 -226 -61.5t-85 -161.5
q0 -42 16 -77t40 -58.5t64.5 -45t78 -35t90.5 -28.5l98 -27q62 -18 114 -38t109.5 -48t101 -63t80 -79t55.5 -101t19 -123z" />
    <glyph glyph-name="scedilla" unicode="&#x15f;" horiz-adv-x="1015" 
d="M926 309q0 -133 -95 -219.5t-258 -105.5l-67 -107h12q101 0 161 -46.5t60 -121.5q0 -80 -69.5 -130t-186.5 -50q-126 0 -198 55l41 82q49 -43 137 -43q61 0 96 23.5t35 62.5q0 37 -33.5 58.5t-89.5 21.5q-43 0 -86 -16l-29 51l93 158q-224 9 -351 118l82 129
q134 -86 316 -86q97 0 156 41.5t59 108.5q0 60 -54.5 99.5t-154.5 68.5l-105 28q-72 20 -123 42t-93.5 55.5t-63.5 80.5t-21 109q0 152 112.5 245t295.5 93q234 0 391 -104l-90 -140q-128 78 -287 78q-93 0 -150 -38.5t-57 -102.5q0 -57 47.5 -91.5t137.5 -60.5l104 -28
q326 -87 326 -318z" />
    <glyph glyph-name="Scaron" unicode="&#x160;" horiz-adv-x="1300" 
d="M549 1690l-266 317h196l172 -201l172 201h197l-266 -317h-205zM725 862q62 -18 114 -38t109.5 -48t101 -63t80 -79t55.5 -101t19 -123q0 -193 -155.5 -311.5t-409.5 -118.5q-155 0 -288.5 46t-225.5 136l86 149q168 -151 416 -151q162 0 256 61.5t94 167.5q0 44 -18 80.5
t-47 64t-77 52t-98 42.5t-119 38l-94 26q-74 20 -131.5 43t-112 57.5t-90.5 76.5t-57.5 101t-21.5 130q0 197 147.5 316.5t390.5 119.5q295 0 490 -174l-99 -152q-166 146 -391 146q-141 0 -226 -61.5t-85 -161.5q0 -42 16 -77t40 -58.5t64.5 -45t78 -35t90.5 -28.5z" />
    <glyph glyph-name="scaron" unicode="&#x161;" horiz-adv-x="1015" 
d="M401 1268l-266 317h197l172 -201l172 201h196l-266 -317h-205zM600 627q326 -87 326 -318q0 -149 -118 -239t-314 -90q-258 0 -396 120l82 129q134 -86 316 -86q97 0 156 41.5t59 108.5q0 60 -54.5 99.5t-154.5 68.5l-105 28q-72 20 -123 42t-93.5 55.5t-63.5 80.5
t-21 109q0 152 112.5 245t295.5 93q234 0 391 -104l-90 -140q-128 78 -287 78q-93 0 -150 -38.5t-57 -102.5q0 -57 47.5 -91.5t137.5 -60.5z" />
    <glyph glyph-name="uni0162" unicode="&#x162;" horiz-adv-x="1226" 
d="M723 0h-45l-78 -123h12q101 0 161.5 -46.5t60.5 -121.5q0 -80 -69.5 -130t-186.5 -50q-127 0 -199 55l41 82q49 -43 137 -43q61 0 96 23.5t35 62.5q0 37 -33.5 58.5t-89.5 21.5q-43 0 -86 -16l-28 51l102 176h-49v1335h-475v181h1169v-181h-475v-1335z" />
    <glyph glyph-name="uni0163" unicode="&#x163;" horiz-adv-x="763" 
d="M459 -20q-24 0 -60 4l-67 -107h12q101 0 162 -46.5t61 -121.5q0 -80 -70 -130t-186 -50q-128 0 -200 55l41 82q49 -43 137 -43q61 0 96 23.5t35 62.5q0 37 -33.5 58.5t-89.5 21.5q-44 0 -84 -16l-31 51l111 196q-70 40 -109 113t-39 168v1112h209v-319h361v-172h-361
v-578q0 -83 47.5 -133.5t124.5 -50.5q112 0 205 37v-168q-109 -49 -272 -49z" />
    <glyph glyph-name="Tcaron" unicode="&#x164;" horiz-adv-x="1226" 
d="M510 1690l-266 317h196l172 -201l172 201h197l-266 -317h-205zM1198 1516v-181h-475v-1335h-219v1335h-475v181h1169z" />
    <glyph glyph-name="tcaron" unicode="&#x165;" horiz-adv-x="763" 
d="M803 1597l-141 -383h-160l110 383h191zM354 344q0 -83 47.5 -133.5t124.5 -50.5q112 0 205 37v-168q-109 -49 -272 -49q-141 0 -227.5 88t-86.5 233v1112h209v-319h361v-172h-361v-578z" />
    <glyph glyph-name="Tbar" unicode="&#x166;" horiz-adv-x="1226" 
d="M1198 1335h-475v-520h276v-151h-276v-664h-219v664h-266v151h266v520h-475v181h1169v-181z" />
    <glyph glyph-name="tbar" unicode="&#x167;" horiz-adv-x="765" 
d="M526 160q112 0 205 37v-168q-109 -49 -272 -49q-141 0 -227.5 88t-86.5 233v1112h209v-319h361v-172h-361v-277h340v-151h-340v-150q0 -83 47.5 -133.5t124.5 -50.5z" />
    <glyph glyph-name="Umacron" unicode="&#x16a;" horiz-adv-x="1636" 
d="M481 1724v166h678v-166h-678zM819 -20q-289 0 -466 158t-177 419v959h217v-951q0 -182 117 -293.5t309 -111.5q189 0 305.5 112t116.5 293v951h219v-959q0 -261 -176 -419t-465 -158z" />
    <glyph glyph-name="umacron" unicode="&#x16b;" horiz-adv-x="1271" 
d="M299 1303v165h678v-165h-678zM637 -20q-224 0 -360 122.5t-136 323.5v668h209v-654q0 -126 78.5 -203t208.5 -77q129 0 207 77t78 203v654h208v-668q0 -201 -135 -323.5t-358 -122.5z" />
    <glyph glyph-name="Uring" unicode="&#x16e;" horiz-adv-x="1636" 
d="M819 1618q-104 0 -167.5 59.5t-63.5 159.5q0 97 63.5 157t167.5 60t168 -60t64 -157q0 -99 -63.5 -159t-168.5 -60zM819 1716q51 0 82 33.5t31 87.5q0 53 -31 85t-82 32t-82.5 -32.5t-31.5 -84.5q0 -54 31.5 -87.5t82.5 -33.5zM819 -20q-289 0 -466 158t-177 419v959h217
v-951q0 -182 117 -293.5t309 -111.5q189 0 305.5 112t116.5 293v951h219v-959q0 -261 -176 -419t-465 -158z" />
    <glyph glyph-name="uring" unicode="&#x16f;" horiz-adv-x="1271" 
d="M637 1196q-104 0 -167.5 59.5t-63.5 159.5q0 97 63.5 157t167.5 60t167.5 -60t63.5 -157q0 -100 -63.5 -159.5t-167.5 -59.5zM637 1294q51 0 82 33.5t31 87.5q0 53 -31 85t-82 32t-83 -32.5t-32 -84.5q0 -54 32 -87.5t83 -33.5zM637 -20q-224 0 -360 122.5t-136 323.5
v668h209v-654q0 -126 78.5 -203t208.5 -77q129 0 207 77t78 203v654h208v-668q0 -201 -135 -323.5t-358 -122.5z" />
    <glyph glyph-name="Uhungarumlaut" unicode="&#x170;" horiz-adv-x="1636" 
d="M539 1690l217 317h250l-285 -317h-182zM891 1690l217 317h248l-285 -317h-180zM819 -20q-289 0 -466 158t-177 419v959h217v-951q0 -182 117 -293.5t309 -111.5q189 0 305.5 112t116.5 293v951h219v-959q0 -261 -176 -419t-465 -158z" />
    <glyph glyph-name="uhungarumlaut" unicode="&#x171;" horiz-adv-x="1271" 
d="M356 1268l217 317h250l-284 -317h-183zM709 1268l217 317h248l-285 -317h-180zM637 -20q-224 0 -360 122.5t-136 323.5v668h209v-654q0 -126 78.5 -203t208.5 -77q129 0 207 77t78 203v654h208v-668q0 -201 -135 -323.5t-358 -122.5z" />
    <glyph glyph-name="Uogonek" unicode="&#x172;" horiz-adv-x="1636" 
d="M1241 1516h219v-959q0 -215 -122 -363t-334 -196q-205 -135 -205 -266q0 -36 23 -58t61 -22q62 0 108 43l21 -109q-72 -57 -176 -57q-86 0 -139.5 47t-53.5 123q0 140 174 281q-288 0 -464.5 158.5t-176.5 418.5v959h217v-951q0 -182 117 -293.5t309 -111.5
q189 0 305.5 112t116.5 293v951z" />
    <glyph glyph-name="uogonek" unicode="&#x173;" horiz-adv-x="1271" 
d="M922 1094h208v-668q0 -160 -88 -273t-241 -153q-207 -137 -207 -268q0 -36 23 -58t61 -22q62 0 108 43l21 -109q-72 -57 -176 -57q-86 0 -139.5 47t-53.5 123q0 144 176 281q-216 8 -344.5 129t-128.5 317v668h209v-654q0 -126 78.5 -203t208.5 -77q129 0 207 77t78 203
v654z" />
    <glyph glyph-name="Wcircumflex" unicode="&#x174;" horiz-adv-x="2293" 
d="M1149 1890l-172 -200h-197l267 317h204l267 -317h-197zM2048 1516h233l-532 -1516h-205l-397 1204l-397 -1204h-203l-535 1516h234l413 -1223l385 1223h205l389 -1223z" />
    <glyph glyph-name="wcircumflex" unicode="&#x175;" horiz-adv-x="1875" 
d="M940 1468l-172 -200h-197l267 317h204l267 -317h-197zM1624 1094h229l-413 -1094h-211l-291 848l-291 -848h-211l-413 1094h229l303 -854l295 854h176l295 -854z" />
    <glyph glyph-name="Ycircumflex" unicode="&#x176;" horiz-adv-x="1378" 
d="M692 1890l-172 -200h-196l266 317h205l266 -317h-197zM1116 1516h234l-551 -928v-588h-219v588l-551 928h235l426 -734z" />
    <glyph glyph-name="ycircumflex" unicode="&#x177;" horiz-adv-x="1286" 
d="M627 1468l-172 -200h-197l266 317h205l266 -317h-196zM924 1094h209v-1004q0 -253 -155 -407t-409 -154q-269 0 -438 141l45 166q165 -127 387 -127q163 0 262 106t99 281v56q-118 -172 -357 -172q-192 0 -309 117t-117 309v688h209v-654q0 -126 79 -203t208 -77t208 77
t79 203v654z" />
    <glyph glyph-name="Ydieresis" unicode="&#x178;" horiz-adv-x="1378" 
d="M465 1743q-57 0 -94 37t-37 94t37 94t94 37q56 0 92.5 -37t36.5 -94t-36.5 -94t-92.5 -37zM922 1743q-57 0 -94 37t-37 94t37 94t94 37q56 0 92.5 -37t36.5 -94t-36.5 -94t-92.5 -37zM1116 1516h234l-551 -928v-588h-219v588l-551 928h235l426 -734z" />
    <glyph glyph-name="Zacute" unicode="&#x179;" horiz-adv-x="1325" 
d="M1049 2007l-340 -317h-181l273 317h248zM367 180h886v-180h-1181v137l868 1198h-856v181h1149v-138z" />
    <glyph glyph-name="zacute" unicode="&#x17a;" horiz-adv-x="1081" 
d="M406 1268l272 317h248l-340 -317h-180zM78 0v135l610 787h-600v172h897v-136l-610 -784h635v-174h-932z" />
    <glyph glyph-name="Zdotaccent" unicode="&#x17b;" horiz-adv-x="1325" 
d="M659 1743q-57 0 -94 37t-37 94t37 94t94 37q56 0 92.5 -37t36.5 -94t-36.5 -94t-92.5 -37zM367 180h886v-180h-1181v137l868 1198h-856v181h1149v-138z" />
    <glyph glyph-name="zdotaccent" unicode="&#x17c;" horiz-adv-x="1081" 
d="M537 1321q-57 0 -94 37t-37 94t37 94t94 37q56 0 92.5 -37t36.5 -94t-36.5 -94t-92.5 -37zM78 0v135l610 787h-600v172h897v-136l-610 -784h635v-174h-932z" />
    <glyph glyph-name="Zcaron" unicode="&#x17d;" horiz-adv-x="1325" 
d="M557 1690l-266 317h196l172 -201l172 201h197l-266 -317h-205zM367 180h886v-180h-1181v137l868 1198h-856v181h1149v-138z" />
    <glyph glyph-name="zcaron" unicode="&#x17e;" horiz-adv-x="1081" 
d="M434 1268l-266 317h197l172 -201l172 201h196l-266 -317h-205zM375 174h635v-174h-932v135l610 787h-600v172h897v-136z" />
    <glyph glyph-name="florin" unicode="&#x192;" horiz-adv-x="1001" 
d="M805 1356q-91 0 -147.5 -52t-73.5 -149l-64 -360h367v-174h-398l-145 -826h-211l146 826h-173v174h203l74 419q27 156 134.5 239t268.5 83q100 0 177 -31l-25 -170q-62 21 -133 21z" />
    <glyph glyph-name="Scommaaccent" unicode="&#x218;" horiz-adv-x="1300" 
d="M639 -20q-155 0 -288.5 46t-225.5 136l86 149q168 -151 416 -151q162 0 256 61.5t94 167.5q0 44 -18 80.5t-47 64t-77 52t-98 42.5t-119 38l-94 26q-74 20 -131.5 43t-112 57.5t-90.5 76.5t-57.5 101t-21.5 130q0 197 147.5 316.5t390.5 119.5q295 0 490 -174l-99 -152
q-166 146 -391 146q-141 0 -226 -61.5t-85 -161.5q0 -42 16 -77t40 -58.5t64.5 -45t78 -35t90.5 -28.5l98 -27q62 -18 114 -38t109.5 -48t101 -63t80 -79t55.5 -101t19 -123q0 -193 -155.5 -311.5t-409.5 -118.5zM479 -451l101 345h190l-131 -345h-160z" />
    <glyph glyph-name="scommaaccent" unicode="&#x219;" horiz-adv-x="1015" 
d="M494 -20q-258 0 -396 120l82 129q134 -86 316 -86q97 0 156 41.5t59 108.5q0 60 -54.5 99.5t-154.5 68.5l-105 28q-72 20 -123 42t-93.5 55.5t-63.5 80.5t-21 109q0 152 112.5 245t295.5 93q234 0 391 -104l-90 -140q-128 78 -287 78q-93 0 -150 -38.5t-57 -102.5
q0 -57 47.5 -91.5t137.5 -60.5l104 -28q326 -87 326 -318q0 -149 -118 -239t-314 -90zM328 -451l100 345h190l-131 -345h-159z" />
    <glyph glyph-name="uni021A" unicode="&#x21a;" horiz-adv-x="1226" 
d="M1198 1516v-181h-475v-1335h-219v1335h-475v181h1169zM422 -451l100 345h191l-131 -345h-160z" />
    <glyph glyph-name="uni021B" unicode="&#x21b;" horiz-adv-x="763" 
d="M526 160q112 0 205 37v-168q-109 -49 -272 -49q-141 0 -227.5 88t-86.5 233v1112h209v-319h361v-172h-361v-578q0 -83 47.5 -133.5t124.5 -50.5zM203 -451l100 345h191l-132 -345h-159z" />
    <glyph glyph-name="circumflex" unicode="&#x2c6;" horiz-adv-x="1228" 
d="M819 1268h-196l-172 200l-172 -200h-197l266 317h205z" />
    <glyph glyph-name="caron" unicode="&#x2c7;" horiz-adv-x="1228" 
d="M623 1585h196l-266 -317h-205l-266 317h197l172 -201z" />
    <glyph glyph-name="breve" unicode="&#x2d8;" horiz-adv-x="1228" 
d="M424 1249q-158 0 -254 92t-96 244h164q0 -96 51 -154.5t135 -58.5q83 0 134.5 59t51.5 154h162q0 -152 -95.5 -244t-252.5 -92z" />
    <glyph glyph-name="dotaccent" unicode="&#x2d9;" horiz-adv-x="1228" 
d="M254 1321q-57 0 -94 37t-37 94t37 94t94 37q56 0 92.5 -37t36.5 -94t-36.5 -94t-92.5 -37z" />
    <glyph glyph-name="ring" unicode="&#x2da;" horiz-adv-x="1228" 
d="M346 1196q-104 0 -167.5 59.5t-63.5 159.5q0 97 63.5 157t167.5 60t168 -60t64 -157q0 -99 -63.5 -159t-168.5 -60zM346 1294q51 0 82 33.5t31 87.5q0 53 -31 85t-82 32t-83 -32.5t-32 -84.5q0 -54 32 -87.5t83 -33.5z" />
    <glyph glyph-name="ogonek" unicode="&#x2db;" horiz-adv-x="1228" 
d="M332 -471q-86 0 -139.5 47t-53.5 123q0 201 363 403v-102q-207 -137 -207 -268q0 -36 23 -58t61 -22q62 0 108 43l21 -109q-72 -57 -176 -57z" />
    <glyph glyph-name="tilde" unicode="&#x2dc;" horiz-adv-x="1228" 
d="M637 1276q-45 0 -93.5 21t-84 45.5t-77.5 45.5t-75 21q-43 0 -70.5 -30.5t-27.5 -82.5h-119q0 121 59.5 194t155.5 73q47 0 96 -20.5t83.5 -45t76 -45t74.5 -20.5q44 0 71 29.5t27 80.5h119q0 -123 -59 -194.5t-156 -71.5z" />
    <glyph glyph-name="hungarumlaut" unicode="&#x2dd;" horiz-adv-x="1228" 
d="M268 1268l217 317h250l-284 -317h-183zM621 1268l217 317h247l-284 -317h-180z" />
    <glyph glyph-name="gravecomb" unicode="&#x300;" 
d="M-422 1268l-340 317h250l272 -317h-182z" />
    <glyph glyph-name="acutecomb" unicode="&#x301;" 
d="M-502 1268l273 317h247l-340 -317h-180z" />
    <glyph glyph-name="uni0302" unicode="&#x302;" 
d="M-82 1268h-197l-172 200l-172 -200h-196l266 317h205z" />
    <glyph glyph-name="tildecomb" unicode="&#x303;" 
d="M-305 1276q-45 0 -93.5 21t-84 45.5t-77.5 45.5t-75 21q-43 0 -70.5 -30.5t-27.5 -82.5h-119q0 121 59.5 194t155.5 73q47 0 96 -20.5t83.5 -45t76 -45t74.5 -20.5q44 0 71 29.5t27 80.5h119q0 -123 -59 -194.5t-156 -71.5z" />
    <glyph glyph-name="uni0304" unicode="&#x304;" 
d="M-786 1303v165h677v-165h-677z" />
    <glyph glyph-name="uni0306" unicode="&#x306;" 
d="M-422 1249q-158 0 -254 92t-96 244h164q0 -96 51 -154.5t135 -58.5q83 0 134.5 59t51.5 154h162q0 -152 -95.5 -244t-252.5 -92z" />
    <glyph glyph-name="uni0307" unicode="&#x307;" 
d="M-252 1321q-57 0 -94 37t-37 94t37 94t94 37q56 0 92.5 -37t36.5 -94t-36.5 -94t-92.5 -37z" />
    <glyph glyph-name="uni0308" unicode="&#x308;" 
d="M-709 1321q-57 0 -94 37t-37 94t37 94t94 37q56 0 92.5 -37t36.5 -94t-36.5 -94t-92.5 -37zM-252 1321q-57 0 -94 37t-37 94t37 94t94 37q56 0 92.5 -37t36.5 -94t-36.5 -94t-92.5 -37z" />
    <glyph glyph-name="uni030A" unicode="&#x30a;" 
d="M-346 1196q-105 0 -168.5 60t-63.5 159q0 97 64 157t168 60t167.5 -60t63.5 -157q0 -100 -63.5 -159.5t-167.5 -59.5zM-346 1294q51 0 82 33.5t31 87.5q0 53 -31 85t-82 32t-83 -32.5t-32 -84.5q0 -54 32 -87.5t83 -33.5z" />
    <glyph glyph-name="uni030B" unicode="&#x30b;" 
d="M-827 1268l217 317h250l-285 -317h-182zM-475 1268l217 317h248l-285 -317h-180z" />
    <glyph glyph-name="uni030C" unicode="&#x30c;" 
d="M-279 1585h197l-266 -317h-205l-266 317h196l172 -201z" />
    <glyph glyph-name="uni0312" unicode="&#x312;" 
d="M-356 1214l141 383h160l-111 -383h-190z" />
    <glyph glyph-name="uni0326" unicode="&#x326;" 
d="M-326 -451l101 345h190l-131 -345h-160z" />
    <glyph glyph-name="uni0327" unicode="&#x327;" 
d="M-260 -123q101 0 161 -46.5t60 -121.5q0 -80 -69.5 -130t-186.5 -50q-127 0 -199 55l41 82q49 -43 138 -43q61 0 96 23.5t35 62.5q0 37 -33.5 58.5t-89.5 21.5q-43 0 -86 -16l-29 51l103 176h124l-77 -123h12z" />
    <glyph glyph-name="uni0328" unicode="&#x328;" 
d="M-203 -471q-86 0 -139 47t-53 123q0 202 362 403v-102q-207 -137 -207 -268q0 -36 23 -58t61 -22q63 0 109 43l20 -109q-72 -57 -176 -57z" />
    <glyph glyph-name="uni0335" unicode="&#x335;" 
d="M-1065 514v152h762v-152h-762z" />
    <glyph glyph-name="uni0336" unicode="&#x336;" 
d="M-1774 514v152h1639v-152h-1639z" />
    <glyph glyph-name="uni0337" unicode="&#x337;" 
d="M-555 909l289 203v-172l-289 -203v29l-285 -201v172l285 199v-27z" />
    <glyph glyph-name="uni0338" unicode="&#x338;" 
d="M-922 -20l-114 71l870 1485l115 -70z" />
    <glyph glyph-name="uni0394" unicode="&#x394;" horiz-adv-x="1648" 
d="M928 1516l655 -1516h-1515l655 1516h205zM375 180h899l-449 1067z" />
    <glyph glyph-name="uni03A9" unicode="&#x3a9;" horiz-adv-x="1617" 
d="M1108 324v-144h385v-180h-561v467q165 36 260.5 151t95.5 285q0 204 -132 328.5t-347 124.5t-346 -124.5t-131 -328.5q0 -169 95.5 -285t260.5 -151v-467h-561v180h385v144q-192 70 -300 221t-108 358q0 284 194 458.5t511 174.5q316 0 509 -174t193 -459
q0 -208 -106 -358.5t-297 -220.5z" />
    <glyph glyph-name="uni03BC" unicode="&#x3bc;" horiz-adv-x="1300" 
d="M936 1094h209v-1094h-201l-4 137q-94 -157 -291 -157q-186 0 -284 149v-580h-209v1545h209v-654q0 -126 77.5 -203t206.5 -77q130 0 208.5 77t78.5 203v654z" />
    <glyph glyph-name="pi" unicode="&#x3c0;" horiz-adv-x="1415" 
d="M1323 922h-227v-654q0 -49 27 -78.5t69 -29.5q75 0 131 37v-168q-77 -49 -195 -49q-108 0 -174.5 67.5t-66.5 177.5v697h-400v-922h-208v922h-222v172h1266v-172z" />
    <glyph glyph-name="Wgrave" unicode="&#x1e80;" horiz-adv-x="2293" 
d="M1280 1690h-182l-340 317h250zM2048 1516h233l-532 -1516h-205l-397 1204l-397 -1204h-203l-535 1516h234l413 -1223l385 1223h205l389 -1223z" />
    <glyph glyph-name="wgrave" unicode="&#x1e81;" horiz-adv-x="1875" 
d="M1071 1268h-182l-340 317h250zM1624 1094h229l-413 -1094h-211l-291 848l-291 -848h-211l-413 1094h229l303 -854l295 854h176l295 -854z" />
    <glyph glyph-name="Wacute" unicode="&#x1e82;" horiz-adv-x="2293" 
d="M1538 2007l-340 -317h-180l272 317h248zM2048 1516h233l-532 -1516h-205l-397 1204l-397 -1204h-203l-535 1516h234l413 -1223l385 1223h205l389 -1223z" />
    <glyph glyph-name="wacute" unicode="&#x1e83;" horiz-adv-x="1875" 
d="M1329 1585l-340 -317h-180l272 317h248zM1624 1094h229l-413 -1094h-211l-291 848l-291 -848h-211l-413 1094h229l303 -854l295 854h176l295 -854z" />
    <glyph glyph-name="Wdieresis" unicode="&#x1e84;" horiz-adv-x="2293" 
d="M922 1743q-57 0 -94 37t-37 94t37 94t94 37q56 0 92.5 -37t36.5 -94t-36.5 -94t-92.5 -37zM1378 1743q-57 0 -94 37t-37 94t37 94t94 37q56 0 92.5 -37t36.5 -94t-36.5 -94t-92.5 -37zM2048 1516h233l-532 -1516h-205l-397 1204l-397 -1204h-203l-535 1516h234l413 -1223
l385 1223h205l389 -1223z" />
    <glyph glyph-name="wdieresis" unicode="&#x1e85;" horiz-adv-x="1875" 
d="M713 1321q-57 0 -94 37t-37 94t37 94t94 37q56 0 92.5 -37t36.5 -94t-36.5 -94t-92.5 -37zM1169 1321q-57 0 -94 37t-37 94t37 94t94 37q56 0 92.5 -37t36.5 -94t-36.5 -94t-92.5 -37zM1624 1094h229l-413 -1094h-211l-291 848l-291 -848h-211l-413 1094h229l303 -854
l295 854h176l295 -854z" />
    <glyph glyph-name="uni1E9E" unicode="&#x1e9e;" horiz-adv-x="1396" 
d="M987 799q147 -48 230 -148.5t83 -234.5q0 -196 -141 -316t-371 -120q-135 0 -219 36l21 174q66 -30 164 -30q144 0 231.5 75.5t87.5 198.5t-97.5 199t-256.5 76v168q126 0 202 66t76 175q0 107 -82 172.5t-217 65.5q-134 0 -216.5 -66.5t-82.5 -173.5v-1116h-217v1143
q0 177 141.5 285t374.5 108q236 0 380.5 -107t144.5 -282q0 -117 -62 -207.5t-174 -140.5z" />
    <glyph glyph-name="Ygrave" unicode="&#x1ef2;" horiz-adv-x="1378" 
d="M823 1690h-182l-340 317h250zM1116 1516h234l-551 -928v-588h-219v588l-551 928h235l426 -734z" />
    <glyph glyph-name="ygrave" unicode="&#x1ef3;" horiz-adv-x="1286" 
d="M758 1268h-183l-339 317h249zM924 1094h209v-1004q0 -253 -155 -407t-409 -154q-269 0 -438 141l45 166q165 -127 387 -127q163 0 262 106t99 281v56q-118 -172 -357 -172q-192 0 -309 117t-117 309v688h209v-654q0 -126 79 -203t208 -77t208 77t79 203v654z" />
    <glyph glyph-name="endash" unicode="&#x2013;" horiz-adv-x="1208" 
d="M137 514v152h934v-152h-934z" />
    <glyph glyph-name="emdash" unicode="&#x2014;" horiz-adv-x="1914" 
d="M137 514v152h1641v-152h-1641z" />
    <glyph glyph-name="quoteleft" unicode="&#x2018;" horiz-adv-x="518" 
d="M446 1516l-135 -484h-219l166 484h188z" />
    <glyph glyph-name="quoteright" unicode="&#x2019;" horiz-adv-x="514" 
d="M98 1032l135 484h220l-166 -484h-189z" />
    <glyph glyph-name="quotesinglbase" unicode="&#x201a;" horiz-adv-x="501" 
d="M27 -272l135 485h219l-166 -485h-188z" />
    <glyph glyph-name="quotedblleft" unicode="&#x201c;" horiz-adv-x="890" 
d="M451 1516l-136 -484h-219l166 484h189zM819 1516l-135 -484h-219l166 484h188z" />
    <glyph glyph-name="quotedblright" unicode="&#x201d;" horiz-adv-x="884" 
d="M98 1032l135 484h220l-166 -484h-189zM467 1032l135 484h219l-166 -484h-188z" />
    <glyph glyph-name="quotedblbase" unicode="&#x201e;" horiz-adv-x="870" 
d="M27 -272l135 485h219l-166 -485h-188zM395 -272l137 485h218l-166 -485h-189z" />
    <glyph glyph-name="dagger" unicode="&#x2020;" horiz-adv-x="1122" 
d="M1042 1094v-183h-372v-1362h-217v1362h-373v183h373v503h217v-503h372z" />
    <glyph glyph-name="daggerdbl" unicode="&#x2021;" horiz-adv-x="1122" 
d="M1042 911h-372v-256h372v-180h-372v-926h-217v926h-373v180h373v256h-373v183h373v503h217v-503h372v-183z" />
    <glyph glyph-name="bullet" unicode="&#x2022;" horiz-adv-x="774" 
d="M387 426q-97 0 -156 59t-59 156q0 98 59 157.5t156 59.5t156 -59.5t59 -157.5q0 -97 -59 -156t-156 -59z" />
    <glyph glyph-name="ellipsis" unicode="&#x2026;" horiz-adv-x="1443" 
d="M254 -20q-59 0 -101 42.5t-42 102.5q0 59 42.5 101t100.5 42q60 0 101.5 -42t41.5 -101q0 -60 -41.5 -102.5t-101.5 -42.5zM721 -20q-59 0 -101 42.5t-42 102.5q0 59 42 101t101 42q60 0 102.5 -42t42.5 -101q0 -60 -42.5 -102.5t-102.5 -42.5zM1190 -20q-60 0 -103 42.5
t-43 102.5q0 59 43 101t103 42q58 0 100.5 -42t42.5 -101q0 -60 -42 -102.5t-101 -42.5z" />
    <glyph glyph-name="perthousand" unicode="&#x2030;" horiz-adv-x="2484" 
d="M432 848q-162 0 -261 94.5t-99 249.5t99 249.5t261 94.5q163 0 262 -94.5t99 -249.5t-99 -249.5t-262 -94.5zM455 -20l-115 71l870 1485l115 -70zM434 987q82 0 133 56.5t51 148.5q0 93 -51 150t-133 57q-85 0 -136.5 -56.5t-51.5 -150.5q0 -92 51.5 -148.5t136.5 -56.5z
M1235 -20q-163 0 -263 94.5t-100 249.5t100 249.5t263 94.5q161 0 259.5 -94.5t98.5 -249.5t-98.5 -249.5t-259.5 -94.5zM2058 -20q-162 0 -261 94.5t-99 249.5t99 249.5t261 94.5q163 0 262 -94.5t99 -249.5t-99 -249.5t-262 -94.5zM1235 117q82 0 133 57t51 150t-51 148.5
t-133 55.5q-85 0 -136.5 -55.5t-51.5 -148.5q0 -94 51.5 -150.5t136.5 -56.5zM2058 117q83 0 134 56.5t51 150.5q0 93 -50.5 148.5t-134.5 55.5q-85 0 -135.5 -55t-50.5 -149t50.5 -150.5t135.5 -56.5z" />
    <glyph glyph-name="guilsinglleft" unicode="&#x2039;" horiz-adv-x="757" 
d="M668 1018l-355 -465l355 -465h-222l-364 465l364 465h222z" />
    <glyph glyph-name="guilsinglright" unicode="&#x203a;" horiz-adv-x="757" 
d="M313 1018l365 -465l-365 -465h-223l354 465l-354 465h223z" />
    <glyph glyph-name="fraction" unicode="&#x2044;" horiz-adv-x="428" 
d="M-164 -20l-115 71l871 1485l115 -70z" />
    <glyph glyph-name="uni2070" unicode="&#x2070;" horiz-adv-x="798" 
d="M401 799q-152 0 -245 128t-93 339t93 339t245 128q150 0 242 -128.5t92 -338.5t-92 -338.5t-242 -128.5zM401 915q86 0 139.5 97t53.5 254q0 158 -53.5 254t-139.5 96t-139 -96t-53 -254q0 -157 53 -254t139 -97z" />
    <glyph glyph-name="uni2074" unicode="&#x2074;" horiz-adv-x="790" 
d="M467 811v184h-434v99l463 626h112v-606h129v-119h-129v-184h-141zM188 1108h283v385z" />
    <glyph glyph-name="uni2075" unicode="&#x2075;" horiz-adv-x="733" 
d="M313 799q-174 0 -268 82l43 104q79 -70 213 -70q100 0 160.5 50t60.5 133q0 72 -47 117t-123 45q-79 0 -149 -41l-94 14l63 487h451v-116h-330l-35 -244q56 16 119 16q129 0 210 -74.5t81 -195.5q0 -138 -98 -222.5t-257 -84.5z" />
    <glyph glyph-name="uni2076" unicode="&#x2076;" horiz-adv-x="729" 
d="M399 1366q119 0 199 -78.5t80 -202.5q0 -129 -84.5 -207.5t-222.5 -78.5q-140 0 -226 78t-86 208q0 118 88 246l271 389h157l-262 -362q33 8 86 8zM371 915q72 0 116.5 47t44.5 123q0 78 -44.5 125t-116.5 47q-74 0 -119 -47t-45 -125q0 -76 45 -123t119 -47z" />
    <glyph glyph-name="uni2077" unicode="&#x2077;" horiz-adv-x="655" 
d="M33 1720h600l-314 -909h-149l279 793h-416v116z" />
    <glyph glyph-name="uni2078" unicode="&#x2078;" horiz-adv-x="768" 
d="M539 1284q73 -30 114 -88t41 -135q0 -118 -85.5 -190t-223.5 -72q-139 0 -224 71t-85 187q0 79 40.5 137.5t114.5 87.5q-62 29 -96.5 82.5t-34.5 122.5q0 111 78 178.5t207 67.5q127 0 206 -67.5t79 -176.5q0 -69 -34.5 -122.5t-96.5 -82.5zM385 1616q-63 0 -101 -38
t-38 -101q0 -62 38 -99t101 -37q62 0 100.5 37.5t38.5 98.5q0 63 -38.5 101t-100.5 38zM385 915q72 0 118 42.5t46 111.5t-46 112.5t-118 43.5q-73 0 -118.5 -43.5t-45.5 -112.5t45.5 -111.5t118.5 -42.5z" />
    <glyph glyph-name="uni2079" unicode="&#x2079;" horiz-adv-x="729" 
d="M358 1733q140 0 226 -78.5t86 -208.5q0 -118 -88 -246l-271 -389h-157l262 363q-38 -9 -86 -9q-119 0 -199 78.5t-80 202.5q0 129 84.5 208t222.5 79zM197 1446q0 -78 44.5 -125t116.5 -47q74 0 119 47t45 125q0 76 -45 123t-119 47q-72 0 -116.5 -47t-44.5 -123z" />
    <glyph glyph-name="uni2080" unicode="&#x2080;" horiz-adv-x="798" 
d="M401 -217q-152 0 -245 128t-93 339t93 339t245 128q150 0 242 -128.5t92 -338.5t-92 -338.5t-242 -128.5zM401 -100q86 0 139.5 96.5t53.5 253.5q0 158 -53.5 254t-139.5 96t-139 -96t-53 -254q0 -157 53 -253.5t139 -96.5z" />
    <glyph glyph-name="uni2081" unicode="&#x2081;" horiz-adv-x="548" 
d="M285 -205v729l-199 -143l-70 100l301 224h109v-910h-141z" />
    <glyph glyph-name="uni2082" unicode="&#x2082;" horiz-adv-x="735" 
d="M63 -205v90l279 301q4 4 26.5 28.5t32.5 36t30.5 36.5t31 43t23.5 42t18.5 47t5.5 46q0 63 -38.5 99t-104.5 36q-67 0 -108.5 -42.5t-41.5 -111.5l-143 13q0 117 80 187.5t211 70.5q129 0 207.5 -66.5t78.5 -175.5q0 -92 -54.5 -175.5t-160.5 -193.5l-186 -196l414 2
v-117h-601z" />
    <glyph glyph-name="uni2083" unicode="&#x2083;" horiz-adv-x="724" 
d="M369 336q130 0 209 -74t79 -194q0 -128 -90 -206.5t-243 -78.5q-85 0 -157.5 25t-115.5 69l53 105q72 -82 203 -82q93 0 149 46.5t56 121.5q0 72 -53.5 115.5t-141.5 43.5q-74 0 -129 -30l-41 71l285 320h-342v117h528v-89l-264 -280h15z" />
    <glyph glyph-name="uni2084" unicode="&#x2084;" horiz-adv-x="790" 
d="M467 -205v185h-434v98l463 627h112v-607h129v-118h-129v-185h-141zM188 92h283v385z" />
    <glyph glyph-name="uni2085" unicode="&#x2085;" horiz-adv-x="733" 
d="M313 -217q-174 0 -268 82l43 104q78 -69 213 -69q100 0 160.5 49.5t60.5 132.5q0 72 -47 117t-123 45q-79 0 -149 -41l-94 14l63 488h451v-117h-330l-35 -244q56 16 119 16q129 0 210 -74.5t81 -195.5q0 -138 -98 -222.5t-257 -84.5z" />
    <glyph glyph-name="uni2086" unicode="&#x2086;" horiz-adv-x="729" 
d="M399 350q119 0 199 -78t80 -202q0 -129 -84.5 -208t-222.5 -79q-140 0 -226 78.5t-86 208.5q0 67 21.5 123.5t66.5 121.5l271 390h157l-262 -363q33 8 86 8zM371 -100q72 0 116.5 47t44.5 123q0 78 -44.5 125t-116.5 47q-74 0 -119 -47t-45 -125q0 -76 45 -123t119 -47z
" />
    <glyph glyph-name="uni2087" unicode="&#x2087;" horiz-adv-x="655" 
d="M33 705h600l-314 -910h-149l279 793h-416v117z" />
    <glyph glyph-name="uni2088" unicode="&#x2088;" horiz-adv-x="768" 
d="M539 268q73 -30 114 -88t41 -135q0 -118 -85.5 -190t-223.5 -72q-139 0 -224 71t-85 187q0 79 40.5 137.5t114.5 87.5q-62 29 -96.5 82.5t-34.5 122.5q0 111 78 178.5t207 67.5q127 0 206 -67.5t79 -176.5q0 -69 -34.5 -122.5t-96.5 -82.5zM385 600q-63 0 -101 -38
t-38 -101q0 -61 38 -98t101 -37q62 0 100.5 37t38.5 98q0 63 -38.5 101t-100.5 38zM385 -100q72 0 118 42t46 111t-46 112.5t-118 43.5q-73 0 -118.5 -43.5t-45.5 -112.5t45 -111t119 -42z" />
    <glyph glyph-name="uni2089" unicode="&#x2089;" horiz-adv-x="729" 
d="M358 717q140 0 226 -78.5t86 -208.5q0 -118 -88 -246l-271 -389h-157l262 363q-33 -8 -86 -8q-119 0 -199 78t-80 202q0 129 84.5 208t222.5 79zM197 430q0 -78 44.5 -125t116.5 -47q74 0 119 47t45 125q0 76 -45 123t-119 47q-72 0 -116.5 -47t-44.5 -123z" />
    <glyph glyph-name="Euro" unicode="&#x20ac;" horiz-adv-x="1697" 
d="M1464 414l150 -135q-107 -143 -268 -221t-361 -78q-290 0 -492.5 150.5t-265.5 408.5h-141v139h119q-4 54 -4 84v26h-115v140h129q50 280 255.5 444t512.5 164q361 0 584 -246l-137 -139q-76 94 -188.5 149.5t-252.5 55.5q-211 0 -355.5 -115t-187.5 -313h525v-140h-543
v-26q0 -30 4 -84h539v-139h-510q56 -176 195 -277.5t331 -101.5q309 0 477 254z" />
    <glyph glyph-name="uni20B9" unicode="&#x20b9;" horiz-adv-x="1310" 
d="M1217 1516v-140h-355q152 -105 176 -293h168v-137h-168q-13 -129 -80.5 -226.5t-177.5 -152.5l373 -567h-256l-326 510q-20 -2 -65 -2h-367v180h348q129 0 215.5 69.5t108.5 188.5h-672v137h672q-20 116 -103.5 184t-209.5 68h-359v181h1078z" />
    <glyph glyph-name="uni20BD" unicode="&#x20bd;" horiz-adv-x="1351" 
d="M764 627h-318v-111h492v-139h-492v-377h-217v377h-112v139h112v111h-112v139h112v750h539q231 0 371.5 -120t140.5 -317q0 -204 -142 -328t-374 -124zM446 1335v-528h297q142 0 227 72.5t85 191.5q0 118 -86 191t-226 73h-297z" />
    <glyph glyph-name="trademark" unicode="&#x2122;" horiz-adv-x="1486" 
d="M565 1597v-98h-184v-487h-119v487h-184v98h487zM1346 1012h-119l-25 403l-184 -403h-57l-187 405l-24 -405h-119l41 585h123l194 -423l191 423h125z" />
    <glyph glyph-name="oneeighth" unicode="&#x215b;" horiz-adv-x="1744" 
d="M1141 1536l114 -70l-870 -1486l-115 71zM285 606v729l-199 -143l-70 100l301 224h109v-910h-141zM1516 473q73 -30 114 -88t41 -135q0 -118 -85.5 -190t-223.5 -72q-139 0 -224 71t-85 187q0 79 40.5 137.5t114.5 87.5q-62 29 -96.5 82.5t-34.5 122.5q0 111 78 178.5
t207 67.5q127 0 206 -67.5t79 -176.5q0 -69 -34.5 -122.5t-96.5 -82.5zM1362 805q-63 0 -101 -38t-38 -101q0 -62 38 -99t101 -37q62 0 100.5 37.5t38.5 98.5q0 63 -38.5 101t-100.5 38zM1362 104q72 0 118 42.5t46 111.5t-46 112.5t-118 43.5q-73 0 -118.5 -43.5
t-45.5 -112.5t45.5 -111.5t118.5 -42.5z" />
    <glyph glyph-name="threeeighths" unicode="&#x215c;" horiz-adv-x="1921" 
d="M1317 1536l115 -70l-871 -1486l-115 71zM657 879q0 -128 -90 -206.5t-243 -78.5q-85 0 -157.5 25t-115.5 69l53 105q72 -82 203 -82q93 0 149 46.5t56 121.5q0 72 -53.5 115.5t-141.5 43.5q-74 0 -129 -30l-41 71l285 320h-342v117h528v-89l-264 -280h15q130 0 209 -74
t79 -194zM1692 473q73 -30 114 -88t41 -135q0 -118 -85.5 -190t-223.5 -72q-139 0 -224 71t-85 187q0 79 40.5 137.5t114.5 87.5q-62 29 -96.5 82.5t-34.5 122.5q0 111 78 178.5t207 67.5q127 0 206 -67.5t79 -176.5q0 -69 -34.5 -122.5t-96.5 -82.5zM1538 805
q-63 0 -101 -38t-38 -101q0 -62 38 -99t101 -37q62 0 100.5 37.5t38.5 98.5q0 63 -38.5 101t-100.5 38zM1538 104q72 0 118 42.5t46 111.5t-46 112.5t-118 43.5q-73 0 -118.5 -43.5t-45.5 -112.5t45.5 -111.5t118.5 -42.5z" />
    <glyph glyph-name="fiveeighths" unicode="&#x215d;" horiz-adv-x="1929" 
d="M1325 1536l115 -70l-871 -1486l-114 71zM668 901q0 -138 -98 -222.5t-257 -84.5q-174 0 -268 82l43 104q78 -69 213 -69q100 0 160.5 49.5t60.5 132.5q0 72 -47 117t-123 45q-79 0 -149 -41l-94 14l63 488h451v-117h-330l-35 -244q56 16 119 16q129 0 210 -74.5
t81 -195.5zM1700 473q73 -30 114 -88t41 -135q0 -118 -85.5 -190t-223.5 -72q-139 0 -224 71t-85 187q0 79 41 137t115 88q-62 29 -96.5 82.5t-34.5 122.5q0 111 77.5 178.5t206.5 67.5q127 0 206 -67.5t79 -176.5q0 -69 -34.5 -122.5t-96.5 -82.5zM1546 805q-63 0 -101 -38
t-38 -101q0 -62 38 -99t101 -37q62 0 101 37.5t39 98.5q0 63 -39 101t-101 38zM1546 104q72 0 118 42.5t46 111.5t-46 112.5t-118 43.5q-73 0 -118.5 -43.5t-45.5 -112.5t45.5 -111.5t118.5 -42.5z" />
    <glyph glyph-name="seveneighths" unicode="&#x215e;" horiz-adv-x="1789" 
d="M1186 1536l114 -70l-870 -1486l-115 71zM319 606h-149l279 793h-416v117h600zM1561 473q73 -30 114 -88t41 -135q0 -118 -85.5 -190t-223.5 -72q-139 0 -224 71t-85 187q0 79 40.5 137.5t114.5 87.5q-62 29 -96.5 82.5t-34.5 122.5q0 111 78 178.5t207 67.5
q127 0 206 -67.5t79 -176.5q0 -69 -34.5 -122.5t-96.5 -82.5zM1407 805q-63 0 -101 -38t-38 -101q0 -62 38 -99t101 -37q62 0 100.5 37.5t38.5 98.5q0 63 -38.5 101t-100.5 38zM1407 104q72 0 118 42.5t46 111.5t-46 112.5t-118 43.5q-73 0 -118.5 -43.5t-45.5 -112.5
t45.5 -111.5t118.5 -42.5z" />
    <glyph glyph-name="partialdiff" unicode="&#x2202;" horiz-adv-x="1353" 
d="M641 1536q183 0 323 -96t216.5 -272t76.5 -406q0 -351 -192 -566.5t-504 -215.5q-224 0 -361 112.5t-137 296.5q0 147 118.5 261.5t336.5 180t504 72.5q-28 209 -131 331t-256 122q-116 0 -210 -55t-161 -150l-137 139q201 246 514 246zM557 160q204 0 333 154.5
t140 408.5q-338 -4 -542.5 -97.5t-204.5 -242.5q0 -100 75.5 -161.5t198.5 -61.5z" />
    <glyph glyph-name="emptyset" unicode="&#x2205;" horiz-adv-x="1380" 
d="M1120 1108q140 -156 140 -393q0 -255 -157.5 -411.5t-412.5 -156.5q-197 0 -348 101l-90 -101l-90 68l96 107q-139 155 -139 393q0 255 157 411t414 156q200 0 346 -100l92 100l89 -68zM336 715q0 -141 63 -238l504 557q-90 68 -213 68q-159 0 -256.5 -106.5
t-97.5 -280.5zM690 328q158 0 255 107t97 280q0 140 -63 237l-504 -557q89 -67 215 -67z" />
    <glyph glyph-name="product" unicode="&#x220f;" horiz-adv-x="1495" 
d="M1305 1597v-2048h-220v1868h-675v-1868h-217v2048h1112z" />
    <glyph glyph-name="summation" unicode="&#x2211;" horiz-adv-x="1318" 
d="M68 -451v138l632 893l-612 880v137h1129v-180h-865l604 -837l-624 -850h905v-181h-1169z" />
    <glyph glyph-name="minus" unicode="&#x2212;" horiz-adv-x="1212" 
d="M145 627v174h922v-174h-922z" />
    <glyph glyph-name="radical" unicode="&#x221a;" horiz-adv-x="1587" 
d="M485 -451l-475 1094h230l350 -854l762 1808h229l-885 -2048h-211z" />
    <glyph glyph-name="infinity" unicode="&#x221e;" horiz-adv-x="1486" 
d="M1032 915q155 0 249.5 -94.5t94.5 -249.5t-94.5 -249.5t-249.5 -94.5q-97 0 -172 42t-117 118q-40 -76 -114.5 -118t-171.5 -42q-155 0 -250.5 94.5t-95.5 249.5t95.5 249.5t250.5 94.5q97 0 171.5 -41.5t114.5 -117.5q42 76 117 117.5t172 41.5zM471 365q83 0 133.5 57
t50.5 149q0 94 -50.5 150.5t-133.5 56.5q-85 0 -135.5 -56.5t-50.5 -150.5q0 -93 51 -149.5t135 -56.5zM1018 365q82 0 133 57t51 149q0 93 -51 150t-133 57q-85 0 -137 -56.5t-52 -150.5q0 -92 52 -149t137 -57z" />
    <glyph glyph-name="integral" unicode="&#x222b;" horiz-adv-x="931" 
d="M686 1618q157 0 246 -92l-58 -148q-66 60 -149 60q-69 0 -109.5 -41.5t-40.5 -108.5v-1470q0 -131 -90 -210t-239 -79q-157 0 -246 92l59 148q63 -60 148 -60q69 0 109 41.5t40 108.5v1470q0 130 91 209.5t239 79.5z" />
    <glyph glyph-name="approxequal" unicode="&#x2248;" horiz-adv-x="1200" 
d="M801 668q-54 0 -113.5 21t-102 45.5t-93 45.5t-89.5 21q-61 0 -100 -30.5t-39 -82.5h-119q0 120 71 193t185 73q56 0 115 -20.5t101 -45t92 -45t90 -20.5q63 0 102 29.5t39 81.5h119q0 -123 -71 -194.5t-187 -71.5zM801 258q-54 0 -113.5 21t-102 45.5t-93 45.5t-89.5 21
q-61 0 -100 -30t-39 -82h-119q0 120 71 193t185 73q56 0 115 -20.5t101 -45t92 -45t90 -20.5q63 0 102 29.5t39 80.5h119q0 -123 -71 -194.5t-187 -71.5z" />
    <glyph glyph-name="notequal" unicode="&#x2260;" horiz-adv-x="1210" 
d="M1067 858h-315l-80 -289h395v-174h-442l-64 -235h-211l64 235h-271v174h318l80 289h-398v174h445l63 236h211l-63 -236h268v-174z" />
    <glyph glyph-name="lessequal" unicode="&#x2264;" horiz-adv-x="1204" 
d="M1049 592v-197l-906 387v133l906 385v-196l-615 -256zM141 287h910v-172h-910v172z" />
    <glyph glyph-name="greaterequal" unicode="&#x2265;" horiz-adv-x="1202" 
d="M156 1300l905 -385v-133l-905 -387v197l614 256l-614 256v196zM154 115v172h907v-172h-907z" />
    <glyph glyph-name="lozenge" unicode="&#x25ca;" horiz-adv-x="1204" 
d="M698 1298l424 -649l-424 -649h-192l-424 649l424 649h192zM602 186l301 463l-301 463l-301 -463z" />
    <glyph glyph-name="i.loclTRK" horiz-adv-x="522" 
d="M262 1321q-57 0 -94 37t-37 94t37 94t94 37q56 0 92.5 -37t36.5 -94t-36.5 -94t-92.5 -37zM158 0v1094h209v-1094h-209z" />
    <glyph glyph-name="zero.lf" horiz-adv-x="1433" 
d="M649 -20q-250 0 -402.5 214t-152.5 564t152.5 564t402.5 214t402.5 -214t152.5 -564t-152.5 -564t-402.5 -214zM649 160q149 0 238.5 164.5t89.5 433.5t-89.5 433.5t-238.5 164.5t-239.5 -164.5t-90.5 -433.5t90.5 -433.5t239.5 -164.5z" />
    <glyph glyph-name="one.lf" horiz-adv-x="878" 
d="M469 0v1233l-340 -244l-111 158l502 369h166v-1516h-217z" />
    <glyph glyph-name="two.lf" horiz-adv-x="1181" 
d="M90 0v137l463 502q5 6 36 39t42.5 46t40.5 46.5t43 53.5t38 53.5t36 59.5t26 57.5t19.5 62.5t5.5 61q0 108 -68.5 173t-181.5 65q-119 0 -190.5 -73.5t-71.5 -192.5l-224 18q0 193 132.5 310.5t349.5 117.5q214 0 344.5 -109t130.5 -290q0 -67 -21 -135.5t-50 -123.5
t-83.5 -125t-97 -117t-113.5 -122l-319 -336l704 2v-180h-991z" />
    <glyph glyph-name="three.lf" horiz-adv-x="1171" 
d="M596 895q216 0 348.5 -123t132.5 -321q0 -213 -150.5 -342t-402.5 -129q-141 0 -260.5 42t-189.5 119l84 160q120 -141 342 -141q160 0 256 79.5t96 209.5q0 127 -91.5 202.5t-244.5 75.5q-123 0 -221 -49l-57 110l487 547h-588v181h875v-138l-455 -485q12 2 39 2z" />
    <glyph glyph-name="four.lf" horiz-adv-x="1280" 
d="M772 0v311h-727v154l772 1051h172v-1024h221v-181h-221v-311h-217zM299 487h479l4 660z" />
    <glyph glyph-name="five.lf" horiz-adv-x="1187" 
d="M512 -20q-288 0 -446 137l63 159q133 -116 363 -116q169 0 271.5 85.5t102.5 225.5q0 128 -81 205.5t-214 77.5q-141 0 -254 -66l-147 21l104 807h746v-181h-557l-64 -428q111 29 211 29q215 0 349.5 -124.5t134.5 -326.5q0 -226 -161.5 -365.5t-420.5 -139.5z" />
    <glyph glyph-name="six.lf" horiz-adv-x="1177" 
d="M641 922q200 0 332.5 -128.5t132.5 -334.5q0 -215 -139.5 -347t-368.5 -132q-230 0 -370 130.5t-140 344.5q0 112 34 206t103 193l457 662h246l-439 -611q73 17 152 17zM596 160q128 0 206.5 82t78.5 215t-78.5 215t-206.5 82q-127 0 -205 -81.5t-78 -215.5t78 -215.5
t205 -81.5z" />
    <glyph glyph-name="seven.lf" horiz-adv-x="1071" 
d="M45 1516h991l-526 -1516h-234l478 1335h-709v181z" />
    <glyph glyph-name="eight.lf" horiz-adv-x="1236" 
d="M866 788q124 -50 193 -146.5t69 -227.5q0 -195 -140.5 -314.5t-369.5 -119.5t-369 118.5t-140 311.5q0 131 69 228.5t193 147.5q-104 48 -162.5 137t-58.5 205q0 183 128.5 295.5t339.5 112.5t340 -111.5t129 -294.5q0 -116 -58.5 -205t-162.5 -137zM618 1356
q-108 0 -175.5 -67t-67.5 -175q0 -107 67 -173.5t176 -66.5t175.5 66.5t66.5 173.5q0 108 -67 175t-175 67zM618 160q128 0 205.5 73t77.5 193t-78 194t-205 74t-205.5 -74t-78.5 -194t78 -193t206 -73z" />
    <glyph glyph-name="nine.lf" horiz-adv-x="1177" 
d="M578 1536q230 0 369.5 -130.5t139.5 -344.5q0 -112 -34 -206t-103 -193l-456 -662h-246l438 610q-69 -16 -151 -16q-200 0 -332.5 128.5t-132.5 334.5q0 215 139.5 347t368.5 132zM295 1059q0 -133 78.5 -215t206.5 -82q127 0 204.5 81.5t77.5 215.5t-77.5 215.5
t-204.5 81.5q-128 0 -206.5 -82t-78.5 -215z" />
    <glyph glyph-name="zero.osf" horiz-adv-x="1384" 
d="M694 -20q-270 0 -435 184t-165 485t165 485.5t435 184.5q267 0 431.5 -184.5t164.5 -485.5t-164.5 -485t-431.5 -184zM694 160q166 0 269.5 135t103.5 354t-103.5 354.5t-269.5 135.5q-169 0 -273 -135t-104 -355t104 -354.5t273 -134.5z" />
    <glyph glyph-name="one.osf" horiz-adv-x="792" 
d="M393 0v1020l-252 -180l-108 153l411 305h158v-1298h-209z" />
    <glyph glyph-name="two.osf" horiz-adv-x="1204" 
d="M104 0v137l523 422q46 36 77.5 64.5t72.5 74.5t63 97.5t22 105.5q0 107 -70.5 172.5t-187.5 65.5q-123 0 -197.5 -73.5t-74.5 -195.5l-213 21q0 192 132 310t347 118t346 -110.5t131 -290.5q0 -59 -12.5 -112t-40.5 -100.5t-55 -84t-73.5 -79t-77.5 -68t-85 -66.5
l-307 -234h670v-174h-990z" />
    <glyph glyph-name="three.osf" horiz-adv-x="1185" 
d="M608 684q213 0 343 -121.5t130 -318.5q0 -213 -147.5 -341t-396.5 -128q-143 0 -262.5 42.5t-186.5 119.5l84 159q116 -141 342 -141q160 0 255 78.5t95 208.5q0 126 -92.5 201t-245.5 75q-124 0 -219 -53l-57 110l498 551h-598v172h876v-137l-455 -479q12 2 37 2z" />
    <glyph glyph-name="four.osf" horiz-adv-x="1280" 
d="M788 -225v225h-737v139l780 1159h166v-1124h220v-174h-220v-225h-209zM307 168h486l4 727z" />
    <glyph glyph-name="five.osf" horiz-adv-x="1187" 
d="M510 -225q-292 0 -447 137l64 160q135 -117 362 -117q169 0 272 85t103 224q0 125 -81 202t-214 77q-141 0 -254 -66l-147 21l104 800h746v-172h-559l-70 -434q98 31 221 31q208 0 340.5 -123.5t132.5 -323.5q0 -225 -159 -363t-414 -138z" />
    <glyph glyph-name="six.osf" horiz-adv-x="1163" 
d="M633 922q206 0 331.5 -127t125.5 -336q0 -215 -137.5 -347t-362.5 -132q-226 0 -364 130.5t-138 344.5q0 103 29.5 192.5t99.5 190.5l471 678h236l-441 -613q74 19 150 19zM588 160q129 0 206.5 81.5t77.5 215.5t-77.5 215.5t-206.5 81.5q-127 0 -205 -81.5t-78 -215.5
t78 -215.5t205 -81.5z" />
    <glyph glyph-name="seven.osf" horiz-adv-x="1122" 
d="M72 1298h991l-526 -1517l-201 53l446 1292h-710v172z" />
    <glyph glyph-name="eight.osf" horiz-adv-x="1218" 
d="M854 788q121 -50 188.5 -147t67.5 -227q0 -195 -137.5 -314.5t-362.5 -119.5q-226 0 -363.5 118t-137.5 312q0 131 67.5 228.5t190.5 147.5q-103 50 -160 138.5t-57 203.5q0 183 126.5 295.5t333.5 112.5t333 -111.5t126 -294.5q0 -116 -56.5 -205t-158.5 -137zM608 1356
q-108 0 -174.5 -67t-66.5 -175t66.5 -174t174.5 -66q109 0 176.5 66.5t67.5 173.5t-67.5 174.5t-176.5 67.5zM608 160q128 0 206.5 73t78.5 193t-78.5 194t-206.5 74q-127 0 -204.5 -74t-77.5 -194t77.5 -193t204.5 -73z" />
    <glyph glyph-name="nine.osf" horiz-adv-x="1159" 
d="M571 1319q226 0 363 -130.5t137 -344.5q0 -104 -29 -194t-98 -189l-473 -680l-199 53l404 561q-70 -18 -148 -18q-206 0 -332 127t-126 336q0 215 137.5 347t363.5 132zM287 842q0 -134 78 -216.5t206 -82.5q127 0 205 82.5t78 216.5q0 133 -77.5 214t-205.5 81
q-129 0 -206.5 -80.5t-77.5 -214.5z" />
    <glyph glyph-name="zero.tf" horiz-adv-x="1259" 
d="M631 -20q-150 0 -265.5 96.5t-179 273.5t-63.5 408t63.5 408t179 273.5t265.5 96.5q227 0 366.5 -214t139.5 -564t-139.5 -564t-366.5 -214zM631 160q126 0 203 164.5t77 433.5t-77 433.5t-203 164.5q-127 0 -205 -164.5t-78 -433.5t78 -433.5t205 -164.5z" />
    <glyph glyph-name="one.tf" horiz-adv-x="1259" 
d="M844 180h293v-180h-951v180h441v1053l-340 -244l-111 158l502 369h166v-1336z" />
    <glyph glyph-name="two.tf" horiz-adv-x="1259" 
d="M129 0v137l463 502q5 6 36 39t42.5 46t40.5 46.5t43 53.5t38 53.5t36 59.5t26 57.5t19.5 62.5t5.5 61q0 108 -68.5 173t-181.5 65q-119 0 -190.5 -73.5t-71.5 -192.5l-224 18q0 193 132 310.5t348 117.5t346.5 -109t130.5 -290q0 -67 -21 -135.5t-50 -123.5t-83.5 -125
t-97 -117t-113.5 -122l-319 -336l702 2v-180h-989z" />
    <glyph glyph-name="three.tf" horiz-adv-x="1259" 
d="M639 895q216 0 348.5 -123t132.5 -321q0 -213 -150.5 -342t-402.5 -129q-143 0 -262.5 42t-187.5 119l84 160q120 -141 342 -141q160 0 256 79.5t96 209.5q0 127 -92.5 202.5t-245.5 75.5q-121 0 -219 -49l-57 110l487 547h-588v181h877v-138l-457 -485q12 2 39 2z" />
    <glyph glyph-name="four.tf" horiz-adv-x="1259" 
d="M743 0v311h-692v154l737 1051h175v-1024h219v-181h-219v-311h-220zM299 487h453l2 658z" />
    <glyph glyph-name="five.tf" horiz-adv-x="1259" 
d="M547 -20q-289 0 -447 137l66 159q130 -116 360 -116q170 0 273.5 85.5t103.5 225.5q0 127 -81.5 205t-213.5 78q-143 0 -256 -66l-145 21l104 807h746v-181h-557l-64 -428q111 29 211 29q214 0 347.5 -124.5t133.5 -326.5q0 -227 -161 -366t-420 -139z" />
    <glyph glyph-name="six.tf" horiz-adv-x="1259" 
d="M682 922q201 0 334 -128.5t133 -334.5q0 -215 -140.5 -347t-369.5 -132q-230 0 -370 130.5t-140 344.5q0 112 34 206t103 193l459 662h246l-441 -611q77 17 152 17zM637 160q129 0 207 81.5t78 215.5t-78 215.5t-207 81.5q-127 0 -205 -81.5t-78 -215.5t78 -215.5
t205 -81.5z" />
    <glyph glyph-name="seven.tf" horiz-adv-x="1259" 
d="M139 1516h991l-528 -1516h-231l477 1335h-709v181z" />
    <glyph glyph-name="eight.tf" horiz-adv-x="1259" 
d="M877 788q124 -50 193 -146.5t69 -227.5q0 -195 -140 -314.5t-370 -119.5q-229 0 -369.5 118.5t-140.5 311.5q0 131 69 228.5t193 147.5q-104 48 -162.5 137t-58.5 205q0 183 129 295.5t340 112.5q212 0 340.5 -111.5t128.5 -294.5q0 -116 -58 -205t-163 -137zM629 1356
q-108 0 -175 -67t-67 -175q0 -107 66.5 -173.5t175.5 -66.5t176 66.5t67 173.5q0 108 -67 175t-176 67zM629 160q128 0 206 73t78 193t-78.5 194t-205.5 74t-205 -74t-78 -194t77.5 -193t205.5 -73z" />
    <glyph glyph-name="nine.tf" horiz-adv-x="1259" 
d="M618 1536q230 0 370 -130.5t140 -344.5q0 -112 -34 -206t-103 -193l-456 -662h-246l438 610q-69 -16 -152 -16q-200 0 -332 128.5t-132 334.5q0 215 139 347t368 132zM336 1059q0 -133 78.5 -215t206.5 -82q127 0 204.5 81.5t77.5 215.5t-77.5 215.5t-204.5 81.5
q-128 0 -206.5 -82t-78.5 -215z" />
    <glyph glyph-name="zero.tosf" horiz-adv-x="1259" 
d="M631 -20q-227 0 -366.5 184t-139.5 485t139.5 485.5t366.5 184.5q226 0 365 -184.5t139 -485.5q0 -300 -139 -484.5t-365 -184.5zM631 160q126 0 203 134.5t77 354.5t-77 355t-203 135q-127 0 -205 -135t-78 -355t78 -354.5t205 -134.5z" />
    <glyph glyph-name="one.tosf" horiz-adv-x="1259" 
d="M788 174h340v-174h-950v174h402v846l-252 -180l-109 153l410 305h159v-1124z" />
    <glyph glyph-name="two.tosf" horiz-adv-x="1259" 
d="M131 0v137l522 422q46 36 77.5 64.5t73 74.5t63.5 97.5t22 105.5q0 107 -70.5 172.5t-187.5 65.5q-123 0 -198 -74t-75 -195l-213 21q0 192 132.5 310t349.5 118q214 0 344.5 -110.5t130.5 -290.5q0 -59 -12.5 -112t-40.5 -100.5t-55 -84t-73.5 -79t-77.5 -68t-85 -66.5
l-305 -234h667v-174h-989z" />
    <glyph glyph-name="three.tosf" horiz-adv-x="1259" 
d="M645 684q213 0 343 -121.5t130 -318.5q0 -213 -148.5 -341t-396.5 -128q-143 0 -262.5 42.5t-187.5 119.5l84 159q57 -69 145.5 -105t196.5 -36q161 0 256.5 78.5t95.5 208.5q0 126 -92.5 201t-245.5 75q-124 0 -219 -53l-57 110l497 551h-598v172h877v-137l-455 -477h37
z" />
    <glyph glyph-name="four.tosf" horiz-adv-x="1259" 
d="M760 -225v225h-703v139l746 1159h166v-1124h221v-174h-221v-225h-209zM295 168h471l2 731z" />
    <glyph glyph-name="five.tosf" horiz-adv-x="1259" 
d="M545 -225q-293 0 -445 137l64 160q132 -117 362 -117q169 0 272 85t103 224q0 125 -81 202t-214 77q-143 0 -256 -66l-145 21l104 800h746v-172h-559l-70 -434q98 31 219 31q210 0 341.5 -123.5t131.5 -323.5q0 -225 -159 -363t-414 -138z" />
    <glyph glyph-name="six.tosf" horiz-adv-x="1259" 
d="M682 922q206 0 331.5 -127t125.5 -336q0 -215 -138 -347t-362 -132q-226 0 -364 130.5t-138 344.5q0 103 29.5 192.5t99.5 190.5l469 678h238l-441 -613q74 19 150 19zM637 160q128 0 206.5 82t78.5 215t-78.5 215t-206.5 82q-127 0 -205 -81.5t-78 -215.5t78 -215.5
t205 -81.5z" />
    <glyph glyph-name="seven.tosf" horiz-adv-x="1259" 
d="M141 1298h992l-527 -1517l-203 53l447 1292h-709v172z" />
    <glyph glyph-name="eight.tosf" horiz-adv-x="1259" 
d="M872 788q123 -50 190.5 -146.5t67.5 -227.5q0 -195 -137.5 -314.5t-363.5 -119.5q-224 0 -362 118.5t-138 311.5q0 131 67.5 228.5t190.5 147.5q-103 50 -160 138.5t-57 203.5q0 183 126.5 295.5t332.5 112.5q207 0 334 -111.5t127 -294.5q0 -116 -58 -205t-160 -137z
M629 1356q-108 0 -175 -67t-67 -175q0 -107 66.5 -173.5t175.5 -66.5t176 66.5t67 173.5q0 108 -67 175t-176 67zM629 160q128 0 206 73t78 193t-78.5 194t-205.5 74t-205 -74t-78 -194t77.5 -193t205.5 -73z" />
    <glyph glyph-name="nine.tosf" horiz-adv-x="1259" 
d="M623 1319q224 0 361.5 -130.5t137.5 -344.5q0 -104 -29.5 -194t-99.5 -189l-473 -680l-196 53l403 561q-71 -18 -147 -18q-207 0 -333 127t-126 336q0 215 138 347t364 132zM338 842q0 -134 78 -216.5t205 -82.5t205.5 82.5t78.5 216.5q0 133 -78 214t-206 81t-205.5 -81
t-77.5 -214z" />
    <glyph glyph-name="zero.dnom" horiz-adv-x="798" 
d="M401 -12q-152 0 -245 128t-93 339t93 339t245 128q150 0 242 -128.5t92 -338.5t-92 -338.5t-242 -128.5zM401 104q86 0 139.5 97t53.5 254q0 158 -53.5 254t-139.5 96t-139 -96t-53 -254q0 -157 53 -254t139 -97z" />
    <glyph glyph-name="one.dnom" horiz-adv-x="548" 
d="M285 0v729l-199 -143l-70 100l301 223h109v-909h-141z" />
    <glyph glyph-name="two.dnom" horiz-adv-x="735" 
d="M63 0v90l279 301q4 4 26.5 28.5t32.5 36t30.5 36.5t31 43t23.5 42t18.5 47t5.5 46q0 63 -38.5 99t-104.5 36q-67 0 -108.5 -42.5t-41.5 -111.5l-143 13q0 117 80 187.5t211 70.5q129 0 207.5 -66.5t78.5 -175.5q0 -92 -54.5 -175.5t-160.5 -193.5l-186 -196l414 2v-117
h-601z" />
    <glyph glyph-name="three.dnom" horiz-adv-x="724" 
d="M369 541q130 0 209 -74.5t79 -194.5q0 -128 -90 -206t-243 -78q-85 0 -157.5 25t-115.5 69l53 104q72 -82 203 -82q93 0 149 46.5t56 121.5q0 72 -53.5 116t-141.5 44q-72 0 -129 -31l-41 72l285 320h-342v116h528v-88l-264 -280h15z" />
    <glyph glyph-name="four.dnom" horiz-adv-x="790" 
d="M467 0v184h-434v99l463 626h112v-606h129v-119h-129v-184h-141zM188 297h283v385z" />
    <glyph glyph-name="five.dnom" horiz-adv-x="733" 
d="M313 -12q-174 0 -268 82l43 104q79 -70 213 -70q100 0 160.5 50t60.5 133q0 72 -47 117t-123 45q-79 0 -149 -41l-94 14l63 487h451v-116h-330l-35 -244q56 16 119 16q129 0 210 -74.5t81 -195.5q0 -138 -98 -222.5t-257 -84.5z" />
    <glyph glyph-name="six.dnom" horiz-adv-x="729" 
d="M399 555q119 0 199 -78.5t80 -202.5q0 -129 -84.5 -207.5t-222.5 -78.5q-140 0 -226 78t-86 208q0 118 88 246l271 389h157l-262 -362q33 8 86 8zM371 104q72 0 116.5 47t44.5 123q0 78 -44.5 125t-116.5 47q-74 0 -119 -47t-45 -125q0 -76 45 -123t119 -47z" />
    <glyph glyph-name="seven.dnom" horiz-adv-x="655" 
d="M33 909h600l-314 -909h-149l279 793h-416v116z" />
    <glyph glyph-name="eight.dnom" horiz-adv-x="768" 
d="M539 473q73 -30 114 -88t41 -135q0 -118 -85.5 -190t-223.5 -72q-139 0 -224 71t-85 187q0 79 40.5 137.5t114.5 87.5q-62 29 -96.5 82.5t-34.5 122.5q0 111 78 178.5t207 67.5q127 0 206 -67.5t79 -176.5q0 -69 -34.5 -122.5t-96.5 -82.5zM385 805q-63 0 -101 -38
t-38 -101q0 -62 38 -99t101 -37q62 0 100.5 37.5t38.5 98.5q0 63 -38.5 101t-100.5 38zM385 104q72 0 118 42.5t46 111.5t-46 112.5t-118 43.5q-73 0 -118.5 -43.5t-45.5 -112.5t45.5 -111.5t118.5 -42.5z" />
    <glyph glyph-name="nine.dnom" horiz-adv-x="729" 
d="M358 922q140 0 226 -78.5t86 -208.5q0 -118 -88 -246l-271 -389h-157l262 362q-33 -8 -86 -8q-119 0 -199 78.5t-80 202.5q0 129 84.5 208t222.5 79zM197 635q0 -78 44.5 -125t116.5 -47q74 0 119 47t45 125q0 76 -45 123t-119 47q-72 0 -116.5 -47t-44.5 -123z" />
    <glyph glyph-name="zero.numr" horiz-adv-x="798" 
d="M401 594q-152 0 -245 128t-93 339t93 339t245 128q150 0 242 -128.5t92 -338.5t-92 -338.5t-242 -128.5zM401 711q86 0 139.5 96.5t53.5 253.5q0 158 -53.5 254t-139.5 96t-139 -96t-53 -254q0 -157 53 -253.5t139 -96.5z" />
    <glyph glyph-name="one.numr" horiz-adv-x="548" 
d="M285 606v729l-199 -143l-70 100l301 224h109v-910h-141z" />
    <glyph glyph-name="two.numr" horiz-adv-x="735" 
d="M63 606v90l279 301q4 4 26.5 28.5t32.5 36t30.5 36.5t31 43t23.5 42t18.5 47t5.5 46q0 63 -38.5 99t-104.5 36q-67 0 -108.5 -42.5t-41.5 -111.5l-143 13q0 117 80 187.5t211 70.5q129 0 207.5 -66.5t78.5 -175.5q0 -92 -54 -174.5t-161 -193.5l-186 -197l414 2v-117
h-601z" />
    <glyph glyph-name="three.numr" horiz-adv-x="724" 
d="M369 1147q130 0 209 -74t79 -194q0 -128 -90 -206.5t-243 -78.5q-85 0 -157.5 25t-115.5 69l53 105q72 -82 203 -82q93 0 149 46.5t56 121.5q0 72 -53.5 115.5t-141.5 43.5q-74 0 -129 -30l-41 71l285 320h-342v117h528v-89l-264 -280h15z" />
    <glyph glyph-name="four.numr" horiz-adv-x="790" 
d="M467 606v185h-434v98l463 627h112v-607h129v-118h-129v-185h-141zM188 903h283v385z" />
    <glyph glyph-name="five.numr" horiz-adv-x="733" 
d="M313 594q-174 0 -268 82l43 104q78 -69 213 -69q100 0 160.5 49.5t60.5 132.5q0 72 -47 117t-123 45q-79 0 -149 -41l-94 14l63 488h451v-117h-330l-35 -244q56 16 119 16q129 0 210 -74.5t81 -195.5q0 -138 -98 -222.5t-257 -84.5z" />
    <glyph glyph-name="six.numr" horiz-adv-x="729" 
d="M399 1161q119 0 199 -78t80 -202q0 -129 -84.5 -208t-222.5 -79q-140 0 -226 78.5t-86 208.5q0 67 21.5 123.5t66.5 121.5l271 390h157l-262 -363q33 8 86 8zM371 711q72 0 116.5 47t44.5 123q0 78 -44.5 125t-116.5 47q-74 0 -119 -47t-45 -125q0 -76 45 -123t119 -47z
" />
    <glyph glyph-name="seven.numr" horiz-adv-x="655" 
d="M33 1516h600l-314 -910h-149l279 793h-416v117z" />
    <glyph glyph-name="eight.numr" horiz-adv-x="768" 
d="M539 1079q73 -30 114 -88t41 -135q0 -118 -85.5 -190t-223.5 -72q-139 0 -224 71t-85 187q0 79 40.5 137.5t114.5 87.5q-62 29 -96.5 82.5t-34.5 122.5q0 111 78 178.5t207 67.5q127 0 206 -67.5t79 -176.5q0 -69 -34.5 -122.5t-96.5 -82.5zM385 1411q-63 0 -101 -38
t-38 -101q0 -61 38 -98t101 -37q62 0 100.5 37t38.5 98q0 63 -38.5 101t-100.5 38zM385 711q72 0 118 42t46 111t-46 112.5t-118 43.5q-73 0 -118.5 -43.5t-45.5 -112.5t45 -111t119 -42z" />
    <glyph glyph-name="nine.numr" horiz-adv-x="729" 
d="M358 1528q140 0 226 -78.5t86 -208.5q0 -118 -88 -246l-271 -389h-157l262 363q-33 -8 -86 -8q-119 0 -199 78t-80 202q0 129 84.5 208t222.5 79zM197 1241q0 -78 44.5 -125t116.5 -47q74 0 119 47t45 125q0 76 -45 123t-119 47q-72 0 -116.5 -47t-44.5 -123z" />
    <glyph glyph-name="exclamdown.case" horiz-adv-x="581" 
d="M291 1536q57 0 94 -37t37 -94t-37 -93t-94 -36t-94 36t-37 93t37 94t94 37zM201 1128h180l20 -1128h-221z" />
    <glyph glyph-name="questiondown.case" horiz-adv-x="1091" 
d="M563 1536q57 0 94 -37t37 -94t-37 -93t-94 -36t-93 36t-36 93t36 94t93 37zM653 1128q0 -93 -14.5 -171t-34 -128t-54 -97.5t-58.5 -71.5t-64 -58q-43 -37 -66 -60.5t-42 -64t-19 -88.5q0 -103 70.5 -166t187.5 -63q112 0 184 63t78 166l205 -10q-9 -180 -137.5 -289.5
t-329.5 -109.5q-218 0 -350.5 109t-132.5 286q0 48 11 90t25 70.5t42.5 61.5t47.5 50t56 49q36 31 53 47t48 49t46.5 62t34 70.5t26 92.5t7.5 111h180z" />
    <glyph glyph-name="slash.case" horiz-adv-x="798" 
d="M88 0l412 1516h211l-412 -1516h-211z" />
    <glyph glyph-name="braceleft.case" horiz-adv-x="866" 
d="M565 -102q-140 0 -224.5 85t-84.5 226v256q0 92 -45 147.5t-117 55.5h-14v180h14q72 0 117 56t45 147v258q0 139 85 224t224 85q114 0 217 -25v-172q-76 17 -145 17q-74 0 -119 -52.5t-45 -138.5v-221q0 -101 -45.5 -174.5t-120.5 -93.5q75 -20 120.5 -94t45.5 -175v-221
q0 -86 45 -138t119 -52q73 0 145 16v-172q-99 -24 -217 -24z" />
    <glyph glyph-name="braceright.case" horiz-adv-x="866" 
d="M303 -102q-117 0 -219 24v172q75 -16 145 -16q74 0 119 52t45 138v221q0 101 46 175t120 94q-74 20 -120 93.5t-46 174.5v221q0 86 -45 138.5t-119 52.5q-65 0 -145 -17v172q106 25 219 25q139 0 223 -84.5t84 -224.5v-258q0 -91 45 -147t117 -56h16v-180h-16
q-72 0 -117 -55.5t-45 -147.5v-256q0 -141 -84 -226t-223 -85z" />
    <glyph glyph-name="bracketleft.case" horiz-adv-x="800" 
d="M193 -82v1679h524v-180h-309v-1319h309v-180h-524z" />
    <glyph glyph-name="bracketright.case" horiz-adv-x="800" 
d="M608 -82h-524v180h309v1319h-309v180h524v-1679z" />
    <glyph glyph-name="parenleft.case" horiz-adv-x="669" 
d="M410 -82q-59 78 -105.5 154.5t-95.5 183t-76 235.5t-27 267t27 267t76 235t95 182t106 155h194q-43 -60 -87.5 -144t-89 -194t-73 -243t-28.5 -258t28.5 -258t73 -243.5t89 -194.5t87.5 -144h-194z" />
    <glyph glyph-name="parenright.case" horiz-adv-x="669" 
d="M66 -82q43 60 87.5 144t89 194.5t73 243.5t28.5 258t-28.5 258t-73 243t-89 194t-87.5 144h194q59 -78 105.5 -154.5t95 -182.5t75.5 -235t27 -267t-27 -267t-75.5 -235.5t-95 -183t-105.5 -154.5h-194z" />
    <glyph glyph-name="logo" horiz-adv-x="2609" 
d="M156 -20q-15 0 -25 10.5t-10 25.5q0 21 10 31l700 698h-663q-47 0 -47 39q0 16 14 33l696 701h-669q-41 0 -41 38v3q0 38 41 38h758q47 0 47 -41q0 -20 -17 -34l-698 -697h676q17 0 29 -12t12 -29v-669l694 692q13 16 35 16q37 0 37 -45v-663l696 692q13 16 33 16
q15 0 25 -12t10 -27q0 -18 -13 -28l-753 -762q-14 -14 -35 -14q-41 0 -41 47v663l-694 -696q-14 -14 -35 -14q-41 0 -41 47v663l-697 -696q-14 -14 -34 -14z" />
    </font>
</defs>
</svg>
