<?xml version="1.0" standalone="no"?>
<!DOCTYPE svg PUBLIC "-//W3C//DTD SVG 1.1//EN" "http://www.w3.org/Graphics/SVG/1.1/DTD/svg11.dtd" >
<svg xmlns="http://www.w3.org/2000/svg" xmlns:xlink="http://www.w3.org/1999/xlink" version="1.1">
<metadata>
Created by FontForge 20170731 at Mon Jul  4 13:47:21 2022
 By Aleksey,,,
Copyright (c) 2016 by Alberto Romanos. All rights reserved.
</metadata>
<defs>
<font id="BwModelicaSS01-MediumItalic" horiz-adv-x="1259" >
  <font-face 
    font-family="Bw Modelica SS01 Medium"
    font-weight="600"
    font-style="italic"
    font-stretch="normal"
    units-per-em="2048"
    panose-1="0 0 7 0 0 0 0 0 0 0"
    ascent="1597"
    descent="-451"
    x-height="1094"
    cap-height="1516"
    bbox="-1780 -473 2587 2089"
    underline-thickness="102"
    underline-position="-307"
    slope="-10"
    unicode-range="U+000D-FB02"
  />
<missing-glyph horiz-adv-x="2609" 
d="M244 -20q-15 0 -25 10.5t-10 25.5q0 21 10 31l701 698h-664q-47 0 -47 39q0 16 14 33l697 701h-670q-41 0 -41 38v3q0 38 41 38h758q47 0 47 -41q0 -20 -17 -34l-698 -697h676q17 0 29 -12t12 -29v-669l694 692q13 16 35 16q37 0 37 -45v-663l696 692q13 16 33 16
q15 0 25 -12t10 -27q0 -18 -13 -28l-753 -762q-14 -14 -35 -14q-41 0 -41 47v663l-694 -696q-14 -14 -35 -14q-41 0 -41 47v663l-696 -696q-14 -14 -35 -14z" />
    <glyph glyph-name="fi" unicode="fi" horiz-adv-x="1247" 
d="M774 1094l-29 -172h-333l-162 -922h-209l229 1294q26 150 129 237t250 87q139 0 228 -47l-29 -158q-57 25 -152 25q-87 0 -149.5 -52t-77.5 -139l-27 -153h332zM1139 1583q52 0 85 -33t33 -86q0 -61 -40 -102t-101 -41q-54 0 -87.5 33t-33.5 86q0 60 41.5 101.5
t102.5 41.5zM768 0l195 1094h208l-194 -1094h-209z" />
    <glyph glyph-name="fl" unicode="fl" horiz-adv-x="1251" 
d="M774 1094l-29 -172h-333l-162 -922h-209l229 1294q26 150 129 237t250 87q139 0 228 -47l-29 -158q-57 25 -152 25q-87 0 -149.5 -52t-77.5 -139l-27 -153h332zM1053 1597h209l-283 -1597h-209z" />
    <glyph glyph-name=".notdef" horiz-adv-x="2609" 
d="M244 -20q-15 0 -25 10.5t-10 25.5q0 21 10 31l701 698h-664q-47 0 -47 39q0 16 14 33l697 701h-670q-41 0 -41 38v3q0 38 41 38h758q47 0 47 -41q0 -20 -17 -34l-698 -697h676q17 0 29 -12t12 -29v-669l694 692q13 16 35 16q37 0 37 -45v-663l696 692q13 16 33 16
q15 0 25 -12t10 -27q0 -18 -13 -28l-753 -762q-14 -14 -35 -14q-41 0 -41 47v663l-694 -696q-14 -14 -35 -14q-41 0 -41 47v663l-696 -696q-14 -14 -35 -14z" />
    <glyph glyph-name=".null" horiz-adv-x="0" 
 />
    <glyph glyph-name="nonmarkingreturn" horiz-adv-x="682" 
 />
    <glyph glyph-name="CR" unicode="&#xd;" horiz-adv-x="450" 
 />
    <glyph glyph-name="space" unicode=" " horiz-adv-x="528" 
 />
    <glyph glyph-name="exclam" unicode="!" horiz-adv-x="557" 
d="M141 387l183 1129h219l-219 -1129h-183zM174 -20q-54 0 -87.5 32.5t-33.5 83.5q0 62 41.5 103t102.5 41q52 0 85 -33t33 -84q0 -62 -40 -102.5t-101 -40.5z" />
    <glyph glyph-name="quotedbl" unicode="&#x22;" horiz-adv-x="753" 
d="M219 1155l74 442h172l-82 -442h-164zM549 1155l72 442h172l-82 -442h-162z" />
    <glyph glyph-name="numbersign" unicode="#" horiz-adv-x="1470" 
d="M1407 889h-254l-143 -350h256l-62 -142h-252l-161 -397h-158l162 397h-359l-162 -397h-157l162 397h-248l59 142h246l143 350h-248l58 141h250l163 404h158l-164 -404h359l164 404h157l-164 -404h252zM852 539l143 350h-358l-143 -350h358z" />
    <glyph glyph-name="dollar" unicode="$" horiz-adv-x="1306" 
d="M776 858q65 -20 118 -41.5t109.5 -55.5t95 -74t63 -97t24.5 -123q0 -193 -148 -323.5t-376 -157.5l-31 -170h-217l30 170q-252 31 -381 182l101 139q144 -147 393 -147q111 0 201.5 33t144 95t53.5 142q0 44 -21 79.5t-64.5 63.5t-93 48.5t-124.5 44.5l-90 26
q-80 24 -139.5 52t-110.5 68.5t-77.5 97.5t-26.5 128q0 196 142 330.5t364 161.5l30 170h218l-31 -172q212 -29 350 -170l-115 -144q-136 142 -356 142q-158 0 -265.5 -76.5t-107.5 -192.5q0 -41 18 -72.5t54.5 -55t75 -39t96.5 -33.5z" />
    <glyph glyph-name="percent" unicode="%" horiz-adv-x="1667" 
d="M481 848q-147 0 -232 78t-85 209q0 174 119 287.5t297 113.5q146 0 229.5 -77t83.5 -208q0 -174 -117.5 -288.5t-294.5 -114.5zM332 -20l-107 71l1151 1485l109 -70zM500 987q96 0 159.5 75.5t63.5 176.5q0 75 -43.5 117.5t-118.5 42.5q-97 0 -161 -76t-64 -178
q0 -75 43.5 -116.5t120.5 -41.5zM1130 -20q-147 0 -232 77t-85 209q0 174 119 288t297 114q145 0 229 -77.5t84 -207.5q0 -174 -117.5 -288.5t-294.5 -114.5zM1149 117q96 0 159.5 76.5t63.5 177.5q0 74 -43 115.5t-119 41.5q-97 0 -161 -76t-64 -176q0 -75 43.5 -117
t120.5 -42z" />
    <glyph glyph-name="ampersand" unicode="&#x26;" horiz-adv-x="1583" 
d="M1133 731l-66 -389q-6 -24 -6 -49q0 -63 37.5 -98t103.5 -35q106 0 209 41l-16 -176q-109 -45 -275 -45q-97 0 -164 42.5t-94 118.5q-161 -161 -405 -161q-185 0 -294.5 98t-109.5 260q0 176 104 301.5t277 181.5q-82 41 -126 113t-44 164q0 132 73.5 233t194 153
t267.5 52q191 0 303 -89.5t112 -238.5q0 -32 -6 -69l-43 -244h359l-29 -164h-362zM780 1356q-129 0 -217 -79.5t-88 -195.5q0 -87 57 -136.5t160 -49.5h262l43 238q4 36 4 47q0 83 -59 129.5t-162 46.5zM526 160q125 0 223.5 68.5t120.5 195.5l54 307h-250
q-167 0 -283.5 -100.5t-116.5 -247.5q0 -103 67 -163t185 -60z" />
    <glyph glyph-name="quotesingle" unicode="'" horiz-adv-x="425" 
d="M219 1155l74 442h172l-82 -442h-164z" />
    <glyph glyph-name="parenleft" unicode="(" horiz-adv-x="638" 
d="M225 -369q-157 331 -157 707q0 338 134 660.5t363 598.5h197q-231 -312 -357 -633t-126 -683q0 -111 13 -215t37.5 -192t40.5 -135.5t40 -107.5h-185z" />
    <glyph glyph-name="parenright" unicode=")" horiz-adv-x="636" 
d="M-133 -369q231 311 357 635t126 680q0 145 -26.5 289.5t-49 211t-55.5 150.5h187q155 -342 155 -708q0 -341 -133.5 -659.5t-364.5 -598.5h-196z" />
    <glyph glyph-name="asterisk" unicode="*" horiz-adv-x="798" 
d="M797 1251l-201 -57l96 -158l-121 -80l-88 164l-139 -164l-102 80l147 160l-180 55l65 131l179 -67l30 201h138l-41 -201l198 67z" />
    <glyph glyph-name="plus" unicode="+" horiz-adv-x="1105" 
d="M1040 801l-28 -174h-357l-63 -361h-209l63 361h-358l31 174h358l64 360h209l-64 -360h354z" />
    <glyph glyph-name="comma" unicode="," horiz-adv-x="530" 
d="M-139 -297l231 510h248l-264 -510h-215z" />
    <glyph glyph-name="hyphen" unicode="-" horiz-adv-x="933" 
d="M115 514l26 152h658l-27 -152h-657z" />
    <glyph glyph-name="period" unicode="." horiz-adv-x="501" 
d="M154 -20q-58 0 -94.5 38.5t-36.5 96.5q0 65 45 109t112 44q57 0 94 -39t37 -96q0 -65 -45 -109t-112 -44z" />
    <glyph glyph-name="slash" unicode="/" horiz-adv-x="876" 
d="M-63 -205l806 1802h215l-806 -1802h-215z" />
    <glyph glyph-name="zero" unicode="0" horiz-adv-x="1298" 
d="M557 -20q-211 0 -331 153t-120 416q0 146 32 290t93.5 269t145.5 221t195 151.5t233 55.5q211 0 329.5 -153t118.5 -416q0 -184 -50.5 -360.5t-139 -316t-221.5 -225t-285 -85.5zM575 160q82 0 155.5 50t127 133t93.5 188t59.5 217.5t19.5 218.5q0 181 -64.5 285
t-181.5 104q-102 0 -190 -76t-145 -195t-89 -259.5t-32 -274.5q0 -182 65 -286.5t182 -104.5z" />
    <glyph glyph-name="one" unicode="1" horiz-adv-x="870" 
d="M348 0l219 1233l-383 -244l-84 158l566 369h168l-269 -1516h-217z" />
    <glyph glyph-name="two" unicode="2" horiz-adv-x="1177" 
d="M-25 0l25 137l573 518q2 2 42 38.5t48.5 44.5t46 43.5t49.5 50t43 49.5t43 55.5t33 54t29 59.5t15.5 57.5t7.5 61.5q0 87 -57 137t-158 50q-118 0 -204 -77t-108 -198l-215 35q35 192 183 306t360 114q195 0 308.5 -91.5t113.5 -246.5q0 -77 -28 -156.5t-69.5 -144.5
t-109.5 -139t-126 -127t-140 -123l-383 -330l702 2l-32 -180h-992z" />
    <glyph glyph-name="three" unicode="3" horiz-adv-x="1169" 
d="M1163 1516l-24 -138l-537 -483h21q195 0 308 -101t113 -270q0 -161 -83.5 -286t-226.5 -191.5t-320 -66.5q-142 0 -255.5 44t-172.5 121l102 150q97 -135 334 -135q167 0 282 95.5t115 240.5q0 108 -77.5 169.5t-213.5 61.5q-117 0 -223 -53l-47 114l584 547h-586l31 181
h876z" />
    <glyph glyph-name="four" unicode="4" horiz-adv-x="1280" 
d="M659 0l56 311h-727l26 154l957 1051h174l-180 -1024h221l-31 -181h-223l-55 -311h-218zM272 487h482l123 682z" />
    <glyph glyph-name="five" unicode="5" horiz-adv-x="1187" 
d="M406 -20q-291 0 -431 143l84 149q115 -112 349 -112q183 0 309.5 104.5t126.5 261.5q0 106 -67.5 167t-186.5 61q-136 0 -260 -72l-150 27l248 807h748l-33 -181h-555l-148 -428q113 29 211 29q192 0 306 -102t114 -273q0 -168 -90 -302t-241.5 -206.5t-333.5 -72.5z" />
    <glyph glyph-name="six" unicode="6" horiz-adv-x="1175" 
d="M690 922q175 0 284 -101t109 -270q0 -159 -80 -290.5t-218 -206t-304 -74.5q-201 0 -317.5 103t-116.5 277q0 249 217 494l574 662h245l-546 -611q77 17 153 17zM512 160q149 0 245.5 107t96.5 257q0 105 -64 167.5t-174 62.5q-147 0 -244.5 -106.5t-97.5 -256.5
q0 -106 64 -168.5t174 -62.5z" />
    <glyph glyph-name="seven" unicode="7" horiz-adv-x="1067" 
d="M188 1516h992l-795 -1516h-235l710 1335h-704z" />
    <glyph glyph-name="eight" unicode="8" horiz-adv-x="1234" 
d="M889 782q97 -43 149 -122t52 -183q0 -147 -78 -261.5t-209 -175t-291 -60.5q-208 0 -329.5 98.5t-121.5 265.5q0 160 91 276.5t245 172.5q-80 42 -124 113t-44 163q0 137 72.5 244.5t194 165t268.5 57.5q190 0 301 -93t111 -249q0 -145 -77.5 -251.5t-209.5 -160.5z
M741 1356q-124 0 -207 -87t-83 -206q0 -88 55 -138.5t153 -50.5q124 0 207.5 86.5t83.5 204.5q0 89 -55 140t-154 51zM532 160q142 0 239 94t97 227q0 99 -64 156t-179 57q-141 0 -239.5 -95t-98.5 -228q0 -98 65.5 -154.5t179.5 -56.5z" />
    <glyph glyph-name="nine" unicode="9" horiz-adv-x="1175" 
d="M733 1536q203 0 319.5 -103.5t116.5 -277.5q0 -250 -219 -493l-573 -662h-246l549 612q-70 -18 -156 -18q-175 0 -284 101t-109 270q0 159 80 290.5t218 206t304 74.5zM360 991q0 -105 64 -167t174 -62q148 0 245 106t97 258q0 105 -63.5 167.5t-174.5 62.5
q-149 0 -245.5 -107.5t-96.5 -257.5z" />
    <glyph glyph-name="colon" unicode=":" horiz-adv-x="540" 
d="M315 825q-58 0 -94.5 39t-36.5 97q0 65 45.5 109t112.5 44q57 0 94 -39t37 -96q0 -66 -46 -110t-112 -44zM166 -20q-57 0 -94 39t-37 96q0 65 45.5 109t112.5 44q58 0 94.5 -38.5t36.5 -96.5q0 -65 -45.5 -109t-112.5 -44z" />
    <glyph glyph-name="semicolon" unicode=";" horiz-adv-x="624" 
d="M369 825q-57 0 -94 39t-37 97q0 64 45.5 108.5t111.5 44.5q58 0 94.5 -38.5t36.5 -96.5q0 -66 -45 -110t-112 -44zM-86 -297l231 510h248l-264 -510h-215z" />
    <glyph glyph-name="less" unicode="&#x3c;" horiz-adv-x="1124" 
d="M903 217l-829 434l24 131l981 435l-35 -197l-694 -305l588 -301z" />
    <glyph glyph-name="equal" unicode="=" horiz-adv-x="1214" 
d="M182 858l31 174h922l-31 -174h-922zM100 395l31 174h922l-29 -174h-924z" />
    <glyph glyph-name="greater" unicode="&#x3e;" horiz-adv-x="1122" 
d="M68 217l34 197l697 303l-590 303l35 197l829 -435l-22 -131z" />
    <glyph glyph-name="question" unicode="?" horiz-adv-x="1099" 
d="M575 379l-178 16q17 93 44.5 169.5t55 125t69 94.5t70 69.5t75.5 57.5q88 63 132 121.5t44 141.5q0 86 -58.5 134t-164.5 48q-114 0 -198.5 -66t-109.5 -172l-198 25q39 180 182.5 286.5t341.5 106.5t314 -92.5t116 -245.5q0 -69 -15.5 -123.5t-49.5 -100.5t-73.5 -81.5
t-101.5 -79.5q-50 -36 -76.5 -56.5t-68.5 -62t-66.5 -81.5t-49 -101t-36.5 -133zM428 -20q-54 0 -87.5 32.5t-33.5 83.5q0 62 40.5 103t101.5 41q54 0 87 -33t33 -84q0 -62 -40 -102.5t-101 -40.5z" />
    <glyph glyph-name="at" unicode="@" horiz-adv-x="2244" 
d="M1300 1538q396 0 626.5 -192t230.5 -521q0 -111 -24.5 -219.5t-71.5 -203t-111 -167t-149 -114t-179 -41.5q-109 0 -180.5 53.5t-93.5 145.5q-63 -95 -158 -148t-215 -53q-168 0 -269.5 100.5t-101.5 267.5q0 145 64.5 270t180.5 201t257 76q209 0 285 -168l28 152h203
l-96 -551q-4 -20 -4 -49q0 -117 104 -117q70 0 131.5 51.5t102 132.5t63.5 177t23 188q0 255 -178 402t-484 147q-223 0 -410 -73.5t-317.5 -205t-203 -321t-72.5 -414.5q0 -291 188 -463t514 -172q119 0 281 20.5t288 53.5l50 -166q-138 -40 -317 -64t-320 -24
q-416 0 -657.5 220t-241.5 589q0 267 89.5 491t250 380t390.5 242.5t504 86.5zM1036 258q112 0 194.5 75t104.5 195v4q6 30 6 64q0 102 -56 159.5t-157 57.5q-131 0 -218 -102.5t-87 -239.5q0 -99 56 -156t157 -57z" />
    <glyph glyph-name="A" unicode="A" horiz-adv-x="1632" 
d="M963 1536q259 0 410 -129t151 -344q0 -39 -11 -111l-167 -952h-218l86 481h-849l-84 -481h-218l170 967q46 260 245.5 414.5t484.5 154.5zM397 664h848l51 284q11 61 11 90q0 147 -97 232.5t-264 85.5q-190 0 -328 -112t-169 -290z" />
    <glyph glyph-name="B" unicode="B" horiz-adv-x="1423" 
d="M1067 795q108 -37 168.5 -117.5t60.5 -190.5q0 -142 -76 -254t-204 -172.5t-283 -60.5h-651l268 1516h615q174 0 276 -89t102 -239q0 -138 -73.5 -237.5t-202.5 -155.5zM874 1335h-339l-82 -467h329q147 0 239.5 78t92.5 205q0 85 -63.5 134.5t-176.5 49.5zM719 180
q158 0 256 86t98 219q0 94 -67.5 148.5t-186.5 54.5h-399l-88 -508h387z" />
    <glyph glyph-name="C" unicode="C" horiz-adv-x="1558" 
d="M776 -20q-311 0 -491.5 169t-180.5 455q0 195 70 367.5t191 296.5t293 196t368 72q356 0 549 -250l-154 -129q-147 199 -407 199q-120 0 -227.5 -38.5t-190 -107.5t-143 -160.5t-92 -201.5t-31.5 -227q0 -213 122.5 -337t344.5 -124q145 0 283.5 71t234.5 189l131 -146
q-131 -143 -302 -218.5t-368 -75.5z" />
    <glyph glyph-name="D" unicode="D" horiz-adv-x="1585" 
d="M895 1516q290 0 457.5 -164.5t167.5 -442.5q0 -152 -42 -291.5t-121 -251t-186.5 -194t-244 -127.5t-287.5 -45h-557l268 1516h545zM653 180q114 0 216.5 38.5t179.5 106t133 156.5t85 193.5t29 214.5q0 208 -115 327t-325 119h-321l-203 -1155h321z" />
    <glyph glyph-name="E" unicode="E" horiz-adv-x="1300" 
d="M1294 1335h-759l-84 -475h702l-33 -180h-700l-88 -500h778l-33 -180h-995l268 1516h977z" />
    <glyph glyph-name="F" unicode="F" horiz-adv-x="1175" 
d="M1221 1335h-686l-91 -516h600l-32 -180h-600l-113 -639h-217l268 1516h903z" />
    <glyph glyph-name="G" unicode="G" horiz-adv-x="1650" 
d="M1616 827q0 -29 -10 -84q-12 -171 -85 -315t-187.5 -241.5t-264.5 -152t-315 -54.5q-299 0 -473.5 168t-174.5 452q0 194 67.5 366.5t185.5 298t286 198.5t361 73q309 0 499 -166l-157 -129q-132 115 -359 115q-141 0 -265.5 -62t-210 -165t-134.5 -238t-49 -279
q0 -208 118 -330t326 -122q225 0 397 136t201 351h-450l32 180h662z" />
    <glyph glyph-name="H" unicode="H" horiz-adv-x="1701" 
d="M1444 1516h219l-268 -1516h-219l120 680h-876l-121 -680h-217l268 1516h217l-114 -654h876z" />
    <glyph glyph-name="I" unicode="I" horiz-adv-x="608" 
d="M82 0l268 1516h217l-268 -1516h-217z" />
    <glyph glyph-name="J" unicode="J" horiz-adv-x="1169" 
d="M1145 1516l-187 -1049q-40 -222 -200.5 -354.5t-388.5 -132.5q-131 0 -234.5 49t-171.5 135l129 137q87 -141 273 -141q142 0 248 93t132 239l150 843h-670l33 181h887z" />
    <glyph glyph-name="K" unicode="K" horiz-adv-x="1413" 
d="M1548 1516l-717 -742l467 -774h-256l-403 684h-219l-121 -684h-217l268 1516h217l-114 -650h206l621 650h268z" />
    <glyph glyph-name="L" unicode="L" horiz-adv-x="1124" 
d="M332 180h694l-33 -180h-911l268 1516h217z" />
    <glyph glyph-name="M" unicode="M" horiz-adv-x="2033" 
d="M1706 1526h236l-173 -1526h-217l140 1145l-727 -1145h-125l-320 1147l-266 -1147h-219l364 1526h236l328 -1174z" />
    <glyph glyph-name="N" unicode="N" horiz-adv-x="1746" 
d="M82 0l268 1516h133l807 -1143l199 1143h217l-268 -1516h-133l-805 1143l-201 -1143h-217z" />
    <glyph glyph-name="O" unicode="O" horiz-adv-x="1744" 
d="M768 -20q-308 0 -486 168t-178 454q0 194 69.5 366.5t190 297.5t291.5 197.5t365 72.5q306 0 482.5 -169t176.5 -456q0 -193 -69 -365t-188.5 -296.5t-289.5 -197t-364 -72.5zM786 160q144 0 270 61t213 162.5t137 236.5t50 281q0 210 -121.5 332.5t-333.5 122.5
q-144 0 -271 -60.5t-214.5 -162t-137.5 -236.5t-50 -281q0 -210 122 -333t336 -123z" />
    <glyph glyph-name="P" unicode="P" horiz-adv-x="1349" 
d="M924 1516q203 0 321.5 -106.5t118.5 -287.5q0 -163 -79.5 -294t-217.5 -204t-307 -73h-363l-98 -551h-217l268 1516h574zM760 731q165 0 272 107t107 266q0 107 -69 169t-191 62h-344l-107 -604h332z" />
    <glyph glyph-name="Q" unicode="Q" horiz-adv-x="1746" 
d="M1679 911q0 -191 -66 -359t-186 -294l242 -258h-260l-123 135q-229 -155 -518 -155q-308 0 -486 168t-178 454q0 194 69.5 366.5t190 297.5t291.5 197.5t365 72.5q306 0 482.5 -169t176.5 -456zM786 160q203 0 367 119l-242 264h250l127 -135q80 101 124 228.5t44 264.5
q0 210 -121.5 332.5t-333.5 122.5q-144 0 -271 -60.5t-214.5 -162t-137.5 -236.5t-50 -281q0 -210 122 -333t336 -123z" />
    <glyph glyph-name="R" unicode="R" horiz-adv-x="1458" 
d="M1386 1128q0 -181 -105.5 -313.5t-279.5 -189.5l302 -625h-250l-273 590h-14h-363l-104 -590h-217l268 1516h588q208 0 328 -105t120 -283zM535 1335l-99 -565h334q178 0 284.5 96t106.5 242q0 106 -70.5 166.5t-197.5 60.5h-358z" />
    <glyph glyph-name="S" unicode="S" horiz-adv-x="1288" 
d="M532 -20q-157 0 -285 48.5t-204 139.5l98 139q144 -147 394 -147q170 0 285.5 75t115.5 195q0 35 -15 65.5t-40 53.5t-65.5 44.5t-83 37.5t-101.5 35l-90 26q-80 24 -139 52t-110.5 68.5t-78.5 97.5t-27 128q0 145 81.5 259.5t220 176.5t307.5 62q290 0 465 -178
l-115 -144q-136 142 -357 142q-157 0 -264.5 -76.5t-107.5 -192.5q0 -41 18 -72.5t55 -55t75.5 -39t97.5 -33.5l92 -29q65 -20 118.5 -41.5t109.5 -55.5t94 -74t62.5 -97t24.5 -123q0 -144 -85.5 -256t-229 -171.5t-316.5 -59.5z" />
    <glyph glyph-name="T" unicode="T" horiz-adv-x="1220" 
d="M1348 1516l-33 -181h-477l-236 -1335h-217l236 1335h-476l31 181h1172z" />
    <glyph glyph-name="U" unicode="U" horiz-adv-x="1634" 
d="M711 -20q-259 0 -410 129t-151 344q0 45 10 110l168 953h219l-168 -949q-8 -41 -8 -88q0 -150 95 -234.5t263 -84.5q190 0 328 113t170 294l166 949h219l-172 -967q-46 -260 -245 -414.5t-484 -154.5z" />
    <glyph glyph-name="V" unicode="V" horiz-adv-x="1515" 
d="M541 0l-387 1516h229l301 -1248l750 1248h235l-924 -1516h-204z" />
    <glyph glyph-name="W" unicode="W" horiz-adv-x="2287" 
d="M428 0l-266 1516h231l195 -1223l604 1223h205l170 -1223l628 1223h236l-801 -1516h-205l-178 1219l-616 -1219h-203z" />
    <glyph glyph-name="X" unicode="X" horiz-adv-x="1351" 
d="M1460 1516l-635 -725l418 -791h-256l-317 618l-535 -618h-246l691 778l-383 738h256l280 -566l481 566h246z" />
    <glyph glyph-name="Y" unicode="Y" horiz-adv-x="1372" 
d="M461 0l106 588l-387 928h230l299 -732l551 732h241l-715 -928l-108 -588h-217z" />
    <glyph glyph-name="Z" unicode="Z" horiz-adv-x="1316" 
d="M1389 1516l-25 -138l-1077 -1198h882l-32 -180h-1184l24 137l1078 1198h-850l33 181h1151z" />
    <glyph glyph-name="bracketleft" unicode="[" horiz-adv-x="759" 
d="M2 -369l346 1966h524l-30 -180h-310l-284 -1605h311l-33 -181h-524z" />
    <glyph glyph-name="backslash" unicode="\" horiz-adv-x="856" 
d="M420 -205l-172 1802h207l172 -1802h-207z" />
    <glyph glyph-name="bracketright" unicode="]" horiz-adv-x="759" 
d="M748 1597l-347 -1966h-524l31 181h309l285 1605h-312l33 180h525z" />
    <glyph glyph-name="asciicircum" unicode="^" horiz-adv-x="1046" 
d="M956 653h-211l-141 439l-291 -439h-211l437 645h206z" />
    <glyph glyph-name="underscore" unicode="_" horiz-adv-x="1140" 
d="M-88 -152l27 152h1036l-27 -152h-1036z" />
    <glyph glyph-name="grave" unicode="`" horiz-adv-x="1228" 
d="M430 1268l-283 317h244l215 -317h-176z" />
    <glyph glyph-name="a" unicode="a" horiz-adv-x="1374" 
d="M1098 1094h200l-192 -1094h-203l29 188q-156 -208 -426 -208q-201 0 -323 123.5t-122 328.5q0 183 81 339.5t224 249.5t314 93q144 0 238 -59.5t137 -167.5zM580 160q155 0 269.5 107t145.5 278q6 49 6 84q0 143 -80 224t-221 81q-121 0 -219.5 -66.5t-151.5 -174
t-53 -230.5q0 -140 81 -221.5t223 -81.5z" />
    <glyph glyph-name="b" unicode="b" horiz-adv-x="1376" 
d="M836 1114q201 0 322.5 -124t121.5 -331q0 -137 -47.5 -261.5t-129 -216.5t-197 -146.5t-244.5 -54.5q-145 0 -239.5 60.5t-137.5 168.5l-41 -209h-203l283 1597h208l-120 -688q158 205 424 205zM641 160q121 0 219.5 66.5t151.5 174t53 230.5q0 140 -80.5 221.5
t-222.5 81.5q-153 0 -268 -106t-146 -275v-4l-4 -19q-4 -46 -4 -65q0 -143 80 -224t221 -81z" />
    <glyph glyph-name="c" unicode="c" horiz-adv-x="1105" 
d="M549 -20q-226 0 -357 123t-131 333q0 142 50.5 267.5t138.5 215.5t213 142.5t268 52.5q208 0 350 -129l-135 -133q-88 82 -235 82q-125 0 -226 -67t-155 -175.5t-54 -232.5q0 -139 81 -219t227 -80q164 0 286 110l101 -147q-186 -143 -422 -143z" />
    <glyph glyph-name="d" unicode="d" horiz-adv-x="1370" 
d="M1178 1597h208l-282 -1597h-203l29 186q-156 -206 -426 -206q-201 0 -323 123.5t-122 328.5q0 137 48 262t130 217.5t198 147.5t245 55q142 0 236 -59.5t137 -165.5zM578 160q156 0 270 107t145 278q6 47 6 84q0 143 -80 224t-221 81q-121 0 -219.5 -66.5t-151.5 -174
t-53 -230.5q0 -140 81 -221.5t223 -81.5z" />
    <glyph glyph-name="e" unicode="e" horiz-adv-x="1222" 
d="M1112 471h-836q-2 -18 -2 -57q0 -126 65 -197.5t185 -71.5q97 0 187.5 44t162.5 120l150 -94q-96 -114 -226.5 -174.5t-275.5 -60.5q-214 0 -337.5 122t-123.5 330q0 186 79 341.5t223.5 248t324.5 92.5q211 0 332 -120t121 -324q0 -98 -29 -199zM682 948
q-140 0 -238.5 -93t-140.5 -241h623q4 46 4 64q0 128 -66 199t-182 71z" />
    <glyph glyph-name="f" unicode="f" horiz-adv-x="724" 
d="M696 1438q-87 0 -149.5 -52t-77.5 -139l-27 -153h332l-29 -172h-333l-162 -922h-209l229 1294q26 150 129 237t250 87q139 0 228 -47l-29 -158q-57 25 -152 25z" />
    <glyph glyph-name="g" unicode="g" horiz-adv-x="1374" 
d="M1100 1094h200l-178 -1012q-43 -252 -236 -402.5t-470 -150.5q-299 0 -467 145l65 156q153 -121 402 -121q193 0 332 109.5t170 283.5l14 82q-157 -204 -426 -204q-200 0 -321.5 123.5t-121.5 328.5q0 137 47.5 262t129.5 217.5t197.5 147.5t244.5 55q144 0 238 -60
t137 -167zM580 160q156 0 270 107t145 278l4 24q5 50 5 60q0 142 -80.5 223.5t-221.5 81.5q-121 0 -220 -66.5t-152.5 -174t-53.5 -230.5q0 -140 81 -221.5t223 -81.5z" />
    <glyph glyph-name="h" unicode="h" horiz-adv-x="1316" 
d="M805 1114q179 0 283 -95t104 -253q0 -24 -8 -86l-121 -680h-209l115 651q6 35 6 62q0 104 -68 162.5t-188 58.5q-136 0 -234 -78.5t-120 -202.5l-115 -653h-209l281 1597h208l-114 -649q146 166 389 166z" />
    <glyph glyph-name="i" unicode="i" horiz-adv-x="522" 
d="M391 1321q-54 0 -87.5 33t-33.5 86q0 60 41.5 101.5t102.5 41.5q52 0 85 -33t33 -86q0 -61 -40 -102t-101 -41zM43 0l195 1094h208l-194 -1094h-209z" />
    <glyph glyph-name="j" unicode="j" horiz-adv-x="522" 
d="M391 1321q-54 0 -87.5 33t-33.5 86q0 60 40.5 101.5t101.5 41.5q54 0 86 -33t32 -86q0 -60 -39.5 -101.5t-99.5 -41.5zM-37 -451l275 1545h208l-274 -1545h-209z" />
    <glyph glyph-name="k" unicode="k" horiz-adv-x="1196" 
d="M1264 1094l-578 -523l404 -571h-254l-330 487h-170l-86 -487h-209l283 1597h208l-165 -935h153l471 432h273z" />
    <glyph glyph-name="l" unicode="l" horiz-adv-x="526" 
d="M45 0l283 1597h209l-283 -1597h-209z" />
    <glyph glyph-name="m" unicode="m" horiz-adv-x="1992" 
d="M1487 1114q177 0 280 -94t103 -252q0 -47 -8 -88l-121 -680h-209l115 649q6 43 6 68q0 101 -59.5 159t-163.5 58q-121 0 -209 -77.5t-111 -201.5l-115 -655h-209l113 649q6 29 6 68q0 102 -58.5 159.5t-162.5 57.5q-121 0 -209 -77.5t-110 -201.5l-115 -655h-209
l192 1094h201l-20 -140q135 160 356 160q119 0 203 -51t121 -141q70 93 171.5 142.5t221.5 49.5z" />
    <glyph glyph-name="n" unicode="n" horiz-adv-x="1316" 
d="M805 1114q179 0 283 -95t104 -253q0 -24 -8 -86l-121 -680h-209l115 651q6 35 6 62q0 104 -68 162.5t-188 58.5q-136 0 -234 -78.5t-120 -202.5l-115 -653h-209l192 1094h201l-22 -152q70 84 171 128t222 44z" />
    <glyph glyph-name="o" unicode="o" horiz-adv-x="1314" 
d="M553 -20q-228 0 -360 124t-132 334q0 188 86 343t239.5 244t342.5 89q226 0 358 -125t132 -336q0 -187 -86 -341t-239 -243t-341 -89zM580 160q120 0 218.5 66.5t152 174t53.5 230.5q0 140 -81.5 221.5t-220.5 81.5q-122 0 -221 -66t-152 -173.5t-53 -231.5
q0 -140 81 -221.5t223 -81.5z" />
    <glyph glyph-name="p" unicode="p" horiz-adv-x="1372" 
d="M834 1114q201 0 322.5 -124t121.5 -331q0 -183 -80.5 -338.5t-223.5 -248t-315 -92.5q-280 0 -374 225l-115 -656h-209l272 1545h203l-28 -189q156 209 426 209zM639 160q121 0 219.5 66.5t151.5 174t53 230.5q0 140 -80.5 221.5t-222.5 81.5q-155 0 -270 -107t-144 -278
l-4 -21q-4 -46 -4 -63q0 -143 80 -224t221 -81z" />
    <glyph glyph-name="q" unicode="q" horiz-adv-x="1374" 
d="M1098 1094h200l-272 -1545h-209l113 635q-157 -204 -426 -204q-200 0 -321.5 123.5t-121.5 328.5q0 137 47.5 262t129.5 217.5t197.5 147.5t244.5 55q144 0 238 -60t137 -167zM578 160q156 0 270 107t145 278l4 28q4 18 4 56q0 143 -80 224t-221 81q-121 0 -220 -66.5
t-152.5 -174t-53.5 -230.5q0 -140 81 -221.5t223 -81.5z" />
    <glyph glyph-name="r" unicode="r" horiz-adv-x="794" 
d="M41 0l192 1094h203l-30 -172q144 192 450 192l-35 -192q-185 0 -311.5 -88.5t-153.5 -229.5l-106 -604h-209z" />
    <glyph glyph-name="s" unicode="s" horiz-adv-x="1005" 
d="M389 -20q-260 0 -383 126l92 119q107 -80 295 -80q107 0 183.5 51t76.5 126q0 54 -45 87.5t-131 55.5l-100 29q-260 61 -260 243q0 163 132 270t324 107q236 0 381 -106l-102 -134q-103 74 -264 74q-106 0 -180 -47t-74 -121q0 -48 37.5 -75t117.5 -52l101 -30
q276 -84 276 -273q0 -112 -64.5 -197t-172 -129t-240.5 -44z" />
    <glyph glyph-name="t" unicode="t" horiz-adv-x="759" 
d="M401 922l-102 -580q-6 -24 -6 -49q0 -63 37.5 -98t103.5 -35q108 0 217 41l-30 -176q-106 -45 -269 -45q-125 0 -198.5 71.5t-73.5 190.5q0 34 6 71l193 1100h208l-55 -319h361l-31 -172h-361z" />
    <glyph glyph-name="u" unicode="u" horiz-adv-x="1269" 
d="M530 -20q-202 0 -319 100.5t-117 267.5q0 45 8 86l117 660h209l-117 -654q0 -5 -3 -28t-3 -35q0 -103 64 -160t178 -57q129 0 222.5 77.5t115.5 200.5l114 656h209l-118 -676q-34 -199 -187.5 -318.5t-372.5 -119.5z" />
    <glyph glyph-name="v" unicode="v" horiz-adv-x="1189" 
d="M377 0l-281 1094h226l196 -854l504 854h233l-669 -1094h-209z" />
    <glyph glyph-name="w" unicode="w" horiz-adv-x="1867" 
d="M317 0l-219 1094h226l149 -854l449 854h176l141 -854l457 854h231l-606 -1094h-211l-139 848l-443 -848h-211z" />
    <glyph glyph-name="x" unicode="x" horiz-adv-x="1146" 
d="M1192 1094l-506 -539l330 -555h-246l-231 416l-381 -416h-258l534 563l-309 531h246l213 -387l350 387h258z" />
    <glyph glyph-name="y" unicode="y" horiz-adv-x="1284" 
d="M999 1094h209l-178 -1012q-44 -253 -221 -403t-428 -150q-269 0 -422 125l68 156q140 -101 364 -101q162 0 282.5 109.5t151.5 283.5l6 37q-138 -159 -370 -159q-171 0 -270 94t-99 250q0 46 8 90l119 680h209l-113 -652q-6 -44 -6 -65q0 -103 63 -160t177 -57
q128 0 220.5 76t115.5 200v4z" />
    <glyph glyph-name="z" unicode="z" horiz-adv-x="1073" 
d="M-41 0l25 135l747 787h-596l31 172h899l-27 -136l-745 -784h631l-31 -174h-934z" />
    <glyph glyph-name="braceleft" unicode="{" horiz-adv-x="821" 
d="M375 -389q-125 0 -197 68.5t-72 183.5q0 25 7 65l69 387q6 29 6 76q0 133 -127 133h-20l33 181h16q72 0 126 57t71 153l69 400q25 140 120 221.5t231 81.5q119 0 225 -27l-31 -170q-77 17 -133 17q-81 0 -136.5 -52.5t-70.5 -146.5l-63 -365q-19 -101 -75 -171t-138 -91
q60 -17 91.5 -69.5t31.5 -128.5q0 -42 -7 -74l-63 -367q-4 -32 -4 -49q0 -63 32.5 -98t92.5 -35q79 0 157 19l-30 -175q-105 -24 -211 -24z" />
    <glyph glyph-name="bar" unicode="|" horiz-adv-x="579" 
d="M-12 -451l360 2048h219l-362 -2048h-217z" />
    <glyph glyph-name="braceright" unicode="}" horiz-adv-x="821" 
d="M436 1618q125 0 197 -68.5t72 -183.5q0 -26 -7 -66l-69 -387q-6 -29 -6 -75q0 -133 127 -133h20l-33 -181h-16q-72 0 -126 -57.5t-71 -153.5l-69 -399q-25 -140 -120 -221.5t-231 -81.5q-119 0 -225 27l31 169q72 -16 133 -16q81 0 136.5 52.5t70.5 146.5l63 364
q19 101 75 171t138 91q-60 17 -91.5 70t-31.5 129q0 43 7 74l63 366q4 32 4 50q0 63 -32.5 98t-92.5 35q-79 0 -157 -19l30 174q109 25 211 25z" />
    <glyph glyph-name="asciitilde" unicode="~" horiz-adv-x="1202" 
d="M776 463q-53 0 -108 21t-93.5 45.5t-87 45.5t-90.5 21q-63 0 -106 -29.5t-53 -83.5h-121q20 117 104.5 192t194.5 75q54 0 109.5 -20.5t93.5 -45.5t86 -45.5t90 -20.5q64 0 106.5 28t52.5 83h121q-20 -120 -103.5 -193t-195.5 -73z" />
    <glyph glyph-name="uni00A0" unicode="&#xa0;" horiz-adv-x="528" 
 />
    <glyph glyph-name="exclamdown" unicode="&#xa1;" horiz-adv-x="550" 
d="M324 852q-54 0 -86.5 33t-32.5 86q0 61 40 102t101 41q52 0 85.5 -33t33.5 -86q0 -61 -40 -102t-101 -41zM-27 -451l224 1158h180l-184 -1158h-220z" />
    <glyph glyph-name="cent" unicode="&#xa2;" horiz-adv-x="1173" 
d="M907 377l103 -152q-139 -120 -342 -139l-31 -168h-197l31 174q-174 31 -272.5 149t-98.5 298q0 172 72 317t201.5 238t294.5 116l30 170h197l-31 -170q143 -22 256 -123l-135 -133q-85 82 -229 82q-95 0 -178 -40t-139.5 -106t-89 -153t-32.5 -180q0 -137 80 -216
t226 -79q160 0 284 115z" />
    <glyph glyph-name="sterling" unicode="&#xa3;" horiz-adv-x="1226" 
d="M1192 1137l-213 -2q4 18 4 51q0 78 -49 124t-133 46q-101 0 -171 -63t-89 -165l-58 -327h582l-33 -174h-579l-80 -453h661l-30 -174h-1014l30 172h136l80 455h-113l29 174h114l62 352q32 176 165 279.5t326 103.5q175 0 277 -89t102 -237q0 -32 -6 -73z" />
    <glyph glyph-name="currency" unicode="&#xa4;" horiz-adv-x="1275" 
d="M1075 952q41 -80 41 -180q0 -186 -125 -330l101 -118l-146 -129l-104 120q-126 -71 -262 -71q-143 0 -248 78l-150 -129l-110 129l149 131q-41 80 -41 182q0 185 127 332l-102 118l147 129l105 -122q125 69 260 69q142 0 250 -78l149 129l109 -129zM346 647
q0 -107 70 -176.5t182 -69.5q139 0 244.5 108.5t105.5 252.5q0 105 -70 175.5t-178 70.5q-139 0 -246.5 -108.5t-107.5 -252.5z" />
    <glyph glyph-name="yen" unicode="&#xa5;" horiz-adv-x="1445" 
d="M1532 1516l-623 -807h265l-25 -140h-338l-18 -110h335l-24 -140h-338l-57 -319h-217l57 319h-330l25 140h331l19 110h-330l25 140h258l-338 807h231l299 -732l551 732h242z" />
    <glyph glyph-name="brokenbar" unicode="&#xa6;" horiz-adv-x="573" 
d="M201 778l145 819h219l-145 -819h-219zM-14 -451l143 820h219l-145 -820h-217z" />
    <glyph glyph-name="section" unicode="&#xa7;" horiz-adv-x="1222" 
d="M1098 555q0 -99 -42 -189t-116 -157q64 -87 64 -195q0 -142 -80.5 -254t-213.5 -171.5t-292 -59.5q-144 0 -262 48.5t-189 139.5l101 140q134 -148 354 -148q151 0 252.5 76t101.5 197q0 84 -65.5 135.5t-198.5 97.5l-82 27q-72 24 -125.5 51.5t-99.5 67.5t-70 95.5
t-24 125.5q0 100 40 192.5t113 163.5q-61 70 -61 176q0 147 76 263t205 178.5t286 62.5q264 0 428 -178l-117 -144q-121 142 -317 142q-138 0 -234 -78t-96 -195q0 -75 54.5 -117.5t160.5 -78.5l82 -29q58 -20 105.5 -41.5t98 -55.5t85 -73t56.5 -95t22 -120zM635 393
q77 -24 153 -63q97 84 97 194q0 85 -70 138.5t-207 97.5l-82 26q-51 17 -104 39q-94 -79 -94 -198q0 -42 16 -73.5t50 -56t69 -40t90 -35.5z" />
    <glyph glyph-name="dieresis" unicode="&#xa8;" horiz-adv-x="1228" 
d="M401 1321q-53 0 -85.5 32.5t-32.5 84.5q0 62 41 103.5t100 41.5q54 0 86.5 -32.5t32.5 -84.5q0 -62 -41.5 -103.5t-100.5 -41.5zM858 1321q-54 0 -86.5 32.5t-32.5 84.5q0 62 41.5 103.5t100.5 41.5q53 0 85.5 -32.5t32.5 -84.5q0 -63 -40.5 -104t-100.5 -41z" />
    <glyph glyph-name="copyright" unicode="&#xa9;" horiz-adv-x="1771" 
d="M782 -20q-312 0 -491.5 168t-179.5 454q0 195 69.5 367.5t190 297t292.5 197t369 72.5q312 0 491 -168.5t179 -454.5q0 -195 -69.5 -368t-190.5 -297t-292.5 -196t-367.5 -72zM784 82q231 0 413.5 110t282 298t99.5 417q0 244 -147.5 386.5t-403.5 142.5
q-174 0 -323.5 -65t-252 -176t-161 -263.5t-58.5 -323.5q0 -242 147.5 -384t403.5 -142zM842 324q-169 0 -268 94.5t-99 253.5q0 220 144 364t364 144q200 0 313 -142l-106 -84q-74 103 -213 103q-151 0 -251.5 -111t-100.5 -262q0 -110 64 -174t177 -64q164 0 275 138
l82 -95q-148 -165 -381 -165z" />
    <glyph glyph-name="ordfeminine" unicode="&#xaa;" horiz-adv-x="802" 
d="M541 1536q110 0 174.5 -57.5t64.5 -151.5q0 -23 -4 -51l-71 -410h-130l15 105q-44 -56 -105 -86.5t-125 -30.5q-92 0 -145 45.5t-53 122.5q0 111 88 174.5t217 63.5q75 0 168 -21l6 33q4 24 4 35q0 60 -35.5 91.5t-103.5 31.5q-101 0 -180 -66l-52 88q116 84 267 84z
M399 952q73 0 138.5 54.5t83.5 144.5q-66 14 -132 14q-80 0 -134 -36.5t-54 -96.5q0 -37 25.5 -58.5t72.5 -21.5z" />
    <glyph glyph-name="guillemotleft" unicode="&#xab;" horiz-adv-x="1269" 
d="M350 88l-284 465l444 465h227l-438 -465l268 -465h-217zM858 88l-285 465l445 465h227l-440 -465l270 -465h-217z" />
    <glyph glyph-name="logicalnot" unicode="&#xac;" horiz-adv-x="1202" 
d="M1102 907l-88 -495h-209l57 323h-715l31 172h924z" />
    <glyph glyph-name="uni00AD" unicode="&#xad;" horiz-adv-x="933" 
d="M115 514l26 152h658l-27 -152h-657z" />
    <glyph glyph-name="registered" unicode="&#xae;" horiz-adv-x="841" 
d="M578 1618q128 0 202 -70.5t74 -189.5q0 -159 -103.5 -265t-261.5 -106q-127 0 -200.5 71.5t-73.5 190.5q0 158 103 263.5t260 105.5zM496 1030q141 0 226 97.5t85 230.5q0 101 -62.5 160t-171.5 59q-141 0 -226 -97.5t-85 -230.5q0 -103 62.5 -161t171.5 -58zM676 1378
q0 -39 -23 -67.5t-61 -40.5l63 -135h-63l-57 125h-7h-63l-23 -125h-63l59 333h140q44 0 71 -23.5t27 -66.5zM537 1309q34 0 55.5 18t21.5 47q0 43 -53 43h-67l-21 -108h64z" />
    <glyph glyph-name="macron" unicode="&#xaf;" horiz-adv-x="1228" 
d="M240 1303l30 165h678l-28 -165h-680z" />
    <glyph glyph-name="degree" unicode="&#xb0;" horiz-adv-x="724" 
d="M455 1114q-114 0 -180 58t-66 157q0 126 88.5 207.5t222.5 81.5q112 0 177 -58t65 -155q0 -129 -86 -210t-221 -81zM463 1225q73 0 119.5 49t46.5 117q0 55 -32.5 85.5t-88.5 30.5q-73 0 -119.5 -49.5t-46.5 -116.5q0 -54 32 -85t89 -31z" />
    <glyph glyph-name="plusminus" unicode="&#xb1;" horiz-adv-x="1212" 
d="M766 954h350l-31 -174h-350l-63 -360h-209l63 360h-350l31 174h350l64 361h208zM59 115l31 174h907l-28 -174h-910z" />
    <glyph glyph-name="uni00B2" unicode="&#xb2;" horiz-adv-x="731" 
d="M92 811l17 88l344 311q39 35 58 52.5t53 53.5t50.5 62t30.5 61.5t14 69.5q0 50 -32 78.5t-90 28.5q-67 0 -116.5 -44.5t-60.5 -113.5l-141 21q22 117 111.5 185.5t218.5 68.5q117 0 186.5 -55t69.5 -150q0 -57 -22.5 -113t-67.5 -110t-87.5 -95t-105.5 -94l-223 -190
l414 2l-21 -117h-600z" />
    <glyph glyph-name="uni00B3" unicode="&#xb3;" horiz-adv-x="718" 
d="M807 1720l-16 -88l-312 -280h4q117 0 184.5 -61.5t67.5 -162.5q0 -148 -108.5 -238.5t-272.5 -90.5q-85 0 -154.5 26.5t-105.5 71.5l68 98q57 -80 198 -80q97 0 164.5 55.5t67.5 139.5q0 62 -45 97.5t-123 35.5q-68 0 -135 -31l-29 72l338 320h-340l18 116h531z" />
    <glyph glyph-name="acute" unicode="&#xb4;" horiz-adv-x="1228" 
d="M365 1268l329 317h246l-397 -317h-178z" />
    <glyph glyph-name="paragraph" unicode="&#xb6;" horiz-adv-x="1214" 
d="M1159 1516l-348 -1967h-162l322 1813h-201l-319 -1813h-162l225 1276h-143q-105 0 -163 68t-58 186q0 117 51 217t143 160t205 60h610z" />
    <glyph glyph-name="periodcentered" unicode="&#xb7;" horiz-adv-x="530" 
d="M242 449q-57 0 -94 39t-37 96q0 65 45 109t112 44q58 0 94.5 -38.5t36.5 -96.5q0 -65 -45 -109t-112 -44z" />
    <glyph glyph-name="cedilla" unicode="&#xb8;" horiz-adv-x="1228" 
d="M141 -123q91 0 144 -39t53 -104q0 -93 -81.5 -149t-207.5 -56q-118 0 -190 55l55 82q49 -43 127 -43q65 0 107 27.5t42 70.5q0 32 -28 50t-78 18q-44 0 -90 -16l-23 51l135 176h125l-100 -123h10z" />
    <glyph glyph-name="uni00B9" unicode="&#xb9;" horiz-adv-x="542" 
d="M307 811l129 729l-221 -143l-55 100l340 223h108l-159 -909h-142z" />
    <glyph glyph-name="ordmasculine" unicode="&#xba;" horiz-adv-x="872" 
d="M479 854q-138 0 -218.5 75.5t-80.5 203.5q0 171 115 287t289 116q137 0 217 -74.5t80 -201.5q0 -172 -115.5 -289t-286.5 -117zM494 971q105 0 175 82t70 192q0 80 -45.5 128t-124.5 48q-108 0 -180 -82t-72 -192q0 -82 47 -129t130 -47z" />
    <glyph glyph-name="guillemotright" unicode="&#xbb;" horiz-adv-x="1269" 
d="M379 1018l285 -465l-445 -465h-227l440 465l-270 465h217zM887 1018l284 -465l-444 -465h-227l440 465l-270 465h217z" />
    <glyph glyph-name="onequarter" unicode="&#xbc;" horiz-adv-x="1695" 
d="M264 -20l-108 71l1130 1485l109 -70zM270 606l129 729l-221 -143l-55 100l340 224h108l-159 -910h-142zM1260 0l32 184h-434l19 99l571 626h113l-107 -606h131l-20 -119h-131l-33 -184h-141zM1040 297h277l65 375z" />
    <glyph glyph-name="onehalf" unicode="&#xbd;" horiz-adv-x="1701" 
d="M264 -20l-108 71l1130 1485l109 -70zM270 606l129 729l-221 -143l-55 100l340 224h108l-159 -910h-142zM920 0l16 88l344 311q50 44 74 67.5t61.5 66.5t54.5 83.5t17 81.5q0 50 -32.5 78.5t-90.5 28.5q-67 0 -116 -44.5t-60 -113.5l-141 21q22 117 111 185.5t218 68.5
q117 0 186.5 -55t69.5 -150q0 -57 -22.5 -113t-67 -110t-87 -95t-105.5 -94l-224 -190l414 2l-20 -117h-600z" />
    <glyph glyph-name="threequarters" unicode="&#xbe;" horiz-adv-x="1871" 
d="M1462 1536l109 -70l-1131 -1486l-108 71zM698 924q0 -148 -108.5 -239t-272.5 -91q-85 0 -154.5 26.5t-105.5 71.5l68 99q57 -80 199 -80q97 0 164 55t67 139q0 62 -45 97.5t-123 35.5q-70 0 -135 -30l-29 71l338 320h-340l19 117h530l-16 -89l-312 -280h4
q117 0 184.5 -61t67.5 -162zM1630 303h131l-20 -119h-131l-33 -184h-141l32 184h-434l19 99l571 626h113zM1493 297l66 375l-342 -375h276z" />
    <glyph glyph-name="questiondown" unicode="&#xbf;" horiz-adv-x="1083" 
d="M610 852q-54 0 -87.5 33t-33.5 86q0 60 40.5 101.5t101.5 41.5q54 0 86.5 -33t32.5 -86q0 -61 -39.5 -102t-100.5 -41zM371 -471q-197 0 -313.5 92.5t-116.5 245.5q0 69 15.5 123t50 100t72.5 81t101 81q48 35 78 59t71 67t67 86.5t50.5 108.5t36.5 142l179 -15
q-17 -97 -44.5 -176t-55.5 -131t-70.5 -100.5t-73.5 -75t-80 -63.5q-57 -43 -89.5 -75t-56.5 -81.5t-24 -108.5q0 -85 58 -132.5t163 -47.5q112 0 198 66.5t109 171.5l197 -25q-38 -180 -180.5 -286.5t-341.5 -106.5z" />
    <glyph glyph-name="Agrave" unicode="&#xc0;" horiz-adv-x="1632" 
d="M1112 1690h-176l-283 317h244zM963 1536q259 0 410 -129t151 -344q0 -39 -11 -111l-167 -952h-218l86 481h-849l-84 -481h-218l170 967q46 260 245.5 414.5t484.5 154.5zM397 664h848l51 284q11 61 11 90q0 147 -97 232.5t-264 85.5q-190 0 -328 -112t-169 -290z" />
    <glyph glyph-name="Aacute" unicode="&#xc1;" horiz-adv-x="1632" 
d="M1448 2007l-397 -317h-179l330 317h246zM963 1536q259 0 410 -129t151 -344q0 -39 -11 -111l-167 -952h-218l86 481h-849l-84 -481h-218l170 967q46 260 245.5 414.5t484.5 154.5zM397 664h848l51 284q11 61 11 90q0 147 -97 232.5t-264 85.5q-190 0 -328 -112t-169 -290
z" />
    <glyph glyph-name="Acircumflex" unicode="&#xc2;" horiz-adv-x="1632" 
d="M1038 1894l-213 -204h-190l323 317h205l209 -317h-192zM963 1536q259 0 410 -129t151 -344q0 -39 -11 -111l-167 -952h-218l86 481h-849l-84 -481h-218l170 967q46 260 245.5 414.5t484.5 154.5zM397 664h848l51 284q11 61 11 90q0 147 -97 232.5t-264 85.5
q-190 0 -328 -112t-169 -290z" />
    <glyph glyph-name="Atilde" unicode="&#xc3;" horiz-adv-x="1632" 
d="M872 1831q-48 0 -82.5 -29.5t-44.5 -83.5h-120q20 117 93 192t167 75q45 0 89 -20.5t74 -45.5t67.5 -45.5t70.5 -20.5q48 0 81.5 29t43.5 82h123q-22 -121 -93.5 -193.5t-166.5 -72.5q-43 0 -87.5 21t-75 45.5t-69 45.5t-70.5 21zM963 1536q259 0 410 -129t151 -344
q0 -39 -11 -111l-167 -952h-218l86 481h-849l-84 -481h-218l170 967q46 260 245.5 414.5t484.5 154.5zM397 664h848l51 284q11 61 11 90q0 147 -97 232.5t-264 85.5q-190 0 -328 -112t-169 -290z" />
    <glyph glyph-name="Adieresis" unicode="&#xc4;" horiz-adv-x="1632" 
d="M795 1743q-53 0 -86 32.5t-33 84.5q0 62 41 103.5t100 41.5q53 0 86 -32.5t33 -84.5q0 -62 -41 -103.5t-100 -41.5zM1251 1743q-53 0 -85.5 32.5t-32.5 84.5q0 62 41 103.5t100 41.5q54 0 86.5 -32.5t32.5 -84.5q0 -63 -41 -104t-101 -41zM963 1536q259 0 410 -129
t151 -344q0 -39 -11 -111l-167 -952h-218l86 481h-849l-84 -481h-218l170 967q46 260 245.5 414.5t484.5 154.5zM397 664h848l51 284q11 61 11 90q0 147 -97 232.5t-264 85.5q-190 0 -328 -112t-169 -290z" />
    <glyph glyph-name="Aring" unicode="&#xc5;" horiz-adv-x="1632" 
d="M1001 1618q-95 0 -150.5 50.5t-55.5 135.5q0 110 73.5 180t186.5 70q95 0 150 -50.5t55 -135.5q0 -109 -74 -179.5t-185 -70.5zM1047 1954q-60 0 -99 -43t-39 -103q0 -42 27 -67t72 -25q61 0 100 44t39 102q0 43 -26.5 67.5t-73.5 24.5zM963 1536q259 0 410 -129
t151 -344q0 -39 -11 -111l-167 -952h-218l86 481h-849l-84 -481h-218l170 967q46 260 245.5 414.5t484.5 154.5zM397 664h848l51 284q11 61 11 90q0 147 -97 232.5t-264 85.5q-190 0 -328 -112t-169 -290z" />
    <glyph glyph-name="AE" unicode="&#xc6;" horiz-adv-x="1918" 
d="M1913 1335h-658l-84 -475h601l-33 -180h-598l-88 -500h676l-33 -180h-893l86 481h-529l-86 -481h-217l154 868q54 295 288 471.5t572 176.5h875zM920 664l118 671q-236 0 -406 -136t-208 -355l-33 -180h529z" />
    <glyph glyph-name="Ccedilla" unicode="&#xc7;" horiz-adv-x="1558" 
d="M797 160q145 0 283.5 71t234.5 189l131 -146q-125 -136 -285.5 -211.5t-345.5 -82.5l-84 -103h10q91 0 144 -39t53 -104q0 -93 -81.5 -149t-207.5 -56q-118 0 -190 55l55 82q49 -43 127 -43q65 0 107.5 27.5t42.5 70.5q0 32 -28.5 50t-78.5 18q-44 0 -90 -16l-23 51
l123 160q-275 23 -432.5 189.5t-157.5 430.5q0 195 70 367.5t191 296.5t293 196t368 72q356 0 549 -250l-154 -129q-147 199 -407 199q-120 0 -227.5 -38.5t-190 -107.5t-143 -160.5t-92 -201.5t-31.5 -227q0 -213 122.5 -337t344.5 -124z" />
    <glyph glyph-name="Egrave" unicode="&#xc8;" horiz-adv-x="1300" 
d="M977 1690h-176l-283 317h244zM1294 1335h-759l-84 -475h702l-33 -180h-700l-88 -500h778l-33 -180h-995l268 1516h977z" />
    <glyph glyph-name="Eacute" unicode="&#xc9;" horiz-adv-x="1300" 
d="M1313 2007l-398 -317h-178l330 317h246zM1294 1335h-759l-84 -475h702l-33 -180h-700l-88 -500h778l-33 -180h-995l268 1516h977z" />
    <glyph glyph-name="Ecircumflex" unicode="&#xca;" horiz-adv-x="1300" 
d="M903 1894l-213 -204h-190l323 317h205l209 -317h-193zM1294 1335h-759l-84 -475h702l-33 -180h-700l-88 -500h778l-33 -180h-995l268 1516h977z" />
    <glyph glyph-name="Edieresis" unicode="&#xcb;" horiz-adv-x="1300" 
d="M659 1743q-53 0 -85.5 32.5t-32.5 84.5q0 62 41 103.5t100 41.5q54 0 86.5 -32.5t32.5 -84.5q0 -62 -41.5 -103.5t-100.5 -41.5zM1116 1743q-54 0 -86.5 32.5t-32.5 84.5q0 62 41.5 103.5t100.5 41.5q53 0 85.5 -32.5t32.5 -84.5q0 -63 -40.5 -104t-100.5 -41zM1294 1335
h-759l-84 -475h702l-33 -180h-700l-88 -500h778l-33 -180h-995l268 1516h977z" />
    <glyph glyph-name="Igrave" unicode="&#xcc;" horiz-adv-x="608" 
d="M422 1690l-283 317h244l215 -317h-176zM82 0l268 1516h217l-268 -1516h-217z" />
    <glyph glyph-name="Iacute" unicode="&#xcd;" horiz-adv-x="608" 
d="M358 1690l330 317h246l-397 -317h-179zM82 0l268 1516h217l-268 -1516h-217z" />
    <glyph glyph-name="Icircumflex" unicode="&#xce;" horiz-adv-x="608" 
d="M649 2007l209 -317h-192l-142 204l-213 -204h-190l323 317h205zM82 0l268 1516h217l-268 -1516h-217z" />
    <glyph glyph-name="Idieresis" unicode="&#xcf;" horiz-adv-x="608" 
d="M281 1743q-53 0 -86 32.5t-33 84.5q0 62 41 103.5t100 41.5q53 0 86 -32.5t33 -84.5q0 -62 -41 -103.5t-100 -41.5zM737 1743q-53 0 -86 32.5t-33 84.5q0 62 41.5 103.5t100.5 41.5q54 0 86.5 -32.5t32.5 -84.5q0 -63 -41 -104t-101 -41zM82 0l268 1516h217l-268 -1516
h-217z" />
    <glyph glyph-name="Eth" unicode="&#xd0;" horiz-adv-x="1585" 
d="M895 1516q290 0 457.5 -164.5t167.5 -442.5q0 -152 -42 -291.5t-121 -251t-186.5 -194t-244 -127.5t-287.5 -45h-557l121 684h-166l26 152h166l121 680h545zM653 180q114 0 216.5 38.5t179.5 106t133 156.5t85 193.5t29 214.5q0 208 -115 327t-325 119h-321l-89 -499h379
l-26 -152h-379l-88 -504h321z" />
    <glyph glyph-name="Ntilde" unicode="&#xd1;" horiz-adv-x="1746" 
d="M1231 1698q-43 0 -87.5 21t-75 45.5t-68.5 45.5t-70 21q-48 0 -82.5 -29.5t-44.5 -83.5h-121q20 117 93 192t167 75q45 0 89 -20.5t74 -45.5t67.5 -45.5t70.5 -20.5q48 0 81.5 29t43.5 82h123q-22 -121 -93.5 -193.5t-166.5 -72.5zM82 0l268 1516h133l807 -1143l199 1143
h217l-268 -1516h-133l-805 1143l-201 -1143h-217z" />
    <glyph glyph-name="Ograve" unicode="&#xd2;" horiz-adv-x="1744" 
d="M991 1690l-282 317h243l215 -317h-176zM768 -20q-308 0 -486 168t-178 454q0 194 69.5 366.5t190 297.5t291.5 197.5t365 72.5q306 0 482.5 -169t176.5 -456q0 -193 -69 -365t-188.5 -296.5t-289.5 -197t-364 -72.5zM786 160q144 0 270 61t213 162.5t137 236.5t50 281
q0 210 -121.5 332.5t-333.5 122.5q-144 0 -271 -60.5t-214.5 -162t-137.5 -236.5t-50 -281q0 -210 122 -333t336 -123z" />
    <glyph glyph-name="Oacute" unicode="&#xd3;" horiz-adv-x="1744" 
d="M928 1690l329 317h246l-397 -317h-178zM768 -20q-308 0 -486 168t-178 454q0 194 69.5 366.5t190 297.5t291.5 197.5t365 72.5q306 0 482.5 -169t176.5 -456q0 -193 -69 -365t-188.5 -296.5t-289.5 -197t-364 -72.5zM786 160q144 0 270 61t213 162.5t137 236.5t50 281
q0 210 -121.5 332.5t-333.5 122.5q-144 0 -271 -60.5t-214.5 -162t-137.5 -236.5t-50 -281q0 -210 122 -333t336 -123z" />
    <glyph glyph-name="Ocircumflex" unicode="&#xd4;" horiz-adv-x="1744" 
d="M1094 1894l-213 -204h-191l324 317h205l208 -317h-192zM1020 1536q306 0 482.5 -169t176.5 -456q0 -193 -69 -365t-188.5 -296.5t-289.5 -197t-364 -72.5q-308 0 -486 168t-178 454q0 194 69.5 366.5t190 297.5t291.5 197.5t365 72.5zM786 160q144 0 270 61t213 162.5
t137 236.5t50 281q0 210 -121.5 332.5t-333.5 122.5q-144 0 -271 -60.5t-214.5 -162t-137.5 -236.5t-50 -281q0 -210 122 -333t336 -123z" />
    <glyph glyph-name="Otilde" unicode="&#xd5;" horiz-adv-x="1744" 
d="M1229 1698q-43 0 -87.5 21t-75 45.5t-68.5 45.5t-70 21q-48 0 -82.5 -29.5t-44.5 -83.5h-121q20 117 93 192t167 75q45 0 89 -20.5t74 -45.5t67.5 -45.5t70.5 -20.5q48 0 81.5 29t43.5 82h123q-22 -121 -93.5 -193.5t-166.5 -72.5zM768 -20q-308 0 -486 168t-178 454
q0 194 69.5 366.5t190 297.5t291.5 197.5t365 72.5q306 0 482.5 -169t176.5 -456q0 -193 -69 -365t-188.5 -296.5t-289.5 -197t-364 -72.5zM786 160q144 0 270 61t213 162.5t137 236.5t50 281q0 210 -121.5 332.5t-333.5 122.5q-144 0 -271 -60.5t-214.5 -162t-137.5 -236.5
t-50 -281q0 -210 122 -333t336 -123z" />
    <glyph glyph-name="Odieresis" unicode="&#xd6;" horiz-adv-x="1744" 
d="M850 1743q-54 0 -86.5 32.5t-32.5 84.5q0 62 41 103.5t100 41.5q54 0 86.5 -32.5t32.5 -84.5q0 -62 -41 -103.5t-100 -41.5zM1307 1743q-53 0 -86 32.5t-33 84.5q0 62 41 103.5t100 41.5q53 0 86 -32.5t33 -84.5q0 -63 -40.5 -104t-100.5 -41zM768 -20q-308 0 -486 168
t-178 454q0 194 69.5 366.5t190 297.5t291.5 197.5t365 72.5q306 0 482.5 -169t176.5 -456q0 -193 -69 -365t-188.5 -296.5t-289.5 -197t-364 -72.5zM786 160q144 0 270 61t213 162.5t137 236.5t50 281q0 210 -121.5 332.5t-333.5 122.5q-144 0 -271 -60.5t-214.5 -162
t-137.5 -236.5t-50 -281q0 -210 122 -333t336 -123z" />
    <glyph glyph-name="multiply" unicode="&#xd7;" horiz-adv-x="1044" 
d="M987 989l-325 -278l225 -273l-146 -129l-227 275l-321 -275l-111 129l324 277l-230 274l148 127l229 -276l324 276z" />
    <glyph glyph-name="Oslash" unicode="&#xd8;" horiz-adv-x="1744" 
d="M1786 1399l-184 -158q77 -139 77 -330q0 -193 -69 -365t-188.5 -296.5t-289.5 -197t-364 -72.5q-287 0 -465 149l-174 -149l-127 137l182 155q-80 144 -80 330q0 194 69.5 366.5t190 297.5t291.5 197.5t365 72.5q284 0 463 -152l178 152zM328 616q0 -101 32 -192l961 821
q-120 111 -320 111q-144 0 -271 -60.5t-214.5 -162t-137.5 -236.5t-50 -281zM1456 901q0 104 -31 189l-958 -822q120 -108 319 -108q144 0 270 61t213 162.5t137 236.5t50 281z" />
    <glyph glyph-name="Ugrave" unicode="&#xd9;" horiz-adv-x="1634" 
d="M934 1690l-283 317h244l215 -317h-176zM711 -20q-259 0 -410 129t-151 344q0 45 10 110l168 953h219l-168 -949q-8 -41 -8 -88q0 -150 95 -234.5t263 -84.5q190 0 328 113t170 294l166 949h219l-172 -967q-46 -260 -245 -414.5t-484 -154.5z" />
    <glyph glyph-name="Uacute" unicode="&#xda;" horiz-adv-x="1634" 
d="M870 1690l330 317h246l-397 -317h-179zM711 -20q-259 0 -410 129t-151 344q0 45 10 110l168 953h219l-168 -949q-8 -41 -8 -88q0 -150 95 -234.5t263 -84.5q190 0 328 113t170 294l166 949h219l-172 -967q-46 -260 -245 -414.5t-484 -154.5z" />
    <glyph glyph-name="Ucircumflex" unicode="&#xdb;" horiz-adv-x="1634" 
d="M1036 1894l-213 -204h-190l323 317h205l209 -317h-192zM1393 1516h219l-172 -967q-46 -260 -245 -414.5t-484 -154.5q-259 0 -410 129t-151 344q0 45 10 110l168 953h219l-168 -949q-8 -41 -8 -88q0 -150 95 -234.5t263 -84.5q190 0 328 113t170 294z" />
    <glyph glyph-name="Udieresis" unicode="&#xdc;" horiz-adv-x="1634" 
d="M793 1743q-53 0 -86 32.5t-33 84.5q0 62 41 103.5t100 41.5q53 0 86 -32.5t33 -84.5q0 -62 -41 -103.5t-100 -41.5zM1249 1743q-53 0 -86 32.5t-33 84.5q0 62 41.5 103.5t100.5 41.5q54 0 86.5 -32.5t32.5 -84.5q0 -63 -41 -104t-101 -41zM711 -20q-259 0 -410 129
t-151 344q0 45 10 110l168 953h219l-168 -949q-8 -41 -8 -88q0 -150 95 -234.5t263 -84.5q190 0 328 113t170 294l166 949h219l-172 -967q-46 -260 -245 -414.5t-484 -154.5z" />
    <glyph glyph-name="Yacute" unicode="&#xdd;" horiz-adv-x="1372" 
d="M741 1690l330 317h246l-397 -317h-179zM461 0l106 588l-387 928h230l299 -732l551 732h241l-715 -928l-108 -588h-217z" />
    <glyph glyph-name="Thorn" unicode="&#xde;" horiz-adv-x="1351" 
d="M879 1251q203 0 321.5 -106t118.5 -287q0 -163 -79.5 -294t-217.5 -204t-307 -73h-365l-51 -287h-217l268 1516h217l-47 -265h359zM713 469q166 0 273.5 106t107.5 265q0 107 -69 169t-191 62h-345l-106 -602h330z" />
    <glyph glyph-name="germandbls" unicode="&#xdf;" 
d="M567 -20q-93 0 -166 26l29 172q50 -18 125 -18q161 0 270 103t109 257q0 117 -78.5 184.5t-218.5 67.5l31 164q136 0 225.5 89t89.5 220q0 90 -58.5 141.5t-160.5 51.5q-117 0 -200 -70t-103 -184l-211 -1184h-209l217 1221q32 182 175 289.5t349 107.5q194 0 307 -93
t113 -249q0 -142 -80 -254t-219 -166q114 -40 178 -128.5t64 -211.5q0 -152 -76.5 -275t-209 -192t-292.5 -69z" />
    <glyph glyph-name="agrave" unicode="&#xe0;" horiz-adv-x="1374" 
d="M893 1268h-176l-283 317h244zM1098 1094h200l-192 -1094h-203l29 188q-156 -208 -426 -208q-201 0 -323 123.5t-122 328.5q0 183 81 339.5t224 249.5t314 93q144 0 238 -59.5t137 -167.5zM580 160q155 0 269.5 107t145.5 278q6 49 6 84q0 143 -80 224t-221 81
q-121 0 -219.5 -66.5t-151.5 -174t-53 -230.5q0 -140 81 -221.5t223 -81.5z" />
    <glyph glyph-name="aacute" unicode="&#xe1;" horiz-adv-x="1374" 
d="M1229 1585l-398 -317h-178l330 317h246zM1098 1094h200l-192 -1094h-203l29 188q-156 -208 -426 -208q-201 0 -323 123.5t-122 328.5q0 183 81 339.5t224 249.5t314 93q144 0 238 -59.5t137 -167.5zM580 160q155 0 269.5 107t145.5 278q6 49 6 84q0 143 -80 224t-221 81
q-121 0 -219.5 -66.5t-151.5 -174t-53 -230.5q0 -140 81 -221.5t223 -81.5z" />
    <glyph glyph-name="acircumflex" unicode="&#xe2;" horiz-adv-x="1374" 
d="M819 1473l-213 -205h-190l323 317h205l209 -317h-192zM1098 1094h200l-192 -1094h-203l29 188q-156 -208 -426 -208q-201 0 -323 123.5t-122 328.5q0 183 81 339.5t224 249.5t314 93q144 0 238 -59.5t137 -167.5zM580 160q155 0 269.5 107t145.5 278q6 49 6 84
q0 143 -80 224t-221 81q-121 0 -219.5 -66.5t-151.5 -174t-53 -230.5q0 -140 81 -221.5t223 -81.5z" />
    <glyph glyph-name="atilde" unicode="&#xe3;" horiz-adv-x="1374" 
d="M653 1409q-48 0 -82.5 -29.5t-44.5 -83.5h-120q20 117 93 192t167 75q45 0 89 -20.5t74 -45t67.5 -45t70.5 -20.5q48 0 81.5 28.5t43.5 81.5h122q-22 -121 -93.5 -193.5t-166.5 -72.5q-43 0 -87.5 21t-75 45.5t-68.5 45.5t-70 21zM1098 1094h200l-192 -1094h-203l29 188
q-156 -208 -426 -208q-201 0 -323 123.5t-122 328.5q0 183 81 339.5t224 249.5t314 93q144 0 238 -59.5t137 -167.5zM580 160q155 0 269.5 107t145.5 278q6 49 6 84q0 143 -80 224t-221 81q-121 0 -219.5 -66.5t-151.5 -174t-53 -230.5q0 -140 81 -221.5t223 -81.5z" />
    <glyph glyph-name="adieresis" unicode="&#xe4;" horiz-adv-x="1374" 
d="M575 1321q-53 0 -85.5 32.5t-32.5 84.5q0 62 41 103.5t100 41.5q54 0 86.5 -32.5t32.5 -84.5q0 -62 -41.5 -103.5t-100.5 -41.5zM1032 1321q-54 0 -86.5 32.5t-32.5 84.5q0 62 41.5 103.5t100.5 41.5q53 0 86 -32.5t33 -84.5q0 -63 -41 -104t-101 -41zM1098 1094h200
l-192 -1094h-203l29 188q-156 -208 -426 -208q-201 0 -323 123.5t-122 328.5q0 183 81 339.5t224 249.5t314 93q144 0 238 -59.5t137 -167.5zM580 160q155 0 269.5 107t145.5 278q6 49 6 84q0 143 -80 224t-221 81q-121 0 -219.5 -66.5t-151.5 -174t-53 -230.5
q0 -140 81 -221.5t223 -81.5z" />
    <glyph glyph-name="aring" unicode="&#xe5;" horiz-adv-x="1374" 
d="M782 1196q-95 0 -151 50.5t-56 135.5q0 110 74 180t187 70q95 0 149.5 -50.5t54.5 -135.5q0 -109 -73.5 -179.5t-184.5 -70.5zM827 1532q-60 0 -98.5 -43t-38.5 -103q0 -42 26.5 -67t71.5 -25q61 0 100.5 44t39.5 102q0 43 -27 67.5t-74 24.5zM1098 1094h200l-192 -1094
h-203l29 188q-156 -208 -426 -208q-201 0 -323 123.5t-122 328.5q0 183 81 339.5t224 249.5t314 93q144 0 238 -59.5t137 -167.5zM580 160q155 0 269.5 107t145.5 278q6 49 6 84q0 143 -80 224t-221 81q-121 0 -219.5 -66.5t-151.5 -174t-53 -230.5q0 -140 81 -221.5
t223 -81.5z" />
    <glyph glyph-name="ae" unicode="&#xe6;" horiz-adv-x="1925" 
d="M1815 471h-836q-2 -18 -2 -57q0 -126 65.5 -197.5t184.5 -71.5q97 0 187.5 44t162.5 120l149 -94q-93 -113 -220 -174t-267 -61q-153 0 -259 67.5t-153 188.5q-80 -122 -210 -189t-273 -67q-156 0 -248 75.5t-92 200.5q0 122 70.5 212.5t184.5 134.5t253 44
q135 0 287 -33l10 60q6 35 6 63q0 100 -63 155.5t-181 55.5q-170 0 -301 -112l-80 137q179 141 424 141q129 0 220.5 -54.5t132.5 -148.5q86 96 198 149.5t240 53.5q204 0 321 -119.5t117 -322.5q0 -107 -28 -201zM1384 948q-138 0 -236 -93.5t-142 -240.5h622q4 46 4 64
q0 129 -64 199.5t-184 70.5zM395 131q121 0 232.5 92t142.5 240l2 14q-128 25 -235 25q-135 0 -226.5 -62.5t-91.5 -163.5q0 -67 46 -106t130 -39z" />
    <glyph glyph-name="ccedilla" unicode="&#xe7;" horiz-adv-x="1105" 
d="M971 123q-169 -129 -377 -141l-84 -105h10q91 0 144 -39t53 -104q0 -93 -81.5 -149t-207.5 -56q-118 0 -190 55l55 82q49 -43 127 -43q65 0 107 27.5t42 70.5q0 32 -28 50t-78 18q-44 0 -90 -16l-23 51l123 160q-193 20 -302.5 140.5t-109.5 311.5q0 142 50.5 267.5
t138.5 215.5t213 142.5t268 52.5q208 0 350 -129l-135 -133q-88 82 -235 82q-125 0 -226 -67t-155 -175.5t-54 -232.5q0 -139 81 -219t227 -80q164 0 286 110z" />
    <glyph glyph-name="egrave" unicode="&#xe8;" horiz-adv-x="1222" 
d="M838 1268h-176l-283 317h244zM1112 471h-836q-2 -18 -2 -57q0 -126 65 -197.5t185 -71.5q97 0 187.5 44t162.5 120l150 -94q-96 -114 -226.5 -174.5t-275.5 -60.5q-214 0 -337.5 122t-123.5 330q0 186 79 341.5t223.5 248t324.5 92.5q211 0 332 -120t121 -324
q0 -98 -29 -199zM682 948q-140 0 -238.5 -93t-140.5 -241h623q4 46 4 64q0 128 -66 199t-182 71z" />
    <glyph glyph-name="eacute" unicode="&#xe9;" horiz-adv-x="1222" 
d="M1174 1585l-398 -317h-178l330 317h246zM688 1114q211 0 332 -120t121 -324q0 -98 -29 -199h-836q-2 -18 -2 -57q0 -126 65 -197.5t185 -71.5q97 0 187.5 44t162.5 120l150 -94q-96 -114 -226.5 -174.5t-275.5 -60.5q-214 0 -337.5 122t-123.5 330q0 186 79 341.5
t223.5 248t324.5 92.5zM682 948q-140 0 -238.5 -93t-140.5 -241h623q4 46 4 64q0 128 -66 199t-182 71z" />
    <glyph glyph-name="ecircumflex" unicode="&#xea;" horiz-adv-x="1222" 
d="M764 1473l-213 -205h-191l324 317h205l209 -317h-193zM1112 471h-836q-2 -18 -2 -57q0 -126 65 -197.5t185 -71.5q97 0 187.5 44t162.5 120l150 -94q-96 -114 -226.5 -174.5t-275.5 -60.5q-214 0 -337.5 122t-123.5 330q0 186 79 341.5t223.5 248t324.5 92.5
q211 0 332 -120t121 -324q0 -98 -29 -199zM682 948q-140 0 -238.5 -93t-140.5 -241h623q4 46 4 64q0 128 -66 199t-182 71z" />
    <glyph glyph-name="edieresis" unicode="&#xeb;" horiz-adv-x="1222" 
d="M520 1321q-54 0 -86.5 32.5t-32.5 84.5q0 62 41.5 103.5t100.5 41.5q53 0 86 -32.5t33 -84.5q0 -62 -41.5 -103.5t-100.5 -41.5zM977 1321q-53 0 -86 32.5t-33 84.5q0 62 41 103.5t100 41.5q53 0 86 -32.5t33 -84.5q0 -63 -40.5 -104t-100.5 -41zM1112 471h-836
q-2 -18 -2 -57q0 -126 65 -197.5t185 -71.5q97 0 187.5 44t162.5 120l150 -94q-96 -114 -226.5 -174.5t-275.5 -60.5q-214 0 -337.5 122t-123.5 330q0 186 79 341.5t223.5 248t324.5 92.5q211 0 332 -120t121 -324q0 -98 -29 -199zM682 948q-140 0 -238.5 -93t-140.5 -241
h623q4 46 4 64q0 128 -66 199t-182 71z" />
    <glyph glyph-name="igrave" unicode="&#xec;" horiz-adv-x="522" 
d="M305 1268l-282 317h243l215 -317h-176zM43 0l195 1094h208l-194 -1094h-209z" />
    <glyph glyph-name="iacute" unicode="&#xed;" horiz-adv-x="522" 
d="M242 1268l329 317h246l-397 -317h-178zM43 0l195 1094h208l-194 -1094h-209z" />
    <glyph glyph-name="icircumflex" unicode="&#xee;" horiz-adv-x="522" 
d="M532 1585l209 -317h-192l-141 205l-213 -205h-191l324 317h204zM43 0l195 1094h208l-194 -1094h-209z" />
    <glyph glyph-name="idieresis" unicode="&#xef;" horiz-adv-x="522" 
d="M164 1321q-54 0 -86.5 32.5t-32.5 84.5q0 62 41 103.5t100 41.5q54 0 86.5 -32.5t32.5 -84.5q0 -62 -41 -103.5t-100 -41.5zM621 1321q-53 0 -86 32.5t-33 84.5q0 62 41 103.5t100 41.5q53 0 86 -32.5t33 -84.5q0 -63 -40.5 -104t-100.5 -41zM43 0l195 1094h208
l-194 -1094h-209z" />
    <glyph glyph-name="eth" unicode="&#xf0;" horiz-adv-x="1320" 
d="M911 1434q324 -295 324 -674q0 -158 -50 -300.5t-137.5 -248.5t-216.5 -168.5t-278 -62.5q-227 0 -359.5 124t-132.5 334q0 133 47 254.5t128.5 211t197 143t246.5 53.5q182 0 293 -103q-69 178 -240 332l-164 -96l-106 80l166 98q-43 33 -146 96l181 109q82 -50 145 -96
l166 98l104 -86zM580 160q155 0 270.5 109t144.5 284q4 16 4 27q5 29 5 57q0 138 -82 217.5t-222 79.5q-121 0 -219.5 -66t-151.5 -173.5t-53 -231.5q0 -140 81 -221.5t223 -81.5z" />
    <glyph glyph-name="ntilde" unicode="&#xf1;" horiz-adv-x="1316" 
d="M649 1409q-48 0 -82.5 -29.5t-44.5 -83.5h-121q20 117 93.5 192t167.5 75q45 0 89 -20.5t74 -45t67.5 -45t70.5 -20.5q48 0 81 28.5t43 81.5h123q-22 -121 -93.5 -193.5t-166.5 -72.5q-43 0 -87.5 21t-75 45.5t-68.5 45.5t-70 21zM805 1114q179 0 283 -95t104 -253
q0 -24 -8 -86l-121 -680h-209l115 651q6 35 6 62q0 104 -68 162.5t-188 58.5q-136 0 -234 -78.5t-120 -202.5l-115 -653h-209l192 1094h201l-22 -152q70 84 171 128t222 44z" />
    <glyph glyph-name="ograve" unicode="&#xf2;" horiz-adv-x="1314" 
d="M700 1268l-282 317h244l215 -317h-177zM553 -20q-228 0 -360 124t-132 334q0 188 86 343t239.5 244t342.5 89q226 0 358 -125t132 -336q0 -187 -86 -341t-239 -243t-341 -89zM580 160q120 0 218.5 66.5t152 174t53.5 230.5q0 140 -81.5 221.5t-220.5 81.5
q-122 0 -221 -66t-152 -173.5t-53 -231.5q0 -140 81 -221.5t223 -81.5z" />
    <glyph glyph-name="oacute" unicode="&#xf3;" horiz-adv-x="1314" 
d="M637 1268l330 317h245l-397 -317h-178zM553 -20q-228 0 -360 124t-132 334q0 188 86 343t239.5 244t342.5 89q226 0 358 -125t132 -336q0 -187 -86 -341t-239 -243t-341 -89zM580 160q120 0 218.5 66.5t152 174t53.5 230.5q0 140 -81.5 221.5t-220.5 81.5
q-122 0 -221 -66t-152 -173.5t-53 -231.5q0 -140 81 -221.5t223 -81.5z" />
    <glyph glyph-name="ocircumflex" unicode="&#xf4;" horiz-adv-x="1314" 
d="M803 1473l-213 -205h-191l324 317h205l209 -317h-193zM729 1114q226 0 358 -125t132 -336q0 -187 -86 -341t-239 -243t-341 -89q-228 0 -360 124t-132 334q0 188 86 343t239.5 244t342.5 89zM580 160q120 0 218.5 66.5t152 174t53.5 230.5q0 140 -81.5 221.5t-220.5 81.5
q-122 0 -221 -66t-152 -173.5t-53 -231.5q0 -140 81 -221.5t223 -81.5z" />
    <glyph glyph-name="otilde" unicode="&#xf5;" horiz-adv-x="1314" 
d="M938 1276q-43 0 -87.5 21t-75 45.5t-68.5 45.5t-70 21q-48 0 -82.5 -29.5t-44.5 -83.5h-121q20 117 93 192t167 75q45 0 89 -20.5t74 -45t67.5 -45t70.5 -20.5q48 0 81.5 28.5t43.5 81.5h123q-22 -121 -93.5 -193.5t-166.5 -72.5zM553 -20q-228 0 -360 124t-132 334
q0 188 86 343t239.5 244t342.5 89q226 0 358 -125t132 -336q0 -187 -86 -341t-239 -243t-341 -89zM580 160q120 0 218.5 66.5t152 174t53.5 230.5q0 140 -81.5 221.5t-220.5 81.5q-122 0 -221 -66t-152 -173.5t-53 -231.5q0 -140 81 -221.5t223 -81.5z" />
    <glyph glyph-name="odieresis" unicode="&#xf6;" horiz-adv-x="1314" 
d="M559 1321q-53 0 -86 32.5t-33 84.5q0 62 41.5 103.5t100.5 41.5q53 0 85.5 -32.5t32.5 -84.5q0 -62 -41 -103.5t-100 -41.5zM1016 1321q-54 0 -86.5 32.5t-32.5 84.5q0 62 41 103.5t100 41.5q54 0 86.5 -32.5t32.5 -84.5q0 -63 -40.5 -104t-100.5 -41zM553 -20
q-228 0 -360 124t-132 334q0 188 86 343t239.5 244t342.5 89q226 0 358 -125t132 -336q0 -187 -86 -341t-239 -243t-341 -89zM580 160q120 0 218.5 66.5t152 174t53.5 230.5q0 140 -81.5 221.5t-220.5 81.5q-122 0 -221 -66t-152 -173.5t-53 -231.5q0 -140 81 -221.5
t223 -81.5z" />
    <glyph glyph-name="divide" unicode="&#xf7;" horiz-adv-x="1169" 
d="M647 936q-53 0 -86 33t-33 84q0 62 41.5 102.5t100.5 40.5q53 0 85.5 -32.5t32.5 -82.5q0 -63 -40.5 -104t-100.5 -41zM119 627l31 174h923l-31 -174h-923zM522 231q-52 0 -85.5 33.5t-33.5 85.5q0 60 41.5 101t100.5 41q54 0 87.5 -33t33.5 -86q0 -59 -42 -100.5
t-102 -41.5z" />
    <glyph glyph-name="oslash" unicode="&#xf8;" horiz-adv-x="1314" 
d="M1292 1006l-131 -113q58 -107 58 -240q0 -187 -86 -341t-239 -243t-341 -89q-205 0 -332 100l-115 -100l-118 108l131 113q-58 107 -58 237q0 188 86 343t239.5 244t342.5 89q203 0 330 -100l115 100zM276 463q0 -55 17 -111l604 522q-75 60 -195 60q-122 0 -221 -66
t-152 -173.5t-53 -231.5zM1004 631q0 54 -17 110l-604 -522q74 -59 197 -59q120 0 218.5 66.5t152 174t53.5 230.5z" />
    <glyph glyph-name="ugrave" unicode="&#xf9;" horiz-adv-x="1269" 
d="M678 1268l-283 317h244l215 -317h-176zM530 -20q-202 0 -319 100.5t-117 267.5q0 45 8 86l117 660h209l-117 -654q0 -5 -3 -28t-3 -35q0 -103 64 -160t178 -57q129 0 222.5 77.5t115.5 200.5l114 656h209l-118 -676q-34 -199 -187.5 -318.5t-372.5 -119.5z" />
    <glyph glyph-name="uacute" unicode="&#xfa;" horiz-adv-x="1269" 
d="M614 1268l330 317h246l-397 -317h-179zM530 -20q-202 0 -319 100.5t-117 267.5q0 45 8 86l117 660h209l-117 -654q0 -5 -3 -28t-3 -35q0 -103 64 -160t178 -57q129 0 222.5 77.5t115.5 200.5l114 656h209l-118 -676q-34 -199 -187.5 -318.5t-372.5 -119.5z" />
    <glyph glyph-name="ucircumflex" unicode="&#xfb;" horiz-adv-x="1269" 
d="M780 1473l-213 -205h-190l323 317h205l209 -317h-192zM999 1094h209l-118 -676q-34 -199 -187.5 -318.5t-372.5 -119.5q-202 0 -319 100.5t-117 267.5q0 45 8 86l117 660h209l-117 -654q0 -5 -3 -28t-3 -35q0 -103 64 -160t178 -57q129 0 222.5 77.5t115.5 200.5z" />
    <glyph glyph-name="udieresis" unicode="&#xfc;" horiz-adv-x="1269" 
d="M537 1321q-53 0 -86 32.5t-33 84.5q0 62 41 103.5t100 41.5q53 0 86 -32.5t33 -84.5q0 -62 -41 -103.5t-100 -41.5zM993 1321q-53 0 -86 32.5t-33 84.5q0 62 41.5 103.5t100.5 41.5q54 0 86.5 -32.5t32.5 -84.5q0 -63 -41 -104t-101 -41zM530 -20q-202 0 -319 100.5
t-117 267.5q0 45 8 86l117 660h209l-117 -654q0 -5 -3 -28t-3 -35q0 -103 64 -160t178 -57q129 0 222.5 77.5t115.5 200.5l114 656h209l-118 -676q-34 -199 -187.5 -318.5t-372.5 -119.5z" />
    <glyph glyph-name="yacute" unicode="&#xfd;" horiz-adv-x="1284" 
d="M1186 1585l-398 -317h-178l330 317h246zM999 1094h209l-178 -1012q-44 -253 -221 -403t-428 -150q-269 0 -422 125l68 156q140 -101 364 -101q162 0 282.5 109.5t151.5 283.5l6 37q-138 -159 -370 -159q-171 0 -270 94t-99 250q0 46 8 90l119 680h209l-113 -652
q-6 -44 -6 -65q0 -103 63 -160t177 -57q128 0 220.5 76t115.5 200v4z" />
    <glyph glyph-name="thorn" unicode="&#xfe;" horiz-adv-x="1372" 
d="M834 1114q201 0 322.5 -124t121.5 -331q0 -183 -80.5 -338.5t-223.5 -248t-315 -92.5q-280 0 -374 225l-115 -656h-209l363 2048h206l-120 -688q158 205 424 205zM639 160q121 0 219.5 66.5t151.5 174t53 230.5q0 140 -80.5 221.5t-222.5 81.5q-153 0 -268 -106
t-146 -275v-4l-2 -12q-6 -41 -6 -72q0 -143 80 -224t221 -81z" />
    <glyph glyph-name="ydieresis" unicode="&#xff;" horiz-adv-x="1284" 
d="M532 1321q-53 0 -85.5 32.5t-32.5 84.5q0 62 41 103.5t100 41.5q53 0 86 -32.5t33 -84.5q0 -62 -41.5 -103.5t-100.5 -41.5zM989 1321q-53 0 -86 32.5t-33 84.5q0 62 41.5 103.5t100.5 41.5q53 0 85.5 -32.5t32.5 -84.5q0 -63 -40.5 -104t-100.5 -41zM999 1094h209
l-178 -1012q-44 -253 -221 -403t-428 -150q-269 0 -422 125l68 156q140 -101 364 -101q162 0 282.5 109.5t151.5 283.5l6 37q-138 -159 -370 -159q-171 0 -270 94t-99 250q0 46 8 90l119 680h209l-113 -652q-6 -44 -6 -65q0 -103 63 -160t177 -57q128 0 220.5 76t115.5 200
v4z" />
    <glyph glyph-name="Amacron" unicode="&#x100;" horiz-adv-x="1632" 
d="M1376 1890l-28 -166h-680l30 166h678zM963 1536q259 0 410 -129t151 -344q0 -39 -11 -111l-167 -952h-218l86 481h-849l-84 -481h-218l170 967q46 260 245.5 414.5t484.5 154.5zM397 664h848l51 284q11 61 11 90q0 147 -97 232.5t-264 85.5q-190 0 -328 -112t-169 -290z
" />
    <glyph glyph-name="amacron" unicode="&#x101;" horiz-adv-x="1374" 
d="M1157 1468l-29 -165h-679l30 165h678zM1098 1094h200l-192 -1094h-203l29 188q-156 -208 -426 -208q-201 0 -323 123.5t-122 328.5q0 183 81 339.5t224 249.5t314 93q144 0 238 -59.5t137 -167.5zM580 160q155 0 269.5 107t145.5 278q6 49 6 84q0 143 -80 224t-221 81
q-121 0 -219.5 -66.5t-151.5 -174t-53 -230.5q0 -140 81 -221.5t223 -81.5z" />
    <glyph glyph-name="Abreve" unicode="&#x102;" horiz-adv-x="1632" 
d="M1012 1671q-142 0 -224.5 73t-82.5 195q0 33 6 68h159q-6 -30 -6 -55q0 -74 41 -116t115 -42q88 0 149 59.5t76 153.5h160q-26 -155 -132.5 -245.5t-260.5 -90.5zM963 1536q259 0 410 -129t151 -344q0 -39 -11 -111l-167 -952h-218l86 481h-849l-84 -481h-218l170 967
q46 260 245.5 414.5t484.5 154.5zM397 664h848l51 284q11 61 11 90q0 147 -97 232.5t-264 85.5q-190 0 -328 -112t-169 -290z" />
    <glyph glyph-name="abreve" unicode="&#x103;" horiz-adv-x="1374" 
d="M793 1249q-142 0 -225 73.5t-83 195.5q0 27 7 67h159q-6 -30 -6 -55q0 -74 41 -116t115 -42q88 0 149 59.5t76 153.5h160q-26 -155 -132.5 -245.5t-260.5 -90.5zM1098 1094h200l-192 -1094h-203l29 188q-156 -208 -426 -208q-201 0 -323 123.5t-122 328.5q0 183 81 339.5
t224 249.5t314 93q144 0 238 -59.5t137 -167.5zM580 160q155 0 269.5 107t145.5 278q6 49 6 84q0 143 -80 224t-221 81q-121 0 -219.5 -66.5t-151.5 -174t-53 -230.5q0 -140 81 -221.5t223 -81.5z" />
    <glyph glyph-name="Aogonek" unicode="&#x104;" horiz-adv-x="1632" 
d="M963 1536q259 0 410 -129t151 -344q0 -39 -11 -111l-167 -952q-256 -147 -256 -279q0 -31 19 -50t52 -19q61 0 117 43v-109q-82 -57 -186 -57q-76 0 -120 39t-44 104q0 160 250 328h-50l86 481h-849l-84 -481h-218l170 967q46 260 245.5 414.5t484.5 154.5zM397 664h848
l51 284q11 61 11 90q0 147 -97 232.5t-264 85.5q-190 0 -328 -112t-169 -290z" />
    <glyph glyph-name="aogonek" unicode="&#x105;" horiz-adv-x="1374" 
d="M1106 0q-256 -147 -256 -279q0 -31 19.5 -50t52.5 -19q60 0 116 43v-109q-82 -57 -186 -57q-76 0 -120 39t-44 104q0 160 250 328h-35l29 188q-156 -208 -426 -208q-201 0 -323 123.5t-122 328.5q0 183 81 339.5t224 249.5t314 93q144 0 238 -59.5t137 -167.5l43 207h200
zM580 160q155 0 269.5 107t145.5 278q6 49 6 84q0 143 -80 224t-221 81q-121 0 -219.5 -66.5t-151.5 -174t-53 -230.5q0 -140 81 -221.5t223 -81.5z" />
    <glyph glyph-name="Cacute" unicode="&#x106;" horiz-adv-x="1558" 
d="M911 1690l330 317h246l-397 -317h-179zM776 -20q-311 0 -491.5 169t-180.5 455q0 195 70 367.5t191 296.5t293 196t368 72q356 0 549 -250l-154 -129q-147 199 -407 199q-120 0 -227.5 -38.5t-190 -107.5t-143 -160.5t-92 -201.5t-31.5 -227q0 -213 122.5 -337
t344.5 -124q145 0 283.5 71t234.5 189l131 -146q-131 -143 -302 -218.5t-368 -75.5z" />
    <glyph glyph-name="cacute" unicode="&#x107;" horiz-adv-x="1105" 
d="M616 1268l330 317h246l-397 -317h-179zM549 -20q-226 0 -357 123t-131 333q0 142 50.5 267.5t138.5 215.5t213 142.5t268 52.5q208 0 350 -129l-135 -133q-88 82 -235 82q-125 0 -226 -67t-155 -175.5t-54 -232.5q0 -139 81 -219t227 -80q164 0 286 110l101 -147
q-186 -143 -422 -143z" />
    <glyph glyph-name="Cdotaccent" unicode="&#x10a;" horiz-adv-x="1558" 
d="M1063 1743q-54 0 -86.5 33t-32.5 86q0 61 40 102t101 41q53 0 86 -33.5t33 -85.5q0 -61 -40 -102t-101 -41zM776 -20q-311 0 -491.5 169t-180.5 455q0 195 70 367.5t191 296.5t293 196t368 72q356 0 549 -250l-154 -129q-147 199 -407 199q-120 0 -227.5 -38.5
t-190 -107.5t-143 -160.5t-92 -201.5t-31.5 -227q0 -213 122.5 -337t344.5 -124q145 0 283.5 71t234.5 189l131 -146q-131 -143 -302 -218.5t-368 -75.5z" />
    <glyph glyph-name="cdotaccent" unicode="&#x10b;" horiz-adv-x="1105" 
d="M768 1321q-54 0 -86.5 33t-32.5 86q0 60 40.5 101.5t101.5 41.5q52 0 85 -33t33 -86q0 -61 -40 -102t-101 -41zM549 -20q-226 0 -357 123t-131 333q0 142 50.5 267.5t138.5 215.5t213 142.5t268 52.5q208 0 350 -129l-135 -133q-88 82 -235 82q-125 0 -226 -67
t-155 -175.5t-54 -232.5q0 -139 81 -219t227 -80q164 0 286 110l101 -147q-186 -143 -422 -143z" />
    <glyph glyph-name="Ccaron" unicode="&#x10c;" horiz-adv-x="1558" 
d="M938 1690l-213 317h197l137 -201l209 201h194l-321 -317h-203zM797 160q145 0 283.5 71t234.5 189l131 -146q-131 -143 -302 -218.5t-368 -75.5q-311 0 -491.5 169t-180.5 455q0 195 70 367.5t191 296.5t293 196t368 72q356 0 549 -250l-154 -129q-147 199 -407 199
q-120 0 -227.5 -38.5t-190 -107.5t-143 -160.5t-92 -201.5t-31.5 -227q0 -213 122.5 -337t344.5 -124z" />
    <glyph glyph-name="ccaron" unicode="&#x10d;" horiz-adv-x="1105" 
d="M643 1268l-213 317h197l137 -201l209 201h194l-321 -317h-203zM711 934q-125 0 -226 -67t-155 -175.5t-54 -232.5q0 -139 81 -219t227 -80q164 0 286 110l101 -147q-186 -143 -422 -143q-226 0 -357 123t-131 333q0 142 50.5 267.5t138.5 215.5t213 142.5t268 52.5
q208 0 350 -129l-135 -133q-88 82 -235 82z" />
    <glyph glyph-name="Dcaron" unicode="&#x10e;" horiz-adv-x="1585" 
d="M754 1690l-213 317h196l137 -201l209 201h195l-322 -317h-202zM895 1516q290 0 457.5 -164.5t167.5 -442.5q0 -152 -42 -291.5t-121 -251t-186.5 -194t-244 -127.5t-287.5 -45h-557l268 1516h545zM653 180q114 0 216.5 38.5t179.5 106t133 156.5t85 193.5t29 214.5
q0 208 -115 327t-325 119h-321l-203 -1155h321z" />
    <glyph glyph-name="dcaron" unicode="&#x10f;" horiz-adv-x="1398" 
d="M1053 889l125 708h208l-282 -1597h-203l29 186q-156 -206 -426 -206q-201 0 -323 123.5t-122 328.5q0 137 48 262t130 217.5t198 147.5t245 55q142 0 236 -59.5t137 -165.5zM1593 1597h193l-209 -383h-162zM578 160q156 0 270 107t145 278q6 47 6 84q0 143 -80 224
t-221 81q-121 0 -219.5 -66.5t-151.5 -174t-53 -230.5q0 -140 81 -221.5t223 -81.5z" />
    <glyph glyph-name="Dcroat" unicode="&#x110;" horiz-adv-x="1585" 
d="M895 1516q290 0 457.5 -164.5t167.5 -442.5q0 -152 -42 -291.5t-121 -251t-186.5 -194t-244 -127.5t-287.5 -45h-557l121 684h-166l26 152h166l121 680h545zM653 180q114 0 216.5 38.5t179.5 106t133 156.5t85 193.5t29 214.5q0 208 -115 327t-325 119h-321l-89 -499h379
l-26 -152h-379l-88 -504h321z" />
    <glyph glyph-name="dcroat" unicode="&#x111;" horiz-adv-x="1370" 
d="M1518 1415l-27 -151h-164l-223 -1264h-203l29 186q-156 -206 -426 -206q-201 0 -323 123.5t-122 328.5q0 137 48 262t130 217.5t198 147.5t245 55q142 0 236 -59.5t137 -165.5l65 375h-389l27 151h389l33 182h208l-32 -182h164zM578 160q156 0 270 107t145 278q6 47 6 84
q0 143 -80 224t-221 81q-121 0 -219.5 -66.5t-151.5 -174t-53 -230.5q0 -140 81 -221.5t223 -81.5z" />
    <glyph glyph-name="Emacron" unicode="&#x112;" horiz-adv-x="1300" 
d="M1241 1890l-29 -166h-680l31 166h678zM1294 1335h-759l-84 -475h702l-33 -180h-700l-88 -500h778l-33 -180h-995l268 1516h977z" />
    <glyph glyph-name="emacron" unicode="&#x113;" horiz-adv-x="1222" 
d="M1102 1468l-29 -165h-680l31 165h678zM1112 471h-836q-2 -18 -2 -57q0 -126 65 -197.5t185 -71.5q97 0 187.5 44t162.5 120l150 -94q-96 -114 -226.5 -174.5t-275.5 -60.5q-214 0 -337.5 122t-123.5 330q0 186 79 341.5t223.5 248t324.5 92.5q211 0 332 -120t121 -324
q0 -98 -29 -199zM682 948q-140 0 -238.5 -93t-140.5 -241h623q4 46 4 64q0 128 -66 199t-182 71z" />
    <glyph glyph-name="Edotaccent" unicode="&#x116;" horiz-adv-x="1300" 
d="M889 1743q-54 0 -86.5 33t-32.5 86q0 61 40 102t101 41q53 0 86 -33.5t33 -85.5q0 -61 -40 -102t-101 -41zM1294 1335h-759l-84 -475h702l-33 -180h-700l-88 -500h778l-33 -180h-995l268 1516h977z" />
    <glyph glyph-name="edotaccent" unicode="&#x117;" horiz-adv-x="1222" 
d="M750 1321q-54 0 -86.5 33t-32.5 86q0 61 40 102t101 41q52 0 85.5 -33.5t33.5 -85.5q0 -61 -40 -102t-101 -41zM1112 471h-836q-2 -18 -2 -57q0 -126 65 -197.5t185 -71.5q97 0 187.5 44t162.5 120l150 -94q-96 -114 -226.5 -174.5t-275.5 -60.5q-214 0 -337.5 122
t-123.5 330q0 186 79 341.5t223.5 248t324.5 92.5q211 0 332 -120t121 -324q0 -98 -29 -199zM682 948q-140 0 -238.5 -93t-140.5 -241h623q4 46 4 64q0 128 -66 199t-182 71z" />
    <glyph glyph-name="Eogonek" unicode="&#x118;" horiz-adv-x="1300" 
d="M1294 1335h-759l-84 -475h702l-33 -180h-700l-88 -500h778l-33 -180q-256 -147 -256 -279q0 -31 19.5 -50t52.5 -19q61 0 117 43v-109q-82 -57 -187 -57q-76 0 -120 39t-44 104q0 160 250 328h-827l268 1516h977z" />
    <glyph glyph-name="eogonek" unicode="&#x119;" horiz-adv-x="1222" 
d="M1112 471h-836q-2 -18 -2 -57q0 -126 65 -197.5t185 -71.5q97 0 187.5 44t162.5 120l150 -94q-138 -163 -340 -215q-256 -147 -256 -279q0 -31 19.5 -50t52.5 -19q60 0 116 43v-109q-82 -57 -186 -57q-76 0 -120 39t-44 104q0 154 221 308q-199 10 -312.5 131.5
t-113.5 320.5q0 186 79 341.5t223.5 248t324.5 92.5q211 0 332 -120t121 -324q0 -98 -29 -199zM682 948q-140 0 -238.5 -93t-140.5 -241h623q4 46 4 64q0 128 -66 199t-182 71z" />
    <glyph glyph-name="Ecaron" unicode="&#x11a;" horiz-adv-x="1300" 
d="M764 1690l-213 317h197l137 -201l209 201h194l-321 -317h-203zM1294 1335h-759l-84 -475h702l-33 -180h-700l-88 -500h778l-33 -180h-995l268 1516h977z" />
    <glyph glyph-name="ecaron" unicode="&#x11b;" horiz-adv-x="1222" 
d="M625 1268l-213 317h196l137 -201l209 201h195l-322 -317h-202zM688 1114q211 0 332 -120t121 -324q0 -98 -29 -199h-836q-2 -18 -2 -57q0 -126 65 -197.5t185 -71.5q97 0 187.5 44t162.5 120l150 -94q-96 -114 -226.5 -174.5t-275.5 -60.5q-214 0 -337.5 122t-123.5 330
q0 186 79 341.5t223.5 248t324.5 92.5zM682 948q-140 0 -238.5 -93t-140.5 -241h623q4 46 4 64q0 128 -66 199t-182 71z" />
    <glyph glyph-name="Gbreve" unicode="&#x11e;" horiz-adv-x="1650" 
d="M1051 1671q-142 0 -225 73t-83 195q0 28 7 68h159q-6 -30 -6 -55q0 -74 41 -116t115 -42q88 0 149 59.5t76 153.5h160q-26 -155 -132.5 -245.5t-260.5 -90.5zM1616 827q0 -29 -10 -84q-12 -171 -85 -315t-187.5 -241.5t-264.5 -152t-315 -54.5q-299 0 -473.5 168
t-174.5 452q0 194 67.5 366.5t185.5 298t286 198.5t361 73q309 0 499 -166l-157 -129q-132 115 -359 115q-141 0 -265.5 -62t-210 -165t-134.5 -238t-49 -279q0 -208 118 -330t326 -122q225 0 397 136t201 351h-450l32 180h662z" />
    <glyph glyph-name="gbreve" unicode="&#x11f;" horiz-adv-x="1374" 
d="M799 1249q-142 0 -224.5 73.5t-82.5 195.5q0 33 6 67h159q-6 -30 -6 -55q0 -74 41 -116t115 -42q88 0 149 59.5t76 153.5h160q-26 -155 -132.5 -245.5t-260.5 -90.5zM1100 1094h200l-178 -1012q-43 -252 -236 -402.5t-470 -150.5q-299 0 -467 145l65 156
q153 -121 402 -121q193 0 332 109.5t170 283.5l14 82q-157 -204 -426 -204q-200 0 -321.5 123.5t-121.5 328.5q0 137 47.5 262t129.5 217.5t197.5 147.5t244.5 55q144 0 238 -60t137 -167zM580 160q156 0 270 107t145 278l4 24q5 50 5 60q0 142 -80.5 223.5t-221.5 81.5
q-121 0 -220 -66.5t-152.5 -174t-53.5 -230.5q0 -140 81 -221.5t223 -81.5z" />
    <glyph glyph-name="Gdotaccent" unicode="&#x120;" horiz-adv-x="1650" 
d="M1063 1743q-54 0 -86.5 33t-32.5 86q0 61 40 102t101 41q53 0 86 -33.5t33 -85.5q0 -61 -40 -102t-101 -41zM1616 827q0 -29 -10 -84q-12 -171 -85 -315t-187.5 -241.5t-264.5 -152t-315 -54.5q-299 0 -473.5 168t-174.5 452q0 194 67.5 366.5t185.5 298t286 198.5
t361 73q309 0 499 -166l-157 -129q-132 115 -359 115q-141 0 -265.5 -62t-210 -165t-134.5 -238t-49 -279q0 -208 118 -330t326 -122q225 0 397 136t201 351h-450l32 180h662z" />
    <glyph glyph-name="gdotaccent" unicode="&#x121;" horiz-adv-x="1374" 
d="M811 1321q-54 0 -86.5 33t-32.5 86q0 60 40.5 101.5t101.5 41.5q52 0 85 -33t33 -86q0 -61 -40 -102t-101 -41zM1100 1094h200l-178 -1012q-43 -252 -236 -402.5t-470 -150.5q-299 0 -467 145l65 156q153 -121 402 -121q193 0 332 109.5t170 283.5l14 82
q-157 -204 -426 -204q-200 0 -321.5 123.5t-121.5 328.5q0 137 47.5 262t129.5 217.5t197.5 147.5t244.5 55q144 0 238 -60t137 -167zM580 160q156 0 270 107t145 278l4 24q5 50 5 60q0 142 -80.5 223.5t-221.5 81.5q-121 0 -220 -66.5t-152.5 -174t-53.5 -230.5
q0 -140 81 -221.5t223 -81.5z" />
    <glyph glyph-name="Gcommaaccent" unicode="&#x122;" horiz-adv-x="1650" 
d="M1616 827q0 -29 -10 -84q-12 -171 -85 -315t-187.5 -241.5t-264.5 -152t-315 -54.5q-299 0 -473.5 168t-174.5 452q0 194 67.5 366.5t185.5 298t286 198.5t361 73q309 0 499 -166l-157 -129q-132 115 -359 115q-141 0 -265.5 -62t-210 -165t-134.5 -238t-49 -279
q0 -208 118 -330t326 -122q225 0 397 136t201 351h-450l32 180h662zM461 -451l157 345h195l-190 -345h-162z" />
    <glyph glyph-name="gcommaaccent" unicode="&#x123;" horiz-adv-x="1374" 
d="M1028 1597l-178 -383h-195l209 383h164zM1100 1094h200l-178 -1012q-43 -252 -236 -402.5t-470 -150.5q-299 0 -467 145l65 156q153 -121 402 -121q193 0 332 109.5t170 283.5l14 82q-157 -204 -426 -204q-200 0 -321.5 123.5t-121.5 328.5q0 137 47.5 262t129.5 217.5
t197.5 147.5t244.5 55q144 0 238 -60t137 -167zM580 160q156 0 270 107t145 278l4 24q5 50 5 60q0 142 -80.5 223.5t-221.5 81.5q-121 0 -220 -66.5t-152.5 -174t-53.5 -230.5q0 -140 81 -221.5t223 -81.5z" />
    <glyph glyph-name="Hbar" unicode="&#x126;" horiz-adv-x="1701" 
d="M1784 1274l-27 -152h-164l-198 -1122h-219l120 680h-876l-121 -680h-217l199 1122h-162l26 152h162l43 242h217l-43 -242h877l43 242h219l-43 -242h164zM1329 862l45 260h-876l-45 -260h876z" />
    <glyph glyph-name="hbar" unicode="&#x127;" horiz-adv-x="1316" 
d="M805 1114q179 0 283 -95t104 -253q0 -24 -8 -86l-121 -680h-209l115 651q6 35 6 62q0 104 -68 162.5t-188 58.5q-136 0 -234 -78.5t-120 -202.5l-115 -653h-209l221 1264h-164l27 151h164l33 182h208l-32 -182h389l-27 -151h-389l-55 -316q146 166 389 166z" />
    <glyph glyph-name="Imacron" unicode="&#x12a;" horiz-adv-x="608" 
d="M154 1724l30 166h678l-28 -166h-680zM82 0l268 1516h217l-268 -1516h-217z" />
    <glyph glyph-name="imacron" unicode="&#x12b;" horiz-adv-x="522" 
d="M37 1303l31 165h677l-28 -165h-680zM43 0l195 1094h208l-194 -1094h-209z" />
    <glyph glyph-name="Iogonek" unicode="&#x12e;" horiz-adv-x="608" 
d="M299 0q-256 -147 -256 -279q0 -31 19.5 -50t52.5 -19q60 0 116 43v-109q-82 -57 -186 -57q-76 0 -120 39t-44 104q0 160 250 328h-49l268 1516h217z" />
    <glyph glyph-name="iogonek" unicode="&#x12f;" horiz-adv-x="522" 
d="M416 1583q52 0 85.5 -33.5t33.5 -85.5q0 -60 -40.5 -101.5t-101.5 -41.5q-54 0 -86.5 33t-32.5 86q0 60 40.5 101.5t101.5 41.5zM43 0l195 1094h208l-194 -1094q-256 -147 -256 -279q0 -31 19.5 -50t52.5 -19q60 0 116 43v-109q-82 -57 -186 -57q-76 0 -120 39t-44 104
q0 160 250 328h-41z" />
    <glyph glyph-name="Idotaccent" unicode="&#x130;" horiz-adv-x="608" 
d="M510 1743q-54 0 -86.5 33t-32.5 86q0 61 40 102t101 41q52 0 85.5 -33.5t33.5 -85.5q0 -61 -40 -102t-101 -41zM82 0l268 1516h217l-268 -1516h-217z" />
    <glyph glyph-name="dotlessi" unicode="&#x131;" horiz-adv-x="522" 
d="M43 0l195 1094h208l-194 -1094h-209z" />
    <glyph glyph-name="Kcommaaccent" unicode="&#x136;" horiz-adv-x="1413" 
d="M1548 1516l-717 -742l467 -774h-256l-403 684h-219l-121 -684h-217l268 1516h217l-114 -650h206l621 650h268zM373 -451l157 345h195l-190 -345h-162z" />
    <glyph glyph-name="kcommaaccent" unicode="&#x137;" horiz-adv-x="1196" 
d="M1264 1094l-578 -523l404 -571h-254l-330 487h-170l-86 -487h-209l283 1597h208l-165 -935h153l471 432h273zM242 -451l157 345h195l-191 -345h-161z" />
    <glyph glyph-name="Lacute" unicode="&#x139;" horiz-adv-x="1124" 
d="M934 2007l-397 -317h-179l330 317h246zM332 180h694l-33 -180h-911l268 1516h217z" />
    <glyph glyph-name="lacute" unicode="&#x13a;" horiz-adv-x="526" 
d="M332 1772l330 317h245l-397 -317h-178zM45 0l283 1597h209l-283 -1597h-209z" />
    <glyph glyph-name="Lcommaaccent" unicode="&#x13b;" horiz-adv-x="1124" 
d="M332 180h694l-33 -180h-911l268 1516h217zM221 -451l158 345h194l-190 -345h-162z" />
    <glyph glyph-name="lcommaaccent" unicode="&#x13c;" horiz-adv-x="526" 
d="M45 0l283 1597h209l-283 -1597h-209zM-119 -451l158 345h194l-190 -345h-162z" />
    <glyph glyph-name="Lcaron" unicode="&#x13d;" horiz-adv-x="1118" 
d="M567 1516l-235 -1336h694l-33 -180h-911l268 1516h217zM1196 1516l-223 -424h-191l193 424h221z" />
    <glyph glyph-name="lcaron" unicode="&#x13e;" horiz-adv-x="548" 
d="M45 0l283 1597h209l-283 -1597h-209zM565 1214l178 383h195l-209 -383h-164z" />
    <glyph glyph-name="Lslash" unicode="&#x141;" horiz-adv-x="1124" 
d="M332 180h694l-33 -180h-911l113 639l-158 -98l26 164l160 98l127 713h217l-104 -586l242 151l-31 -166l-240 -149z" />
    <glyph glyph-name="lslash" unicode="&#x142;" horiz-adv-x="526" 
d="M625 1081l-31 -166l-201 -124l-139 -791h-209l119 670l-207 -129l27 164l209 129l135 763h209l-115 -643z" />
    <glyph glyph-name="Nacute" unicode="&#x143;" horiz-adv-x="1746" 
d="M930 1690l330 317h245l-397 -317h-178zM82 0l268 1516h133l807 -1143l199 1143h217l-268 -1516h-133l-805 1143l-201 -1143h-217z" />
    <glyph glyph-name="nacute" unicode="&#x144;" horiz-adv-x="1316" 
d="M1225 1585l-398 -317h-178l330 317h246zM805 1114q179 0 283 -95t104 -253q0 -24 -8 -86l-121 -680h-209l115 651q6 35 6 62q0 104 -68 162.5t-188 58.5q-136 0 -234 -78.5t-120 -202.5l-115 -653h-209l192 1094h201l-22 -152q70 84 171 128t222 44z" />
    <glyph glyph-name="Ncommaaccent" unicode="&#x145;" horiz-adv-x="1746" 
d="M82 0l268 1516h133l807 -1143l199 1143h217l-268 -1516h-133l-805 1143l-201 -1143h-217zM494 -451l157 345h195l-191 -345h-161z" />
    <glyph glyph-name="ncommaaccent" unicode="&#x146;" horiz-adv-x="1316" 
d="M805 1114q179 0 283 -95t104 -253q0 -24 -8 -86l-121 -680h-209l115 651q6 35 6 62q0 104 -68 162.5t-188 58.5q-136 0 -234 -78.5t-120 -202.5l-115 -653h-209l192 1094h201l-22 -152q70 84 171 128t222 44zM285 -451l157 345h195l-191 -345h-161z" />
    <glyph glyph-name="Ncaron" unicode="&#x147;" horiz-adv-x="1746" 
d="M956 1690l-213 317h197l137 -201l209 201h195l-322 -317h-203zM1489 1516h217l-268 -1516h-133l-805 1143l-201 -1143h-217l268 1516h133l807 -1143z" />
    <glyph glyph-name="ncaron" unicode="&#x148;" horiz-adv-x="1316" 
d="M676 1268l-213 317h196l138 -201l209 201h194l-321 -317h-203zM805 1114q179 0 283 -95t104 -253q0 -24 -8 -86l-121 -680h-209l115 651q6 35 6 62q0 104 -68 162.5t-188 58.5q-136 0 -234 -78.5t-120 -202.5l-115 -653h-209l192 1094h201l-22 -152q70 84 171 128t222 44
z" />
    <glyph glyph-name="Eng" unicode="&#x14a;" horiz-adv-x="1746" 
d="M1489 1516h217l-268 -1516l-25 -143q-28 -153 -140 -241.5t-276 -88.5q-90 0 -161 32t-113 89l74 135q71 -74 184 -74q88 0 148.5 56.5t74.5 148.5l33 182l-737 1047l-201 -1143h-217l268 1516h133l807 -1143z" />
    <glyph glyph-name="eng" unicode="&#x14b;" horiz-adv-x="1314" 
d="M805 1114q179 0 283 -95t104 -253q0 -24 -8 -86l-148 -827q-26 -150 -126.5 -237t-243.5 -87q-120 0 -199 37l33 164q46 -21 114 -21q84 0 146.5 55.5t79.5 149.5l129 737q6 35 6 62q0 104 -68 162.5t-188 58.5q-136 0 -234 -78.5t-120 -202.5l-115 -653h-209l192 1094
h201l-22 -152q70 84 171 128t222 44z" />
    <glyph glyph-name="Omacron" unicode="&#x14c;" horiz-adv-x="1744" 
d="M723 1724l31 166h678l-29 -166h-680zM768 -20q-308 0 -486 168t-178 454q0 194 69.5 366.5t190 297.5t291.5 197.5t365 72.5q306 0 482.5 -169t176.5 -456q0 -193 -69 -365t-188.5 -296.5t-289.5 -197t-364 -72.5zM786 160q144 0 270 61t213 162.5t137 236.5t50 281
q0 210 -121.5 332.5t-333.5 122.5q-144 0 -271 -60.5t-214.5 -162t-137.5 -236.5t-50 -281q0 -210 122 -333t336 -123z" />
    <glyph glyph-name="omacron" unicode="&#x14d;" horiz-adv-x="1314" 
d="M432 1303l31 165h678l-29 -165h-680zM553 -20q-228 0 -360 124t-132 334q0 188 86 343t239.5 244t342.5 89q226 0 358 -125t132 -336q0 -187 -86 -341t-239 -243t-341 -89zM580 160q120 0 218.5 66.5t152 174t53.5 230.5q0 140 -81.5 221.5t-220.5 81.5q-122 0 -221 -66
t-152 -173.5t-53 -231.5q0 -140 81 -221.5t223 -81.5z" />
    <glyph glyph-name="Ohungarumlaut" unicode="&#x150;" horiz-adv-x="1744" 
d="M778 1690l275 317h243l-342 -317h-176zM1130 1690l273 317h244l-342 -317h-175zM768 -20q-308 0 -486 168t-178 454q0 194 69.5 366.5t190 297.5t291.5 197.5t365 72.5q306 0 482.5 -169t176.5 -456q0 -193 -69 -365t-188.5 -296.5t-289.5 -197t-364 -72.5zM786 160
q144 0 270 61t213 162.5t137 236.5t50 281q0 210 -121.5 332.5t-333.5 122.5q-144 0 -271 -60.5t-214.5 -162t-137.5 -236.5t-50 -281q0 -210 122 -333t336 -123z" />
    <glyph glyph-name="ohungarumlaut" unicode="&#x151;" horiz-adv-x="1314" 
d="M487 1268l275 317h244l-342 -317h-177zM840 1268l272 317h244l-342 -317h-174zM553 -20q-228 0 -360 124t-132 334q0 188 86 343t239.5 244t342.5 89q226 0 358 -125t132 -336q0 -187 -86 -341t-239 -243t-341 -89zM580 160q120 0 218.5 66.5t152 174t53.5 230.5
q0 140 -81.5 221.5t-220.5 81.5q-122 0 -221 -66t-152 -173.5t-53 -231.5q0 -140 81 -221.5t223 -81.5z" />
    <glyph glyph-name="OE" unicode="&#x152;" horiz-adv-x="2537" 
d="M2529 1335h-760l-83 -475h704l-33 -180h-702l-88 -500h778l-33 -180h-995l39 219q-118 -115 -270.5 -177t-329.5 -62q-301 0 -476.5 168t-175.5 452q0 155 43 297.5t124.5 258t191 201t249.5 132.5t294 47q183 0 320 -67t216 -191l43 238h977zM788 160q144 0 270 61
t212.5 163t136 236.5t49.5 280.5q0 210 -121 332.5t-334 122.5q-144 0 -270 -60.5t-213.5 -162t-137.5 -236.5t-50 -281q0 -210 122 -333t336 -123z" />
    <glyph glyph-name="oe" unicode="&#x153;" horiz-adv-x="2148" 
d="M2036 471h-836q-2 -18 -2 -57q0 -126 65.5 -197.5t184.5 -71.5q99 0 189 44t161 120l152 -94q-95 -114 -222 -174.5t-268 -60.5q-152 0 -257 72t-148 200q-87 -127 -220.5 -199.5t-295.5 -72.5q-220 0 -349 124t-129 332q0 140 49.5 265.5t135 216t208 143.5t261.5 53
q161 0 273.5 -71.5t158.5 -200.5q82 126 206 199t273 73q204 0 321 -119.5t117 -322.5q0 -101 -28 -201zM1608 948q-138 0 -237.5 -93.5t-143.5 -240.5h622q4 46 4 64q0 130 -63 200t-182 70zM582 160q120 0 218 66t151 173.5t53 231.5q0 140 -80.5 221.5t-221.5 81.5
q-121 0 -220 -66t-152.5 -173.5t-53.5 -231.5q0 -140 81 -221.5t225 -81.5z" />
    <glyph glyph-name="Racute" unicode="&#x154;" horiz-adv-x="1458" 
d="M1313 2007l-398 -317h-178l330 317h246zM1386 1128q0 -181 -105.5 -313.5t-279.5 -189.5l302 -625h-250l-273 590h-14h-363l-104 -590h-217l268 1516h588q208 0 328 -105t120 -283zM535 1335l-99 -565h334q178 0 284.5 96t106.5 242q0 106 -70.5 166.5t-197.5 60.5h-358z
" />
    <glyph glyph-name="racute" unicode="&#x155;" horiz-adv-x="794" 
d="M420 1268l330 317h245l-397 -317h-178zM41 0l192 1094h203l-30 -172q144 192 450 192l-35 -192q-185 0 -311.5 -88.5t-153.5 -229.5l-106 -604h-209z" />
    <glyph glyph-name="Rcommaaccent" unicode="&#x156;" horiz-adv-x="1458" 
d="M1386 1128q0 -181 -105.5 -313.5t-279.5 -189.5l302 -625h-250l-273 590h-14h-363l-104 -590h-217l268 1516h588q208 0 328 -105t120 -283zM535 1335l-99 -565h334q178 0 284.5 96t106.5 242q0 106 -70.5 166.5t-197.5 60.5h-358zM369 -451l157 345h195l-191 -345h-161z
" />
    <glyph glyph-name="rcommaaccent" unicode="&#x157;" horiz-adv-x="794" 
d="M41 0l192 1094h203l-30 -172q144 192 450 192l-35 -192q-185 0 -311.5 -88.5t-153.5 -229.5l-106 -604h-209zM-70 -451l158 345h195l-191 -345h-162z" />
    <glyph glyph-name="Rcaron" unicode="&#x158;" horiz-adv-x="1458" 
d="M764 1690l-213 317h197l137 -201l209 201h194l-321 -317h-203zM1386 1128q0 -181 -105.5 -313.5t-279.5 -189.5l302 -625h-250l-273 590h-14h-363l-104 -590h-217l268 1516h588q208 0 328 -105t120 -283zM535 1335l-99 -565h334q178 0 284.5 96t106.5 242
q0 106 -70.5 166.5t-197.5 60.5h-358z" />
    <glyph glyph-name="rcaron" unicode="&#x159;" horiz-adv-x="794" 
d="M446 1268l-213 317h197l137 -201l209 201h195l-322 -317h-203zM406 922q144 192 450 192l-35 -192q-185 0 -311.5 -88.5t-153.5 -229.5l-106 -604h-209l192 1094h203z" />
    <glyph glyph-name="Sacute" unicode="&#x15a;" horiz-adv-x="1288" 
d="M713 1690l329 317h246l-397 -317h-178zM532 -20q-157 0 -285 48.5t-204 139.5l98 139q144 -147 394 -147q170 0 285.5 75t115.5 195q0 35 -15 65.5t-40 53.5t-65.5 44.5t-83 37.5t-101.5 35l-90 26q-80 24 -139 52t-110.5 68.5t-78.5 97.5t-27 128q0 145 81.5 259.5
t220 176.5t307.5 62q290 0 465 -178l-115 -144q-136 142 -357 142q-157 0 -264.5 -76.5t-107.5 -192.5q0 -41 18 -72.5t55 -55t75.5 -39t97.5 -33.5l92 -29q65 -20 118.5 -41.5t109.5 -55.5t94 -74t62.5 -97t24.5 -123q0 -144 -85.5 -256t-229 -171.5t-316.5 -59.5z" />
    <glyph glyph-name="sacute" unicode="&#x15b;" horiz-adv-x="1005" 
d="M492 1268l329 317h246l-397 -317h-178zM389 -20q-260 0 -383 126l92 119q107 -80 295 -80q107 0 183.5 51t76.5 126q0 54 -45 87.5t-131 55.5l-100 29q-260 61 -260 243q0 163 132 270t324 107q236 0 381 -106l-102 -134q-103 74 -264 74q-106 0 -180 -47t-74 -121
q0 -48 37.5 -75t117.5 -52l101 -30q276 -84 276 -273q0 -112 -64.5 -197t-172 -129t-240.5 -44z" />
    <glyph glyph-name="Scedilla" unicode="&#x15e;" horiz-adv-x="1288" 
d="M754 858q65 -20 118.5 -41.5t109.5 -55.5t94 -74t62.5 -97t24.5 -123q0 -132 -73 -238t-196.5 -168t-277.5 -77l-86 -107h11q91 0 143.5 -39t52.5 -104q0 -93 -81 -149t-207 -56q-119 0 -191 55l55 82q49 -43 127 -43q65 0 107.5 27.5t42.5 70.5q0 32 -28.5 50t-78.5 18
q-44 0 -90 -16l-22 51l121 156q-144 6 -261 54.5t-188 133.5l98 139q144 -147 394 -147q170 0 285.5 75t115.5 195q0 35 -15 65.5t-40 53.5t-65.5 44.5t-83 37.5t-101.5 35l-90 26q-80 24 -139 52t-110.5 68.5t-78.5 97.5t-27 128q0 145 81.5 259.5t220 176.5t307.5 62
q290 0 465 -178l-115 -144q-136 142 -357 142q-157 0 -264.5 -76.5t-107.5 -192.5q0 -41 18 -72.5t55 -55t75.5 -39t97.5 -33.5z" />
    <glyph glyph-name="scedilla" unicode="&#x15f;" horiz-adv-x="1005" 
d="M590 623q276 -84 276 -273q0 -150 -110.5 -247.5t-284.5 -118.5l-88 -107h10q91 0 144 -39t53 -104q0 -93 -81.5 -149t-207.5 -56q-118 0 -190 55l55 82q49 -43 127 -43q65 0 107 27.5t42 70.5q0 32 -28 50t-78 18q-44 0 -90 -16l-23 51l121 158q-226 9 -338 124l92 119
q107 -80 295 -80q107 0 183.5 51t76.5 126q0 54 -45 87.5t-131 55.5l-100 29q-260 61 -260 243q0 163 132 270t324 107q236 0 381 -106l-102 -134q-103 74 -264 74q-106 0 -180 -47t-74 -121q0 -48 37.5 -75t117.5 -52z" />
    <glyph glyph-name="Scaron" unicode="&#x160;" horiz-adv-x="1288" 
d="M739 1690l-213 317h197l137 -201l209 201h195l-322 -317h-203zM788 1356q-157 0 -264.5 -76.5t-107.5 -192.5q0 -41 18 -72.5t55 -55t75.5 -39t97.5 -33.5l92 -29q65 -20 118.5 -41.5t109.5 -55.5t94 -74t62.5 -97t24.5 -123q0 -144 -85.5 -256t-229 -171.5t-316.5 -59.5
q-157 0 -285 48.5t-204 139.5l98 139q144 -147 394 -147q170 0 285.5 75t115.5 195q0 35 -15 65.5t-40 53.5t-65.5 44.5t-83 37.5t-101.5 35l-90 26q-80 24 -139 52t-110.5 68.5t-78.5 97.5t-27 128q0 145 81.5 259.5t220 176.5t307.5 62q290 0 465 -178l-115 -144
q-136 142 -357 142z" />
    <glyph glyph-name="scaron" unicode="&#x161;" horiz-adv-x="1005" 
d="M518 1268l-213 317h197l137 -201l209 201h194l-321 -317h-203zM588 948q-106 0 -180 -47t-74 -121q0 -48 37.5 -75t117.5 -52l101 -30q276 -84 276 -273q0 -112 -64.5 -197t-172 -129t-240.5 -44q-260 0 -383 126l92 119q107 -80 295 -80q107 0 183.5 51t76.5 126
q0 54 -45 87.5t-131 55.5l-100 29q-260 61 -260 243q0 163 132 270t324 107q236 0 381 -106l-102 -134q-103 74 -264 74z" />
    <glyph glyph-name="uni0162" unicode="&#x162;" horiz-adv-x="1220" 
d="M602 0h-45l-100 -123h12q90 0 143.5 -39t53.5 -104q0 -93 -82 -149t-207 -56q-121 0 -193 55l56 82q49 -43 129 -43q63 0 106 28t43 70q0 32 -28 50t-78 18q-47 0 -93 -16l-20 51l133 176h-47l236 1335h-476l31 181h1172l-33 -181h-477z" />
    <glyph glyph-name="uni0163" unicode="&#x163;" horiz-adv-x="759" 
d="M401 922l-102 -580q-6 -24 -6 -49q0 -63 37.5 -98t103.5 -35q108 0 217 41l-30 -176q-106 -45 -269 -45h-26l-84 -103h10q91 0 144 -39t53 -104q0 -93 -81.5 -149t-207.5 -56q-119 0 -191 55l56 82q46 -43 127 -43q65 0 107 27.5t42 70.5q0 32 -28 50t-78 18
q-45 0 -91 -16l-22 51l137 182q-66 31 -102.5 92t-36.5 144q0 34 6 71l193 1100h208l-55 -319h361l-31 -172h-361z" />
    <glyph glyph-name="Tcaron" unicode="&#x164;" horiz-adv-x="1220" 
d="M686 1690l-213 317h197l137 -201l209 201h194l-321 -317h-203zM1348 1516l-33 -181h-477l-236 -1335h-217l236 1335h-476l31 181h1172z" />
    <glyph glyph-name="tcaron" unicode="&#x165;" horiz-adv-x="759" 
d="M971 1597l-209 -383h-162l178 383h193zM487 1413l-55 -319h361l-31 -172h-361l-102 -580q-6 -24 -6 -49q0 -63 37.5 -98t103.5 -35q108 0 217 41l-30 -176q-106 -45 -269 -45q-125 0 -198.5 71.5t-73.5 190.5q0 34 6 71l193 1100h208z" />
    <glyph glyph-name="Tbar" unicode="&#x166;" horiz-adv-x="1220" 
d="M1315 1335h-477l-93 -520h279l-27 -151h-278l-117 -664h-217l117 664h-266l26 151h266l93 520h-476l31 181h1172z" />
    <glyph glyph-name="tbar" unicode="&#x167;" horiz-adv-x="761" 
d="M762 922h-361l-49 -277h340l-26 -151h-340l-27 -152q-6 -24 -6 -49q0 -63 37.5 -98t103.5 -35q108 0 217 41l-30 -176q-106 -45 -269 -45q-125 0 -198.5 71.5t-73.5 190.5q0 34 6 71l193 1100h208l-55 -319h361z" />
    <glyph glyph-name="Umacron" unicode="&#x16a;" horiz-adv-x="1634" 
d="M666 1724l30 166h678l-28 -166h-680zM711 -20q-259 0 -410 129t-151 344q0 45 10 110l168 953h219l-168 -949q-8 -41 -8 -88q0 -150 95 -234.5t263 -84.5q190 0 328 113t170 294l166 949h219l-172 -967q-46 -260 -245 -414.5t-484 -154.5z" />
    <glyph glyph-name="umacron" unicode="&#x16b;" horiz-adv-x="1269" 
d="M410 1303l30 165h678l-28 -165h-680zM530 -20q-202 0 -319 100.5t-117 267.5q0 45 8 86l117 660h209l-117 -654q0 -5 -3 -28t-3 -35q0 -103 64 -160t178 -57q129 0 222.5 77.5t115.5 200.5l114 656h209l-118 -676q-34 -199 -187.5 -318.5t-372.5 -119.5z" />
    <glyph glyph-name="Uring" unicode="&#x16e;" horiz-adv-x="1634" 
d="M999 1618q-95 0 -150.5 50.5t-55.5 135.5q0 110 73.5 180t186.5 70q95 0 149.5 -50.5t54.5 -135.5q0 -109 -73.5 -179.5t-184.5 -70.5zM1006 1716q61 0 100 44t39 102q0 43 -27 67.5t-74 24.5q-60 0 -98.5 -43t-38.5 -103q0 -42 27 -67t72 -25zM711 -20q-259 0 -410 129
t-151 344q0 45 10 110l168 953h219l-168 -949q-8 -41 -8 -88q0 -150 95 -234.5t263 -84.5q190 0 328 113t170 294l166 949h219l-172 -967q-46 -260 -245 -414.5t-484 -154.5z" />
    <glyph glyph-name="uring" unicode="&#x16f;" horiz-adv-x="1269" 
d="M743 1196q-95 0 -150.5 50.5t-55.5 135.5q0 110 73.5 180t186.5 70q95 0 149.5 -50.5t54.5 -135.5q0 -109 -73.5 -179.5t-184.5 -70.5zM750 1294q61 0 100 44t39 102q0 43 -27 67.5t-74 24.5q-60 0 -98.5 -43t-38.5 -103q0 -42 27 -67t72 -25zM530 -20q-202 0 -319 100.5
t-117 267.5q0 45 8 86l117 660h209l-117 -654q0 -5 -3 -28t-3 -35q0 -103 64 -160t178 -57q129 0 222.5 77.5t115.5 200.5l114 656h209l-118 -676q-34 -199 -187.5 -318.5t-372.5 -119.5z" />
    <glyph glyph-name="Uhungarumlaut" unicode="&#x170;" horiz-adv-x="1634" 
d="M721 1690l274 317h244l-342 -317h-176zM1073 1690l273 317h243l-342 -317h-174zM711 -20q-259 0 -410 129t-151 344q0 45 10 110l168 953h219l-168 -949q-8 -41 -8 -88q0 -150 95 -234.5t263 -84.5q190 0 328 113t170 294l166 949h219l-172 -967q-46 -260 -245 -414.5
t-484 -154.5z" />
    <glyph glyph-name="uhungarumlaut" unicode="&#x171;" horiz-adv-x="1269" 
d="M465 1268l274 317h244l-342 -317h-176zM817 1268l273 317h243l-342 -317h-174zM530 -20q-202 0 -319 100.5t-117 267.5q0 45 8 86l117 660h209l-117 -654q0 -5 -3 -28t-3 -35q0 -103 64 -160t178 -57q129 0 222.5 77.5t115.5 200.5l114 656h209l-118 -676
q-34 -199 -187.5 -318.5t-372.5 -119.5z" />
    <glyph glyph-name="Uogonek" unicode="&#x172;" horiz-adv-x="1634" 
d="M1393 1516h219l-172 -967q-38 -214 -182 -359.5t-359 -189.5q-254 -148 -254 -279q0 -31 19.5 -50t52.5 -19q61 0 117 43v-109q-82 -57 -187 -57q-76 0 -120 39t-44 104q0 150 219 308q-256 1 -404 130t-148 343q0 45 10 110l168 953h219l-168 -949q-8 -41 -8 -88
q0 -150 95 -234.5t263 -84.5q190 0 328 113t170 294z" />
    <glyph glyph-name="uogonek" unicode="&#x173;" horiz-adv-x="1269" 
d="M999 1094h209l-118 -676q-28 -159 -133 -269.5t-263 -148.5q-254 -148 -254 -279q0 -31 19.5 -50t52.5 -19q61 0 117 43v-109q-82 -57 -187 -57q-76 0 -119.5 39t-43.5 104q0 154 221 308q-189 9 -297.5 108t-108.5 260q0 45 8 86l117 660h209l-117 -654q0 -5 -3 -28
t-3 -35q0 -103 64 -160t178 -57q129 0 222.5 77.5t115.5 200.5z" />
    <glyph glyph-name="Wcircumflex" unicode="&#x174;" horiz-adv-x="2287" 
d="M1364 1894l-213 -204h-190l323 317h205l209 -317h-193zM2195 1516h236l-801 -1516h-205l-178 1219l-616 -1219h-203l-266 1516h231l195 -1223l604 1223h205l170 -1223z" />
    <glyph glyph-name="wcircumflex" unicode="&#x175;" horiz-adv-x="1867" 
d="M1079 1473l-213 -205h-190l323 317h205l209 -317h-192zM1696 1094h231l-606 -1094h-211l-139 848l-443 -848h-211l-219 1094h226l149 -854l449 854h176l141 -854z" />
    <glyph glyph-name="Ycircumflex" unicode="&#x176;" horiz-adv-x="1372" 
d="M907 1894l-213 -204h-190l323 317h205l209 -317h-192zM1260 1516h241l-715 -928l-108 -588h-217l106 588l-387 928h230l299 -732z" />
    <glyph glyph-name="ycircumflex" unicode="&#x177;" horiz-adv-x="1284" 
d="M776 1473l-213 -205h-190l323 317h205l209 -317h-192zM999 1094h209l-178 -1012q-44 -253 -221 -403t-428 -150q-269 0 -422 125l68 156q140 -101 364 -101q162 0 282.5 109.5t151.5 283.5l6 37q-138 -159 -370 -159q-171 0 -270 94t-99 250q0 46 8 90l119 680h209
l-113 -652q-6 -44 -6 -65q0 -103 63 -160t177 -57q128 0 220.5 76t115.5 200v4z" />
    <glyph glyph-name="Ydieresis" unicode="&#x178;" horiz-adv-x="1372" 
d="M664 1743q-54 0 -86.5 32.5t-32.5 84.5q0 62 41 103.5t100 41.5q54 0 86.5 -32.5t32.5 -84.5q0 -62 -41 -103.5t-100 -41.5zM1120 1743q-54 0 -86.5 32.5t-32.5 84.5q0 62 41.5 103.5t100.5 41.5q53 0 86 -32.5t33 -84.5q0 -63 -41 -104t-101 -41zM461 0l106 588
l-387 928h230l299 -732l551 732h241l-715 -928l-108 -588h-217z" />
    <glyph glyph-name="Zacute" unicode="&#x179;" horiz-adv-x="1316" 
d="M1290 2007l-397 -317h-178l329 317h246zM1389 1516l-25 -138l-1077 -1198h882l-32 -180h-1184l24 137l1078 1198h-850l33 181h1151z" />
    <glyph glyph-name="zacute" unicode="&#x17a;" horiz-adv-x="1073" 
d="M520 1268l330 317h246l-398 -317h-178zM-41 0l25 135l747 787h-596l31 172h899l-27 -136l-745 -784h631l-31 -174h-934z" />
    <glyph glyph-name="Zdotaccent" unicode="&#x17b;" horiz-adv-x="1316" 
d="M866 1743q-54 0 -86 33t-32 86q0 61 40 102t101 41q53 0 86 -33.5t33 -85.5q0 -60 -40.5 -101.5t-101.5 -41.5zM1389 1516l-25 -138l-1077 -1198h882l-32 -180h-1184l24 137l1078 1198h-850l33 181h1151z" />
    <glyph glyph-name="zdotaccent" unicode="&#x17c;" horiz-adv-x="1073" 
d="M672 1321q-54 0 -86.5 33t-32.5 86q0 61 40 102t101 41q52 0 85.5 -33.5t33.5 -85.5q0 -61 -40 -102t-101 -41zM-41 0l25 135l747 787h-596l31 172h899l-27 -136l-745 -784h631l-31 -174h-934z" />
    <glyph glyph-name="Zcaron" unicode="&#x17d;" horiz-adv-x="1316" 
d="M741 1690l-213 317h197l137 -201l209 201h195l-322 -317h-203zM1389 1516l-25 -138l-1077 -1198h882l-32 -180h-1184l24 137l1078 1198h-850l33 181h1151z" />
    <glyph glyph-name="zcaron" unicode="&#x17e;" horiz-adv-x="1073" 
d="M547 1268l-213 317h196l138 -201l209 201h194l-321 -317h-203zM135 922l31 172h899l-27 -136l-745 -784h631l-31 -174h-934l25 135l747 787h-596z" />
    <glyph glyph-name="florin" unicode="&#x192;" horiz-adv-x="999" 
d="M932 1536q97 0 176 -33l-41 -166q-53 19 -125 19q-95 0 -165.5 -55.5t-104.5 -153.5l-123 -352h364l-30 -174h-396l-290 -826h-215l290 826h-172l31 174h203l149 428q54 154 173 233.5t276 79.5z" />
    <glyph glyph-name="Scommaaccent" unicode="&#x218;" horiz-adv-x="1288" 
d="M532 -20q-157 0 -285 48.5t-204 139.5l98 139q144 -147 394 -147q170 0 285.5 75t115.5 195q0 35 -15 65.5t-40 53.5t-65.5 44.5t-83 37.5t-101.5 35l-90 26q-80 24 -139 52t-110.5 68.5t-78.5 97.5t-27 128q0 145 81.5 259.5t220 176.5t307.5 62q290 0 465 -178
l-115 -144q-136 142 -357 142q-157 0 -264.5 -76.5t-107.5 -192.5q0 -41 18 -72.5t55 -55t75.5 -39t97.5 -33.5l92 -29q65 -20 118.5 -41.5t109.5 -55.5t94 -74t62.5 -97t24.5 -123q0 -144 -85.5 -256t-229 -171.5t-316.5 -59.5zM297 -451l158 345h194l-190 -345h-162z" />
    <glyph glyph-name="scommaaccent" unicode="&#x219;" horiz-adv-x="1005" 
d="M389 -20q-260 0 -383 126l92 119q107 -80 295 -80q107 0 183.5 51t76.5 126q0 54 -45 87.5t-131 55.5l-100 29q-260 61 -260 243q0 163 132 270t324 107q236 0 381 -106l-102 -134q-103 74 -264 74q-106 0 -180 -47t-74 -121q0 -48 37.5 -75t117.5 -52l101 -30
q276 -84 276 -273q0 -112 -64.5 -197t-172 -129t-240.5 -44zM150 -451l157 345h195l-191 -345h-161z" />
    <glyph glyph-name="uni021A" unicode="&#x21a;" horiz-adv-x="1220" 
d="M1348 1516l-33 -181h-477l-236 -1335h-217l236 1335h-476l31 181h1172zM223 -451l158 345h194l-190 -345h-162z" />
    <glyph glyph-name="uni021B" unicode="&#x21b;" horiz-adv-x="759" 
d="M401 922l-102 -580q-6 -24 -6 -49q0 -63 37.5 -98t103.5 -35q108 0 217 41l-30 -176q-106 -45 -269 -45q-125 0 -198.5 71.5t-73.5 190.5q0 34 6 71l193 1100h208l-55 -319h361l-31 -172h-361zM8 -451l158 345h194l-190 -345h-162z" />
    <glyph glyph-name="circumflex" unicode="&#x2c6;" horiz-adv-x="1228" 
d="M948 1268h-192l-142 205l-213 -205h-190l324 317h204z" />
    <glyph glyph-name="caron" unicode="&#x2c7;" horiz-adv-x="1228" 
d="M805 1585h194l-321 -317h-203l-213 317h197l137 -201z" />
    <glyph glyph-name="breve" unicode="&#x2d8;" horiz-adv-x="1228" 
d="M559 1249q-142 0 -224.5 73.5t-82.5 195.5q0 33 6 67h160q-6 -30 -6 -55q0 -74 40.5 -116t114.5 -42q88 0 149.5 59.5t76.5 153.5h159q-26 -155 -132.5 -245.5t-260.5 -90.5z" />
    <glyph glyph-name="dotaccent" unicode="&#x2d9;" horiz-adv-x="1228" 
d="M401 1321q-54 0 -86 33t-32 86q0 61 40 102t101 41q52 0 85.5 -33.5t33.5 -85.5q0 -60 -40.5 -101.5t-101.5 -41.5z" />
    <glyph glyph-name="ring" unicode="&#x2da;" horiz-adv-x="1228" 
d="M473 1196q-95 0 -151 50.5t-56 135.5q0 110 73.5 180t186.5 70q95 0 150 -50.5t55 -135.5q0 -109 -73.5 -179.5t-184.5 -70.5zM479 1294q61 0 100 44t39 102q0 43 -26.5 67.5t-73.5 24.5q-60 0 -98.5 -43t-38.5 -103q0 -42 26.5 -67t71.5 -25z" />
    <glyph glyph-name="ogonek" unicode="&#x2db;" horiz-adv-x="1228" 
d="M152 -471q-76 0 -120 39t-44 104q0 198 381 408l37 -80q-256 -147 -256 -279q0 -31 19 -50t52 -19q61 0 117 43v-109q-82 -57 -186 -57z" />
    <glyph glyph-name="tilde" unicode="&#x2dc;" horiz-adv-x="1228" 
d="M770 1276q-43 0 -87.5 21t-75 45.5t-68.5 45.5t-70 21q-48 0 -82.5 -29.5t-44.5 -83.5h-121q20 117 93 192t167 75q45 0 89 -20.5t74 -45t67.5 -45t70.5 -20.5q48 0 81.5 28.5t43.5 81.5h123q-22 -121 -93.5 -193.5t-166.5 -72.5z" />
    <glyph glyph-name="hungarumlaut" unicode="&#x2dd;" horiz-adv-x="1228" 
d="M397 1268l275 317h243l-342 -317h-176zM750 1268l272 317h244l-342 -317h-174z" />
    <glyph glyph-name="gravecomb" unicode="&#x300;" horiz-adv-x="0" 
d="M-311 1268l-283 317h244l215 -317h-176z" />
    <glyph glyph-name="acutecomb" unicode="&#x301;" horiz-adv-x="0" 
d="M-377 1268l330 317h246l-398 -317h-178z" />
    <glyph glyph-name="uni0302" unicode="&#x302;" horiz-adv-x="0" 
d="M35 1268h-193l-141 205l-213 -205h-190l323 317h205z" />
    <glyph glyph-name="tildecomb" unicode="&#x303;" horiz-adv-x="0" 
d="M-172 1276q-43 0 -87.5 21t-75 45.5t-68.5 45.5t-70 21q-48 0 -82.5 -29.5t-44.5 -83.5h-121q20 117 93 192t167 75q45 0 89 -20.5t74 -45t67.5 -45t70.5 -20.5q48 0 81.5 28.5t43.5 81.5h123q-22 -121 -93.5 -193.5t-166.5 -72.5z" />
    <glyph glyph-name="uni0304" unicode="&#x304;" horiz-adv-x="0" 
d="M-655 1303l30 165h678l-28 -165h-680z" />
    <glyph glyph-name="uni0306" unicode="&#x306;" horiz-adv-x="0" 
d="M-287 1249q-142 0 -224.5 73.5t-82.5 195.5q0 33 6 67h160q-6 -30 -6 -55q0 -74 40.5 -116t114.5 -42q88 0 149.5 59.5t76.5 153.5h159q-26 -155 -132.5 -245.5t-260.5 -90.5z" />
    <glyph glyph-name="uni0307" unicode="&#x307;" horiz-adv-x="0" 
d="M-104 1321q-54 0 -86.5 33t-32.5 86q0 61 40 102t101 41q52 0 85.5 -33.5t33.5 -85.5q0 -61 -40 -102t-101 -41z" />
    <glyph glyph-name="uni0308" unicode="&#x308;" horiz-adv-x="0" 
d="M-561 1321q-53 0 -86 32.5t-33 84.5q0 62 41 103.5t100 41.5q53 0 86 -32.5t33 -84.5q0 -62 -41 -103.5t-100 -41.5zM-104 1321q-54 0 -86.5 32.5t-32.5 84.5q0 62 41 103.5t100 41.5q54 0 86.5 -32.5t32.5 -84.5q0 -63 -40.5 -104t-100.5 -41z" />
    <glyph glyph-name="uni030A" unicode="&#x30a;" horiz-adv-x="0" 
d="M-219 1196q-95 0 -151 50.5t-56 135.5q0 110 73.5 180t186.5 70q95 0 150 -50.5t55 -135.5q0 -109 -73.5 -179.5t-184.5 -70.5zM-213 1294q61 0 100 44t39 102q0 43 -26.5 67.5t-73.5 24.5q-60 0 -98.5 -43t-38.5 -103q0 -42 26.5 -67t71.5 -25z" />
    <glyph glyph-name="uni030B" unicode="&#x30b;" horiz-adv-x="0" 
d="M-698 1268l274 317h244l-342 -317h-176zM-346 1268l272 317h244l-342 -317h-174z" />
    <glyph glyph-name="uni030C" unicode="&#x30c;" horiz-adv-x="0" 
d="M-109 1585h195l-322 -317h-202l-213 317h196l138 -201z" />
    <glyph glyph-name="uni0312" unicode="&#x312;" horiz-adv-x="0" 
d="M-242 1214l209 383h164l-178 -383h-195z" />
    <glyph glyph-name="uni0326" unicode="&#x326;" horiz-adv-x="0" 
d="M-504 -451l158 345h194l-190 -345h-162z" />
    <glyph glyph-name="uni0327" unicode="&#x327;" horiz-adv-x="0" 
d="M-389 -123q91 0 143.5 -39t52.5 -104q0 -93 -81 -149t-207 -56q-119 0 -191 55l56 82q49 -43 127 -43q65 0 107 27.5t42 70.5q0 32 -28 50t-78 18q-45 0 -91 -16l-22 51l135 176h125l-100 -123h10z" />
    <glyph glyph-name="uni0328" unicode="&#x328;" horiz-adv-x="0" 
d="M-387 -471q-76 0 -120 39t-44 104q0 198 381 408l37 -80q-256 -147 -256 -279q0 -31 19.5 -50t52.5 -19q60 0 116 43v-109q-82 -57 -186 -57z" />
    <glyph glyph-name="uni0335" unicode="&#x335;" horiz-adv-x="0" 
d="M-1071 514l27 152h761l-26 -152h-762z" />
    <glyph glyph-name="uni0336" unicode="&#x336;" horiz-adv-x="0" 
d="M-1780 514l27 152h1638l-26 -152h-1639z" />
    <glyph glyph-name="uni0337" unicode="&#x337;" horiz-adv-x="0" 
d="M-494 911l324 203l-31 -166l-321 -200l4 24l-320 -199l27 164l322 199z" />
    <glyph glyph-name="uni0338" unicode="&#x338;" horiz-adv-x="0" 
d="M-1018 -20l-108 71l1130 1485l109 -70z" />
    <glyph glyph-name="uni0394" unicode="&#x394;" horiz-adv-x="1654" 
d="M1085 1516l388 -1516h-1516l924 1516h204zM301 180h897l-256 1067z" />
    <glyph glyph-name="uni03A9" unicode="&#x3a9;" horiz-adv-x="1615" 
d="M14 0l33 180h387l27 146q-152 59 -235 180t-83 289q0 214 108 384t293.5 263.5t411.5 93.5q283 0 448 -141.5t165 -380.5q0 -237 -139.5 -425t-374.5 -270l-27 -139h383l-31 -180h-567l82 465q199 39 325 188t126 340q0 167 -109.5 265t-298.5 98q-159 0 -290 -72.5
t-205 -196t-74 -270.5q0 -137 73 -227.5t209 -124.5l-82 -465h-555z" />
    <glyph glyph-name="uni03BC" unicode="&#x3bc;" horiz-adv-x="1296" 
d="M1014 1094h209l-195 -1094h-203l21 131q-126 -151 -318 -151q-186 0 -256 155l-102 -586h-209l272 1545h209l-114 -652q-23 -132 41 -207t198 -75q127 0 217.5 77.5t112.5 202.5z" />
    <glyph glyph-name="pi" unicode="&#x3c0;" horiz-adv-x="1411" 
d="M1141 922l-115 -646q-2 -12 -2 -30q0 -40 21.5 -63t60.5 -23q67 0 129 35l-18 -170q-83 -45 -199 -45q-97 0 -154 54.5t-57 145.5q0 17 4 53l121 689h-400l-163 -922h-209l164 922h-220l31 172h1264l-31 -172h-227z" />
    <glyph glyph-name="Wgrave" unicode="&#x1e80;" horiz-adv-x="2287" 
d="M1262 1690l-283 317h244l215 -317h-176zM428 0l-266 1516h231l195 -1223l604 1223h205l170 -1223l628 1223h236l-801 -1516h-205l-178 1219l-616 -1219h-203z" />
    <glyph glyph-name="wgrave" unicode="&#x1e81;" horiz-adv-x="1867" 
d="M977 1268l-283 317h244l215 -317h-176zM317 0l-219 1094h226l149 -854l449 854h176l141 -854l457 854h231l-606 -1094h-211l-139 848l-443 -848h-211z" />
    <glyph glyph-name="Wacute" unicode="&#x1e82;" horiz-adv-x="2287" 
d="M1198 1690l330 317h246l-398 -317h-178zM428 0l-266 1516h231l195 -1223l604 1223h205l170 -1223l628 1223h236l-801 -1516h-205l-178 1219l-616 -1219h-203z" />
    <glyph glyph-name="wacute" unicode="&#x1e83;" horiz-adv-x="1867" 
d="M913 1268l330 317h246l-397 -317h-179zM317 0l-219 1094h226l149 -854l449 854h176l141 -854l457 854h231l-606 -1094h-211l-139 848l-443 -848h-211z" />
    <glyph glyph-name="Wdieresis" unicode="&#x1e84;" horiz-adv-x="2287" 
d="M1120 1743q-54 0 -86.5 32.5t-32.5 84.5q0 62 41.5 103.5t100.5 41.5q53 0 86 -32.5t33 -84.5q0 -62 -41.5 -103.5t-100.5 -41.5zM1577 1743q-53 0 -86 32.5t-33 84.5q0 62 41 103.5t100 41.5q53 0 86 -32.5t33 -84.5q0 -63 -40.5 -104t-100.5 -41zM428 0l-266 1516h231
l195 -1223l604 1223h205l170 -1223l628 1223h236l-801 -1516h-205l-178 1219l-616 -1219h-203z" />
    <glyph glyph-name="wdieresis" unicode="&#x1e85;" horiz-adv-x="1867" 
d="M836 1321q-54 0 -86.5 32.5t-32.5 84.5q0 62 41 103.5t100 41.5q54 0 86.5 -32.5t32.5 -84.5q0 -62 -41 -103.5t-100 -41.5zM1292 1321q-53 0 -85.5 32.5t-32.5 84.5q0 62 41 103.5t100 41.5q53 0 86 -32.5t33 -84.5q0 -63 -41 -104t-101 -41zM317 0l-219 1094h226
l149 -854l449 854h176l141 -854l457 854h231l-606 -1094h-211l-139 848l-443 -848h-211z" />
    <glyph glyph-name="uni1E9E" unicode="&#x1e9e;" horiz-adv-x="1394" 
d="M684 -20q-132 0 -215 38l31 172q64 -30 164 -30q164 0 272 92t108 229q0 108 -84.5 169t-234.5 61l29 166q143 0 238 82t95 198q0 92 -70 145.5t-190 53.5q-136 0 -232 -71.5t-116 -184.5l-194 -1100h-217l202 1141q32 181 189 288t385 107q217 0 345 -92.5t128 -247.5
q0 -135 -83.5 -241t-223.5 -160q118 -39 186 -123.5t68 -198.5q0 -145 -79 -258.5t-210.5 -174t-290.5 -60.5z" />
    <glyph glyph-name="Ygrave" unicode="&#x1ef2;" horiz-adv-x="1372" 
d="M805 1690l-283 317h244l215 -317h-176zM461 0l106 588l-387 928h230l299 -732l551 732h241l-715 -928l-108 -588h-217z" />
    <glyph glyph-name="ygrave" unicode="&#x1ef3;" horiz-adv-x="1284" 
d="M850 1268h-176l-283 317h244zM999 1094h209l-178 -1012q-44 -253 -221 -403t-428 -150q-269 0 -422 125l68 156q140 -101 364 -101q162 0 282.5 109.5t151.5 283.5l6 37q-138 -159 -370 -159q-171 0 -270 94t-99 250q0 46 8 90l119 680h209l-113 -652q-6 -44 -6 -65
q0 -103 63 -160t177 -57q128 0 220.5 76t115.5 200v4z" />
    <glyph glyph-name="endash" unicode="&#x2013;" horiz-adv-x="1208" 
d="M115 514l26 152h934l-26 -152h-934z" />
    <glyph glyph-name="emdash" unicode="&#x2014;" horiz-adv-x="1912" 
d="M115 514l26 152h1639l-27 -152h-1638z" />
    <glyph glyph-name="quoteleft" unicode="&#x2018;" horiz-adv-x="526" 
d="M602 1516l-221 -484h-221l252 484h190z" />
    <glyph glyph-name="quoteright" unicode="&#x2019;" horiz-adv-x="522" 
d="M166 1032l221 484h221l-252 -484h-190z" />
    <glyph glyph-name="quotesinglbase" unicode="&#x201a;" horiz-adv-x="505" 
d="M-129 -272l221 485h221l-252 -485h-190z" />
    <glyph glyph-name="quotedblleft" unicode="&#x201c;" horiz-adv-x="899" 
d="M604 1516l-221 -484h-221l252 484h190zM973 1516l-221 -484h-222l252 484h191z" />
    <glyph glyph-name="quotedblright" unicode="&#x201d;" horiz-adv-x="890" 
d="M166 1032l221 484h221l-250 -484h-192zM537 1032l219 484h223l-252 -484h-190z" />
    <glyph glyph-name="quotedblbase" unicode="&#x201e;" horiz-adv-x="874" 
d="M-129 -272l221 485h221l-252 -485h-190zM240 -272l221 485h221l-250 -485h-192z" />
    <glyph glyph-name="dagger" unicode="&#x2020;" horiz-adv-x="1118" 
d="M1120 1094l-33 -183h-372l-240 -1362h-217l240 1362h-373l31 183h374l88 503h218l-88 -503h372z" />
    <glyph glyph-name="daggerdbl" unicode="&#x2021;" horiz-adv-x="1118" 
d="M1087 911h-372l-45 -256h372l-30 -180h-373l-164 -926h-217l164 926h-375l33 180h373l45 256h-373l31 183h374l88 503h218l-88 -503h372z" />
    <glyph glyph-name="bullet" unicode="&#x2022;" horiz-adv-x="774" 
d="M365 426q-91 0 -145 51t-54 137q0 104 67 174t173 70q89 0 142.5 -52t53.5 -138q0 -103 -66.5 -172.5t-170.5 -69.5z" />
    <glyph glyph-name="ellipsis" unicode="&#x2026;" horiz-adv-x="1437" 
d="M154 -20q-58 0 -94.5 38.5t-36.5 96.5q0 65 45 109t112 44q57 0 94 -39t37 -96q0 -65 -45 -109t-112 -44zM621 -20q-57 0 -94.5 39t-37.5 96q0 65 45.5 109t112.5 44q58 0 94.5 -38.5t36.5 -96.5q0 -65 -45 -109t-112 -44zM1090 -20q-58 0 -95 38.5t-37 96.5q0 65 45 109
t111 44q58 0 94.5 -38.5t36.5 -96.5q0 -65 -44.5 -109t-110.5 -44z" />
    <glyph glyph-name="perthousand" unicode="&#x2030;" horiz-adv-x="2461" 
d="M481 848q-147 0 -232 78t-85 209q0 174 119 287.5t297 113.5q146 0 229.5 -77t83.5 -208q0 -174 -117.5 -288.5t-294.5 -114.5zM332 -20l-107 71l1151 1485l109 -70zM500 987q96 0 159.5 75.5t63.5 176.5q0 75 -43.5 117.5t-118.5 42.5q-97 0 -161 -76t-64 -178
q0 -75 43.5 -116.5t120.5 -41.5zM1130 -20q-147 0 -232 77t-85 209q0 174 119 288t297 114q145 0 229 -77.5t84 -207.5q0 -174 -117.5 -288.5t-294.5 -114.5zM1929 -20q-147 0 -232 77t-85 209q0 174 117.5 288t295.5 114q147 0 231.5 -77.5t84.5 -207.5
q0 -174 -117.5 -288.5t-294.5 -114.5zM1149 117q96 0 159.5 76.5t63.5 177.5q0 74 -43 115.5t-119 41.5q-97 0 -161 -76t-64 -176q0 -75 43.5 -117t120.5 -42zM1948 117q95 0 158 76t63 178q0 75 -42.5 116t-117.5 41q-98 0 -161.5 -75.5t-63.5 -176.5q0 -75 43.5 -117
t120.5 -42z" />
    <glyph glyph-name="guilsinglleft" unicode="&#x2039;" horiz-adv-x="761" 
d="M350 88l-284 465l444 465h227l-438 -465l268 -465h-217z" />
    <glyph glyph-name="guilsinglright" unicode="&#x203a;" horiz-adv-x="761" 
d="M379 1018l285 -465l-445 -465h-227l440 465l-270 465h217z" />
    <glyph glyph-name="fraction" unicode="&#x2044;" horiz-adv-x="428" 
d="M-279 -20l-108 71l1130 1485l109 -70z" />
    <glyph glyph-name="uni2070" unicode="&#x2070;" horiz-adv-x="796" 
d="M444 799q-127 0 -199.5 93t-72.5 251q0 148 52 282t150.5 221t219.5 87q128 0 200 -92t72 -250q0 -149 -51.5 -283.5t-150 -221.5t-220.5 -87zM463 915q76 0 137.5 76t92 182.5t30.5 212.5q0 107 -37.5 168.5t-107.5 61.5q-76 0 -138 -75.5t-93.5 -182t-31.5 -213.5
t38.5 -168.5t109.5 -61.5z" />
    <glyph glyph-name="uni2074" unicode="&#x2074;" horiz-adv-x="788" 
d="M496 811l32 184h-434l19 99l571 626h113l-107 -606h131l-20 -119h-131l-33 -184h-141zM276 1108h277l65 375z" />
    <glyph glyph-name="uni2075" unicode="&#x2075;" horiz-adv-x="731" 
d="M350 799q-179 0 -262 86l55 96q69 -66 205 -66q107 0 182.5 61t75.5 152q0 60 -39 96t-106 36q-84 0 -154 -46l-96 19l149 487h453l-20 -116h-330l-82 -244q52 16 117 16q117 0 185.5 -61t68.5 -164q0 -154 -117 -253t-285 -99z" />
    <glyph glyph-name="uni2076" unicode="&#x2076;" horiz-adv-x="729" 
d="M528 1366q104 0 170 -61.5t66 -163.5q0 -146 -105.5 -244t-259.5 -98q-124 0 -194 61.5t-70 167.5q0 152 137 303l336 389h160l-324 -360q38 6 84 6zM420 915q85 0 140.5 62t55.5 147q0 62 -36 97.5t-99 35.5q-85 0 -141.5 -60.5t-56.5 -149.5q0 -61 36.5 -96.5
t100.5 -35.5z" />
    <glyph glyph-name="uni2077" unicode="&#x2077;" horiz-adv-x="653" 
d="M217 1720h600l-475 -909h-152l418 793h-411z" />
    <glyph glyph-name="uni2078" unicode="&#x2078;" horiz-adv-x="761" 
d="M647 1280q57 -26 88 -73.5t31 -108.5q0 -132 -101 -215.5t-247 -83.5q-127 0 -201 60.5t-74 160.5q0 95 54 163.5t145 102.5q-98 54 -98 166q0 124 93 202.5t230 78.5q115 0 181.5 -56.5t66.5 -150.5q0 -86 -45.5 -149t-122.5 -97zM555 1616q-72 0 -121 -50.5t-49 -119.5
q0 -49 31.5 -77t85.5 -28q73 0 121.5 49t48.5 119q0 48 -32 77.5t-85 29.5zM428 915q84 0 140.5 55t56.5 134q0 54 -38 87.5t-102 33.5q-84 0 -140 -55.5t-56 -133.5q0 -56 37.5 -88.5t101.5 -32.5z" />
    <glyph glyph-name="uni2079" unicode="&#x2079;" horiz-adv-x="729" 
d="M555 1733q124 0 194 -62t70 -168q0 -152 -137 -303l-336 -389h-160l324 360q-38 -6 -84 -6q-104 0 -170 62t-66 164q0 146 105.5 244t259.5 98zM338 1407q0 -62 36 -97.5t99 -35.5q85 0 142 61t57 150q0 60 -36.5 95.5t-100.5 35.5q-85 0 -141 -62.5t-56 -146.5z" />
    <glyph glyph-name="uni2080" unicode="&#x2080;" horiz-adv-x="796" 
d="M264 -217q-127 0 -199.5 93t-72.5 251q0 148 52 282t150.5 221t219.5 87q128 0 200 -92t72 -250q0 -149 -51.5 -283.5t-150 -221.5t-220.5 -87zM283 -100q76 0 137.5 76t92 182.5t30.5 212.5q0 107 -38 168t-108 61q-76 0 -138 -75.5t-93 -182t-31 -213.5t38.5 -168
t109.5 -61z" />
    <glyph glyph-name="uni2081" unicode="&#x2081;" horiz-adv-x="542" 
d="M127 -205l129 729l-221 -143l-55 100l339 224h109l-160 -910h-141z" />
    <glyph glyph-name="uni2082" unicode="&#x2082;" horiz-adv-x="731" 
d="M-88 -205l16 88l344 312q50 44 74 67.5t61.5 66.5t54.5 83.5t17 81.5q0 50 -32.5 78t-90.5 28q-67 0 -116 -44.5t-60 -113.5l-141 21q22 117 111.5 185.5t218.5 68.5q117 0 186.5 -55t69.5 -150q0 -57 -22.5 -113t-67.5 -110t-87.5 -95t-105.5 -94l-223 -190l413 2
l-20 -117h-600z" />
    <glyph glyph-name="uni2083" unicode="&#x2083;" horiz-adv-x="718" 
d="M627 705l-17 -89l-311 -280h4q117 0 184.5 -61t67.5 -162q0 -148 -108.5 -239t-272.5 -91q-85 0 -154.5 26.5t-105.5 71.5l68 99q57 -80 198 -80q97 0 164.5 55t67.5 139q0 62 -45 97.5t-123 35.5q-70 0 -135 -30l-29 71l338 320h-340l18 117h531z" />
    <glyph glyph-name="uni2084" unicode="&#x2084;" horiz-adv-x="788" 
d="M315 -205l33 185h-434l18 98l572 627h112l-106 -607h131l-20 -118h-132l-32 -185h-142zM96 92h277l65 375z" />
    <glyph glyph-name="uni2085" unicode="&#x2085;" horiz-adv-x="731" 
d="M170 -217q-179 0 -262 86l55 96q68 -65 205 -65q107 0 182.5 61t75.5 152q0 60 -39 95.5t-106 35.5q-86 0 -154 -45l-96 18l149 488h453l-21 -117h-329l-82 -244q52 16 116 16q117 0 185.5 -61t68.5 -164q0 -154 -116.5 -253t-284.5 -99z" />
    <glyph glyph-name="uni2086" unicode="&#x2086;" horiz-adv-x="729" 
d="M348 350q104 0 170 -61.5t66 -163.5q0 -146 -105.5 -244t-259.5 -98q-124 0 -194 61.5t-70 167.5q0 152 137 303l336 390h160l-324 -361q38 6 84 6zM240 -100q85 0 140.5 62t55.5 147q0 62 -36 97.5t-99 35.5q-85 0 -142 -61t-57 -150q0 -60 37 -95.5t101 -35.5z" />
    <glyph glyph-name="uni2087" unicode="&#x2087;" horiz-adv-x="653" 
d="M37 705h600l-475 -910h-152l418 793h-412z" />
    <glyph glyph-name="uni2088" unicode="&#x2088;" horiz-adv-x="761" 
d="M467 264q57 -26 88 -73.5t31 -108.5q0 -132 -101 -215.5t-247 -83.5q-127 0 -201 60.5t-74 160.5q0 95 54 163.5t145 102.5q-99 55 -99 166q0 124 93.5 202.5t230.5 78.5q115 0 181.5 -56.5t66.5 -150.5q0 -86 -45.5 -149t-122.5 -97zM375 600q-72 0 -121 -50.5
t-49 -119.5q0 -49 31.5 -76.5t85.5 -27.5q73 0 121.5 49t48.5 119q0 48 -31.5 77t-85.5 29zM248 -100q84 0 140 54.5t56 133.5q0 55 -37.5 88t-101.5 33q-84 0 -140 -55.5t-56 -133.5q0 -56 37.5 -88t101.5 -32z" />
    <glyph glyph-name="uni2089" unicode="&#x2089;" horiz-adv-x="729" 
d="M375 717q124 0 194 -62t70 -168q0 -152 -137 -303l-336 -389h-160l324 361q-38 -6 -84 -6q-104 0 -170 61.5t-66 163.5q0 146 105.5 244t259.5 98zM158 391q0 -62 36 -97.5t99 -35.5q85 0 142 61t57 150q0 60 -37 95.5t-101 35.5q-85 0 -140.5 -62t-55.5 -147z" />
    <glyph glyph-name="Euro" unicode="&#x20ac;" horiz-adv-x="1689" 
d="M893 160q145 0 283 71t235 189l131 -146q-131 -143 -302.5 -218.5t-369.5 -75.5q-290 0 -467.5 150.5t-199.5 408.5h-146l25 139h121q8 71 14 110h-117l27 140h127q94 274 327 441t541 167q353 0 549 -250l-153 -129q-151 199 -410 199q-214 0 -379 -118t-246 -310h549
l-26 -140h-566q-12 -74 -14 -110h561l-24 -139h-533q22 -177 143 -278t320 -101z" />
    <glyph glyph-name="uni20B9" unicode="&#x20b9;" horiz-adv-x="1302" 
d="M1362 1516l-25 -140h-362q131 -106 131 -286v-7h168l-25 -137h-162q-32 -128 -118.5 -227.5t-212.5 -155.5l272 -563h-250l-235 510q-20 -2 -62 -2h-372l32 180h340q134 0 235.5 70.5t141.5 187.5h-674l27 137h672v7q0 115 -70 180t-195 65h-364l10 56l23 125h1075z" />
    <glyph glyph-name="uni20BD" unicode="&#x20bd;" horiz-adv-x="1355" 
d="M768 627h-324l-18 -111h492l-25 -139h-492l-67 -377h-219l67 377h-112l24 139h113l18 111h-110l24 139h111l133 750h535q204 0 324 -100.5t120 -268.5q0 -152 -79 -271.5t-214.5 -184t-300.5 -64.5zM872 1335h-303l-92 -528h289q160 0 266.5 87.5t106.5 229.5
q0 97 -71 154t-196 57z" />
    <glyph glyph-name="trademark" unicode="&#x2122;" horiz-adv-x="1484" 
d="M713 1499h-185l-86 -487h-118l86 487h-185l19 98h485zM1343 1597h125l-61 -585h-119l49 418l-258 -418h-57l-113 426l-100 -426h-119l146 585h122l117 -430z" />
    <glyph glyph-name="oneeighth" unicode="&#x215b;" horiz-adv-x="1732" 
d="M1286 1536l109 -70l-1131 -1486l-108 71zM399 1335l-221 -143l-55 100l340 224h108l-159 -910h-142zM1475 469q57 -26 87.5 -73t30.5 -109q0 -132 -101 -215.5t-247 -83.5q-127 0 -200.5 60.5t-73.5 160.5q0 95 53.5 164t144.5 102q-98 54 -98 166q0 124 93.5 202.5
t230.5 78.5q115 0 181 -56.5t66 -150.5q0 -86 -45 -149t-122 -97zM1382 805q-72 0 -121 -50.5t-49 -119.5q0 -49 31.5 -77t85.5 -28q73 0 121.5 49t48.5 119q0 48 -32 77.5t-85 29.5zM1255 104q84 0 140.5 55t56.5 134q0 55 -37.5 88t-101.5 33q-84 0 -140.5 -55.5
t-56.5 -133.5q0 -56 37.5 -88.5t101.5 -32.5z" />
    <glyph glyph-name="threeeighths" unicode="&#x215c;" horiz-adv-x="1908" 
d="M1462 1536l109 -70l-1131 -1486l-108 71zM698 924q0 -148 -108.5 -239t-272.5 -91q-85 0 -154.5 26.5t-105.5 71.5l68 99q57 -80 199 -80q97 0 164 55t67 139q0 62 -45 97.5t-123 35.5q-70 0 -135 -30l-29 71l338 320h-340l19 117h530l-16 -89l-312 -280h4
q117 0 184.5 -61t67.5 -162zM1651 469q57 -26 87.5 -73t30.5 -109q0 -132 -101 -215.5t-247 -83.5q-127 0 -200.5 60.5t-73.5 160.5q0 95 54 163.5t145 102.5q-99 55 -99 166q0 124 93.5 202.5t230.5 78.5q115 0 181.5 -56.5t66.5 -150.5q0 -86 -45.5 -149t-122.5 -97z
M1559 805q-72 0 -121 -50.5t-49 -119.5q0 -49 31 -77t85 -28q73 0 121.5 49t48.5 119q0 48 -31.5 77.5t-84.5 29.5zM1432 104q84 0 140 55t56 134q0 55 -37.5 88t-101.5 33q-84 0 -140.5 -55.5t-56.5 -133.5q0 -56 38 -88.5t102 -32.5z" />
    <glyph glyph-name="fiveeighths" unicode="&#x215d;" horiz-adv-x="1921" 
d="M1475 1536l108 -70l-1130 -1486l-109 71zM715 946q0 -154 -117 -253t-285 -99q-179 0 -262 86l55 96q68 -65 205 -65q107 0 182.5 61t75.5 152q0 60 -39 95.5t-106 35.5q-86 0 -154 -45l-96 18l150 488h452l-20 -117h-330l-82 -244q52 16 117 16q117 0 185.5 -61
t68.5 -164zM1663 469q57 -26 88 -73.5t31 -108.5q0 -132 -101 -215.5t-247 -83.5q-127 0 -201 60.5t-74 160.5q0 95 54 163.5t145 102.5q-98 54 -98 166q0 124 93 202.5t230 78.5q115 0 181.5 -56.5t66.5 -150.5q0 -86 -45.5 -149t-122.5 -97zM1571 805q-72 0 -121 -50.5
t-49 -119.5q0 -49 31.5 -77t85.5 -28q73 0 121.5 49t48.5 119q0 48 -32 77.5t-85 29.5zM1444 104q84 0 140 55t56 134q0 55 -37.5 88t-101.5 33q-84 0 -140 -55.5t-56 -133.5q0 -56 37.5 -88.5t101.5 -32.5z" />
    <glyph glyph-name="seveneighths" unicode="&#x215e;" horiz-adv-x="1792" 
d="M1346 1536l108 -70l-1130 -1486l-109 71zM305 606h-151l417 793h-411l20 117h600zM1534 469q57 -26 88 -73.5t31 -108.5q0 -132 -101 -215.5t-247 -83.5q-127 0 -201 60.5t-74 160.5q0 95 54 163.5t145 102.5q-99 55 -99 166q0 124 93.5 202.5t230.5 78.5
q115 0 181.5 -56.5t66.5 -150.5q0 -86 -45.5 -149t-122.5 -97zM1442 805q-72 0 -121 -50.5t-49 -119.5q0 -49 31.5 -77t85.5 -28q73 0 121.5 49t48.5 119q0 48 -32 77.5t-85 29.5zM1315 104q84 0 140 55t56 134q0 55 -37.5 88t-101.5 33q-84 0 -140 -55.5t-56 -133.5
q0 -56 37.5 -88.5t101.5 -32.5z" />
    <glyph glyph-name="partialdiff" unicode="&#x2202;" horiz-adv-x="1349" 
d="M784 1536q237 0 372.5 -157t135.5 -425q0 -129 -27 -252.5t-77.5 -231t-125 -198t-166 -155.5t-204.5 -101t-237 -36q-203 0 -323 94.5t-120 253.5q0 115 61 210.5t163 160.5t239.5 111t285.5 68.5t306 26.5q2 16 2 49q0 186 -79 294t-220 108q-120 0 -226 -58t-186 -153
l-122 153q241 238 548 238zM459 160q110 0 207.5 45t170.5 122.5t125.5 178.5t79.5 217q-148 -3 -288 -28t-260 -71t-192.5 -121.5t-72.5 -170.5q0 -79 62 -125.5t168 -46.5z" />
    <glyph glyph-name="emptyset" unicode="&#x2205;" horiz-adv-x="1380" 
d="M1317 1214l-121 -112q84 -113 84 -279q0 -188 -85.5 -343t-238.5 -244t-342 -89q-206 0 -333 105l-113 -105l-80 68l119 111q-84 120 -84 282q0 188 86 342.5t239.5 243t342.5 88.5q208 0 333 -104l113 104zM338 633q0 -82 33 -156l600 557q-81 68 -207 68
q-122 0 -221 -66t-152 -173t-53 -230zM1065 799q0 84 -31 151l-600 -555q79 -67 207 -67q120 0 218.5 66.5t152 174t53.5 230.5z" />
    <glyph glyph-name="product" unicode="&#x220f;" horiz-adv-x="1495" 
d="M1473 1597l-361 -2048h-219l330 1868h-676l-330 -1868h-219l362 2048h1113z" />
    <glyph glyph-name="summation" unicode="&#x2211;" horiz-adv-x="1320" 
d="M-121 -451l21 138l800 893l-462 880l22 137h1126l-30 -180h-854l444 -837l-762 -850h895l-32 -181h-1168z" />
    <glyph glyph-name="minus" unicode="&#x2212;" horiz-adv-x="1212" 
d="M139 627l31 174h924l-31 -174h-924z" />
    <glyph glyph-name="radical" unicode="&#x221a;" horiz-adv-x="1585" 
d="M283 -451l-283 1094h227l199 -854l1081 1808h234l-1247 -2048h-211z" />
    <glyph glyph-name="infinity" unicode="&#x221e;" horiz-adv-x="1478" 
d="M1065 915q138 0 218.5 -77t80.5 -205q0 -174 -112.5 -290t-286.5 -116q-96 0 -165 42t-100 116q-52 -74 -132 -116t-177 -42q-139 0 -220 77.5t-81 205.5q0 174 113 289.5t286 115.5q98 0 167 -42t98 -117q52 74 133 116.5t178 42.5zM420 365q97 0 162 76.5t65 176.5
q0 75 -41 117.5t-114 42.5q-99 0 -165.5 -76t-66.5 -178q0 -74 42 -116.5t118 -42.5zM965 365q98 0 162.5 76t64.5 177q0 75 -41.5 117.5t-114.5 42.5q-99 0 -164 -75.5t-65 -178.5q0 -74 41.5 -116.5t116.5 -42.5z" />
    <glyph glyph-name="integral" unicode="&#x222b;" horiz-adv-x="929" 
d="M61 -471q-78 0 -139.5 26.5t-97.5 73.5l74 133q53 -53 137 -53q72 0 122 44t62 114l260 1468q23 131 122 207t245 76q158 0 235 -100l-71 -134q-54 54 -140 54q-72 0 -122 -44t-62 -114l-258 -1468q-23 -131 -122 -207t-245 -76z" />
    <glyph glyph-name="approxequal" unicode="&#x2248;" horiz-adv-x="1198" 
d="M811 668q-53 0 -108 21t-93 45.5t-86.5 45.5t-89.5 21q-65 0 -108.5 -29.5t-53.5 -83.5h-120q20 117 104.5 191.5t194.5 74.5q54 0 109 -20.5t93 -45t86 -45t90 -20.5q64 0 107 28t53 83h121q-20 -120 -103.5 -193t-195.5 -73zM739 258q-53 0 -108 21t-93.5 45.5
t-87 45.5t-90.5 21q-65 0 -107.5 -29t-51.5 -83h-121q19 117 102.5 191.5t194.5 74.5q55 0 110.5 -20.5t93.5 -45t86 -45t91 -20.5q64 0 106 27.5t51 82.5h123q-22 -120 -105 -193t-194 -73z" />
    <glyph glyph-name="notequal" unicode="&#x2260;" horiz-adv-x="1214" 
d="M1106 858h-313l-131 -289h393l-31 -174h-440l-105 -235h-215l107 235h-269l29 174h318l129 289h-396l31 174h442l107 236h213l-105 -236h267z" />
    <glyph glyph-name="lessequal" unicode="&#x2264;" horiz-adv-x="1202" 
d="M1008 395l-840 387l22 133l977 385l-34 -196l-670 -256l579 -256zM49 115l31 172h907l-29 -172h-909z" />
    <glyph glyph-name="greaterequal" unicode="&#x2265;" horiz-adv-x="1193" 
d="M106 395l37 197l662 258l-574 254l35 196l842 -385l-25 -133zM59 115l31 172h907l-30 -172h-908z" />
    <glyph glyph-name="lozenge" unicode="&#x25ca;" horiz-adv-x="1202" 
d="M393 0l-311 649l534 649h191l313 -649l-536 -649h-191zM520 188l385 461l-223 461l-381 -461z" />
    <glyph glyph-name="i.loclTRK" horiz-adv-x="522" 
d="M393 1321q-54 0 -86.5 33t-32.5 86q0 60 40.5 101.5t101.5 41.5q52 0 85.5 -33.5t33.5 -85.5q0 -60 -40.5 -101.5t-101.5 -41.5zM43 0l195 1094h208l-194 -1094h-209z" />
    <glyph glyph-name="zero.lf" horiz-adv-x="1298" 
d="M557 -20q-211 0 -331 153t-120 416q0 146 32 290t93.5 269t145.5 221t195 151.5t233 55.5q211 0 329.5 -153t118.5 -416q0 -184 -50.5 -360.5t-139 -316t-221.5 -225t-285 -85.5zM575 160q82 0 155.5 50t127 133t93.5 188t59.5 217.5t19.5 218.5q0 181 -64.5 285
t-181.5 104q-102 0 -190 -76t-145 -195t-89 -259.5t-32 -274.5q0 -182 65 -286.5t182 -104.5z" />
    <glyph glyph-name="one.lf" horiz-adv-x="870" 
d="M348 0l219 1233l-383 -244l-84 158l566 369h168l-269 -1516h-217z" />
    <glyph glyph-name="two.lf" horiz-adv-x="1177" 
d="M-25 0l25 137l573 518q2 2 42 38.5t48.5 44.5t46 43.5t49.5 50t43 49.5t43 55.5t33 54t29 59.5t15.5 57.5t7.5 61.5q0 87 -57 137t-158 50q-118 0 -204 -77t-108 -198l-215 35q35 192 183 306t360 114q195 0 308.5 -91.5t113.5 -246.5q0 -77 -28 -156.5t-69.5 -144.5
t-109.5 -139t-126 -127t-140 -123l-383 -330l702 2l-32 -180h-992z" />
    <glyph glyph-name="three.lf" horiz-adv-x="1169" 
d="M1163 1516l-24 -138l-537 -483h21q195 0 308 -101t113 -270q0 -161 -83.5 -286t-226.5 -191.5t-320 -66.5q-142 0 -255.5 44t-172.5 121l102 150q97 -135 334 -135q167 0 282 95.5t115 240.5q0 108 -77.5 169.5t-213.5 61.5q-117 0 -223 -53l-47 114l584 547h-586l31 181
h876z" />
    <glyph glyph-name="four.lf" horiz-adv-x="1280" 
d="M659 0l56 311h-727l26 154l957 1051h174l-180 -1024h221l-31 -181h-223l-55 -311h-218zM272 487h482l123 682z" />
    <glyph glyph-name="five.lf" horiz-adv-x="1187" 
d="M406 -20q-291 0 -431 143l84 149q115 -112 349 -112q183 0 309.5 104.5t126.5 261.5q0 106 -67.5 167t-186.5 61q-136 0 -260 -72l-150 27l248 807h748l-33 -181h-555l-148 -428q113 29 211 29q192 0 306 -102t114 -273q0 -168 -90 -302t-241.5 -206.5t-333.5 -72.5z" />
    <glyph glyph-name="six.lf" horiz-adv-x="1175" 
d="M690 922q175 0 284 -101t109 -270q0 -159 -80 -290.5t-218 -206t-304 -74.5q-201 0 -317.5 103t-116.5 277q0 249 217 494l574 662h245l-546 -611q77 17 153 17zM512 160q149 0 245.5 107t96.5 257q0 105 -64 167.5t-174 62.5q-147 0 -244.5 -106.5t-97.5 -256.5
q0 -106 64 -168.5t174 -62.5z" />
    <glyph glyph-name="seven.lf" horiz-adv-x="1067" 
d="M188 1516h992l-795 -1516h-235l710 1335h-704z" />
    <glyph glyph-name="eight.lf" horiz-adv-x="1234" 
d="M889 782q97 -43 149 -122t52 -183q0 -147 -78 -261.5t-209 -175t-291 -60.5q-208 0 -329.5 98.5t-121.5 265.5q0 160 91 276.5t245 172.5q-80 42 -124 113t-44 163q0 137 72.5 244.5t194 165t268.5 57.5q190 0 301 -93t111 -249q0 -145 -77.5 -251.5t-209.5 -160.5z
M741 1356q-124 0 -207 -87t-83 -206q0 -88 55 -138.5t153 -50.5q124 0 207.5 86.5t83.5 204.5q0 89 -55 140t-154 51zM532 160q142 0 239 94t97 227q0 99 -64 156t-179 57q-141 0 -239.5 -95t-98.5 -228q0 -98 65.5 -154.5t179.5 -56.5z" />
    <glyph glyph-name="nine.lf" horiz-adv-x="1175" 
d="M733 1536q203 0 319.5 -103.5t116.5 -277.5q0 -250 -219 -493l-573 -662h-246l549 612q-70 -18 -156 -18q-175 0 -284 101t-109 270q0 159 80 290.5t218 206t304 74.5zM360 991q0 -105 64 -167t174 -62q148 0 245 106t97 258q0 105 -63.5 167.5t-174.5 62.5
q-149 0 -245.5 -107.5t-96.5 -257.5z" />
    <glyph glyph-name="zero.osf" horiz-adv-x="1384" 
d="M600 -20q-235 0 -370.5 141.5t-135.5 382.5q0 167 54.5 317.5t149 259.5t228.5 173.5t285 64.5q234 0 369 -141.5t135 -380.5q0 -224 -92 -411t-256.5 -296.5t-366.5 -109.5zM623 160q133 0 242 88.5t168 229t59 298.5q0 168 -81 265.5t-223 97.5q-100 0 -189 -51.5
t-150.5 -137t-97.5 -197.5t-36 -231q0 -168 82 -265t226 -97z" />
    <glyph glyph-name="one.osf" horiz-adv-x="784" 
d="M272 0l181 1020l-279 -180l-86 153l463 305h160l-230 -1298h-209z" />
    <glyph glyph-name="two.osf" horiz-adv-x="1198" 
d="M-10 0l24 137l570 402q56 38 92 64.5t86.5 70.5t80 82t51 88t21.5 100q0 90 -61 142.5t-166 52.5q-121 0 -209 -74.5t-108 -192.5l-205 35q34 189 181 300.5t360 111.5q194 0 306.5 -92.5t112.5 -247.5q0 -74 -24.5 -143t-61.5 -122t-98 -110t-115 -97t-131 -91
l-362 -242h678l-31 -174h-991z" />
    <glyph glyph-name="three.osf" horiz-adv-x="1179" 
d="M1137 1298l-25 -137l-537 -477h23q191 0 301.5 -100t110.5 -267q0 -162 -82.5 -286.5t-223 -190t-315.5 -65.5q-146 0 -259 45t-169 123l102 145q45 -66 128.5 -99.5t191.5 -33.5q173 0 293.5 96t120.5 240q0 106 -80.5 166.5t-218.5 60.5q-109 0 -219 -55l-48 112
l592 551h-594l31 172h877z" />
    <glyph glyph-name="four.osf" horiz-adv-x="1277" 
d="M639 -225l39 225h-737l24 139l983 1159h168l-198 -1124h221l-31 -174h-221l-39 -225h-209zM221 168h494l133 743z" />
    <glyph glyph-name="five.osf" horiz-adv-x="1187" 
d="M369 -225q-295 0 -430 141l84 150q111 -111 348 -111q183 0 309.5 103.5t126.5 258.5q0 105 -67 165.5t-185 60.5q-129 0 -266 -72l-146 27l244 800h748l-31 -172h-567l-144 -432q116 29 219 29q188 0 300 -100.5t112 -268.5q0 -167 -88 -300.5t-237.5 -206t-329.5 -72.5
z" />
    <glyph glyph-name="six.osf" horiz-adv-x="1167" 
d="M684 922q178 0 281.5 -98.5t103.5 -264.5q0 -163 -78 -295.5t-214.5 -208t-303.5 -75.5q-197 0 -311.5 102t-114.5 274q0 127 55.5 250.5t151.5 229.5l590 680h237l-549 -613q74 19 152 19zM506 160q149 0 245.5 107t96.5 257q0 105 -64 167.5t-174 62.5
q-148 0 -245 -106t-97 -257q0 -107 63 -169t175 -62z" />
    <glyph glyph-name="seven.osf" horiz-adv-x="1118" 
d="M180 1298h994l-795 -1517l-197 53l676 1292h-708z" />
    <glyph glyph-name="eight.osf" horiz-adv-x="1218" 
d="M877 782q95 -43 146.5 -122t51.5 -183q0 -144 -77 -258.5t-207 -176.5t-287 -62q-205 0 -324 99t-119 265q0 157 91 275t243 174q-79 42 -121.5 112.5t-42.5 161.5q0 136 70.5 244t190 166.5t264.5 58.5q187 0 295 -92t108 -248q0 -143 -75.5 -251t-206.5 -163zM735 1356
q-125 0 -209 -87t-84 -208q0 -87 55.5 -137t151.5 -50q125 0 209 86t84 207q0 87 -55.5 138t-151.5 51zM524 160q144 0 241 93.5t97 227.5q0 99 -65 156t-179 57q-143 0 -240 -94t-97 -229q0 -98 64.5 -154.5t178.5 -56.5z" />
    <glyph glyph-name="nine.osf" horiz-adv-x="1163" 
d="M692 1319q196 0 312 -102t116 -273q0 -125 -56 -250t-151 -233l-594 -680l-188 53l504 561q-73 -18 -154 -18q-179 0 -282 97.5t-103 264.5q0 122 46 229.5t125 184.5t189.5 121.5t235.5 44.5zM317 778q0 -108 63 -171.5t175 -63.5q149 0 244.5 108t95.5 258
q0 105 -63 166.5t-173 61.5q-150 0 -246 -104t-96 -255z" />
    <glyph glyph-name="zero.tf" 
d="M526 -20q-189 0 -296 147t-107 401q0 175 46 352.5t127.5 324t207.5 239t272 92.5q189 0 295.5 -147.5t106.5 -401.5q0 -139 -28 -281.5t-84.5 -272.5t-133 -231t-182.5 -161.5t-224 -60.5zM549 160q90 0 169 84.5t129.5 213t79.5 272.5t29 271q0 166 -52.5 260.5
t-149.5 94.5q-91 0 -170.5 -84t-130.5 -212t-80 -272t-29 -272q0 -168 53 -262t152 -94z" />
    <glyph glyph-name="one.tf" 
d="M766 180h293l-33 -180h-950l33 180h440l186 1053l-381 -244l-86 158l566 369h167z" />
    <glyph glyph-name="two.tf" 
d="M16 0l25 137l573 518q7 6 43 38.5t48 44t46.5 44.5t49 49.5l43.5 49.5t43 55t33.5 54.5t29 59t16.5 58t7 61.5q0 86 -58 136.5t-159 50.5q-118 0 -204 -77t-106 -198l-217 35q35 192 183.5 306t359.5 114q195 0 308.5 -91.5t113.5 -246.5q0 -77 -28.5 -156.5t-69.5 -144
t-109.5 -139t-125 -127t-140.5 -123.5l-383 -330l702 2l-32 -180h-992z" />
    <glyph glyph-name="three.tf" 
d="M1208 1516l-24 -138l-539 -483h25q194 0 307 -101.5t113 -269.5q0 -161 -84 -286t-227 -191.5t-320 -66.5q-142 0 -255.5 44t-172.5 121l102 150q97 -135 336 -135q167 0 282 95.5t115 240.5q0 107 -78.5 169t-214.5 62q-117 0 -223 -53l-47 114l584 547h-586l33 181h874
z" />
    <glyph glyph-name="four.tf" 
d="M635 0l53 311h-694l29 154l921 1051h176l-182 -1024h221l-31 -181h-221l-55 -311h-217zM266 487h461l123 674z" />
    <glyph glyph-name="five.tf" 
d="M442 -20q-293 0 -430 143l84 149q118 -112 346 -112q183 0 311 104.5t128 261.5q0 106 -68 167t-188 61q-136 0 -260 -72l-148 27l246 807h747l-32 -181h-555l-146 -428q113 29 209 29q192 0 307 -102.5t115 -272.5q0 -168 -91 -302t-242.5 -206.5t-332.5 -72.5z" />
    <glyph glyph-name="six.tf" 
d="M733 922q175 0 285 -101.5t110 -269.5q0 -159 -80 -290.5t-218.5 -206t-305.5 -74.5q-201 0 -317.5 103t-116.5 277q0 249 217 494l574 662h245l-542 -607q73 13 149 13zM555 160q149 0 245.5 107t96.5 257q0 105 -63.5 167.5t-171.5 62.5q-148 0 -246.5 -106.5
t-98.5 -256.5q0 -106 64 -168.5t174 -62.5z" />
    <glyph glyph-name="seven.tf" 
d="M283 1516h993l-797 -1516h-233l708 1335h-704z" />
    <glyph glyph-name="eight.tf" 
d="M903 782q97 -43 149 -122t52 -183q0 -147 -78.5 -261.5t-209.5 -175t-290 -60.5q-208 0 -329 98.5t-121 265.5q0 160 91 276.5t245 172.5q-80 42 -124 113t-44 163q0 137 72 244.5t193 165t267 57.5q191 0 302.5 -93t111.5 -249q0 -145 -77.5 -251.5t-209.5 -160.5z
M756 1356q-124 0 -208.5 -87t-84.5 -206q0 -88 56 -138.5t153 -50.5q125 0 209 86.5t84 204.5q0 88 -55.5 139.5t-153.5 51.5zM547 160q142 0 239 94t97 227q0 99 -65 156t-179 57q-143 0 -240.5 -95t-97.5 -228q0 -98 66 -154.5t180 -56.5z" />
    <glyph glyph-name="nine.tf" 
d="M776 1536q201 0 317.5 -103.5t116.5 -277.5q0 -248 -217 -493l-573 -662h-246l543 606q-67 -12 -150 -12q-175 0 -285 101.5t-110 269.5q0 159 80 290.5t218.5 206t305.5 74.5zM403 991q0 -105 64 -167t172 -62q148 0 246 106t98 256q0 106 -64 169t-174 63
q-149 0 -245.5 -107.5t-96.5 -257.5z" />
    <glyph glyph-name="zero.tosf" 
d="M526 -20q-194 0 -304.5 134t-110.5 363q0 104 20 207.5t56.5 197t92 173.5t123.5 138.5t154 92t180 33.5q192 0 302 -135t110 -365q0 -156 -44.5 -306t-123.5 -268.5t-198 -191.5t-257 -73zM549 160q85 0 158.5 63t121 160.5t74.5 212t27 221.5q0 151 -55.5 236.5
t-157.5 85.5q-85 0 -159.5 -62t-122.5 -159.5t-75.5 -211.5t-27.5 -223q0 -152 56 -237.5t161 -85.5z" />
    <glyph glyph-name="one.tosf" 
d="M713 174h340l-31 -174h-950l30 174h402l149 846l-278 -180l-86 153l463 305h159z" />
    <glyph glyph-name="two.tosf" 
d="M20 0l25 137l571 402q57 39 91.5 64.5t85.5 70t80 82.5t51 88t22 100q0 90 -60.5 142.5t-166.5 52.5q-121 0 -208.5 -74.5t-107.5 -192.5l-206 35q34 189 180.5 300.5t359.5 111.5q194 0 307 -92.5t113 -247.5q0 -74 -24.5 -142.5t-61.5 -122.5t-97.5 -110t-115 -96.5
t-131.5 -91.5l-362 -242h677l-30 -174h-992z" />
    <glyph glyph-name="three.tosf" 
d="M1176 1298l-25 -137l-537 -477h23q191 0 301.5 -100t110.5 -267q0 -162 -82.5 -286.5t-222.5 -190t-314 -65.5q-147 0 -260.5 45t-169.5 123l102 145q45 -66 128.5 -99.5t191.5 -33.5q173 0 293.5 96t120.5 240q0 106 -80 166.5t-219 60.5q-110 0 -220 -55l-45 112
l592 551h-596l31 172h877z" />
    <glyph glyph-name="four.tosf" 
d="M612 -225l39 225h-702l24 139l949 1159h168l-199 -1124h221l-31 -174h-221l-39 -225h-209zM225 168h463l137 739z" />
    <glyph glyph-name="five.tosf" 
d="M406 -225q-296 0 -431 141l82 150q122 -111 351 -111q182 0 309 103.5t127 258.5q0 105 -67 165.5t-185 60.5q-133 0 -266 -72l-148 27l246 800h747l-30 -172h-568l-145 -432q110 29 221 29q188 0 300 -100.5t112 -268.5q0 -167 -88.5 -300.5t-238 -206t-328.5 -72.5z
" />
    <glyph glyph-name="six.tosf" 
d="M731 922q179 0 282 -98t103 -265q0 -162 -78 -295t-214 -208.5t-302 -75.5q-199 0 -313.5 101.5t-114.5 274.5q0 127 55.5 250.5t151.5 229.5l590 680h237l-544 -607q76 13 147 13zM553 160q149 0 245.5 107t96.5 257q0 105 -64 167.5t-174 62.5q-148 0 -245 -106
t-97 -257q0 -107 63 -169t175 -62z" />
    <glyph glyph-name="seven.tosf" 
d="M250 1298h993l-794 -1517l-195 53l676 1292h-709z" />
    <glyph glyph-name="eight.tosf" 
d="M897 782q95 -43 147 -122t52 -183q0 -144 -77 -258.5t-207.5 -176.5t-287.5 -62q-203 0 -322.5 99t-119.5 265q0 157 91 275t243 174q-79 42 -121.5 112.5t-42.5 161.5q0 136 70 244t189.5 166.5t264.5 58.5q187 0 296.5 -92t109.5 -248q0 -143 -77 -250.5t-208 -163.5z
M756 1356q-125 0 -209 -87t-84 -208q0 -87 55.5 -137t151.5 -50q125 0 209 86t84 207q0 87 -55.5 138t-151.5 51zM545 160q145 0 241.5 93t96.5 228q0 99 -65 156t-179 57q-144 0 -241 -94t-97 -229q0 -98 65 -154.5t179 -56.5z" />
    <glyph glyph-name="nine.tosf" 
d="M739 1319q196 0 312 -102t116 -273q0 -126 -55.5 -250.5t-150.5 -232.5l-594 -680l-189 53l504 561q-74 -18 -154 -18q-179 0 -282 97.5t-103 264.5q0 122 46 229.5t125 184.5t189.5 121.5t235.5 44.5zM365 778q0 -108 63 -171.5t174 -63.5q149 0 245.5 108t96.5 258
q0 105 -63.5 166.5t-173.5 61.5q-150 0 -246 -104t-96 -255z" />
    <glyph glyph-name="zero.dnom" horiz-adv-x="796" 
d="M301 -12q-127 0 -199.5 93t-72.5 251q0 148 52 282t150.5 221t219.5 87q128 0 200 -92t72 -250q0 -149 -51.5 -283.5t-150 -221.5t-220.5 -87zM319 104q76 0 137.5 76t92.5 182.5t31 212.5q0 107 -38 168.5t-108 61.5q-76 0 -138 -75.5t-93 -182t-31 -213.5t38 -168.5
t109 -61.5z" />
    <glyph glyph-name="one.dnom" horiz-adv-x="542" 
d="M164 0l129 729l-221 -143l-56 100l340 223h109l-160 -909h-141z" />
    <glyph glyph-name="two.dnom" horiz-adv-x="731" 
d="M-51 0l16 88l344 311q50 44 74 67.5t61.5 66.5t54.5 83.5t17 81.5q0 50 -32.5 78.5t-90.5 28.5q-67 0 -116 -44.5t-60 -113.5l-141 21q22 117 111.5 185.5t218.5 68.5q117 0 186.5 -55t69.5 -150q0 -57 -22.5 -113t-67.5 -110t-87.5 -95t-105.5 -94l-223 -190l413 2
l-20 -117h-600z" />
    <glyph glyph-name="three.dnom" horiz-adv-x="718" 
d="M664 909l-17 -88l-311 -280h4q117 0 184.5 -61.5t67.5 -162.5q0 -148 -108.5 -238.5t-272.5 -90.5q-85 0 -154.5 26.5t-105.5 71.5l67 98q57 -80 199 -80q97 0 164.5 55.5t67.5 139.5q0 62 -45 97.5t-123 35.5q-69 0 -136 -31l-28 72l338 320h-340l18 116h531z" />
    <glyph glyph-name="four.dnom" horiz-adv-x="788" 
d="M352 0l33 184h-434l18 99l572 626h112l-106 -606h131l-21 -119h-131l-32 -184h-142zM133 297h277l65 375z" />
    <glyph glyph-name="five.dnom" horiz-adv-x="731" 
d="M207 -12q-179 0 -262 86l55 96q69 -66 205 -66q107 0 182.5 61t75.5 152q0 60 -39.5 96t-106.5 36q-83 0 -153 -46l-96 19l149 487h453l-21 -116h-330l-81 -244q52 16 116 16q117 0 185.5 -61t68.5 -164q0 -154 -116.5 -253t-284.5 -99z" />
    <glyph glyph-name="six.dnom" horiz-adv-x="729" 
d="M385 555q104 0 170 -61.5t66 -163.5q0 -146 -105.5 -244t-259.5 -98q-124 0 -194 61.5t-70 167.5q0 152 137 303l336 389h160l-324 -360q37 6 84 6zM276 104q85 0 141 62.5t56 146.5q0 62 -36 97.5t-99 35.5q-86 0 -142.5 -60.5t-56.5 -149.5q0 -61 36.5 -96.5
t100.5 -35.5z" />
    <glyph glyph-name="seven.dnom" horiz-adv-x="653" 
d="M74 909h600l-475 -909h-152l418 793h-412z" />
    <glyph glyph-name="eight.dnom" horiz-adv-x="761" 
d="M504 469q57 -26 88 -73.5t31 -108.5q0 -132 -101.5 -215.5t-247.5 -83.5q-127 0 -200.5 60.5t-73.5 160.5q0 95 54 163.5t145 102.5q-99 55 -99 166q0 124 93.5 202.5t230.5 78.5q115 0 181.5 -56.5t66.5 -150.5q0 -86 -45.5 -149t-122.5 -97zM412 805q-72 0 -121 -50.5
t-49 -119.5q0 -49 31 -77t85 -28q73 0 121.5 49t48.5 119q0 48 -31.5 77.5t-84.5 29.5zM285 104q84 0 140 55t56 134q0 55 -37.5 88t-101.5 33q-84 0 -140.5 -55.5t-56.5 -133.5q0 -56 38 -88.5t102 -32.5z" />
    <glyph glyph-name="nine.dnom" horiz-adv-x="729" 
d="M412 922q124 0 194 -62t70 -168q0 -152 -137 -303l-336 -389h-160l324 360q-37 -6 -84 -6q-104 0 -170 62t-66 164q0 146 105.5 244t259.5 98zM195 596q0 -62 36 -97.5t99 -35.5q85 0 141.5 61t56.5 150q0 60 -36.5 95.5t-100.5 35.5q-85 0 -140.5 -62t-55.5 -147z" />
    <glyph glyph-name="zero.numr" horiz-adv-x="796" 
d="M408 594q-127 0 -200 93t-73 251q0 148 52 282t150.5 221t219.5 87q128 0 200 -92t72 -250q0 -111 -30.5 -217t-84 -189.5t-134 -134.5t-172.5 -51zM426 711q76 0 137.5 76t92 182.5t30.5 212.5q0 107 -37.5 168t-107.5 61q-76 0 -138 -75.5t-93 -182t-31 -213.5t38 -168
t109 -61z" />
    <glyph glyph-name="one.numr" horiz-adv-x="542" 
d="M270 606l129 729l-221 -143l-55 100l340 224h108l-159 -910h-142z" />
    <glyph glyph-name="two.numr" horiz-adv-x="731" 
d="M55 606l17 88l344 312q50 44 74 67.5t61.5 66.5t54.5 83.5t17 81.5q0 50 -32.5 78t-90.5 28q-67 0 -116 -44.5t-60 -113.5l-142 21q22 117 111.5 185.5t218.5 68.5q117 0 186.5 -55t69.5 -150q0 -57 -22.5 -113t-67.5 -110t-87.5 -95t-105.5 -94l-223 -190l414 2
l-21 -117h-600z" />
    <glyph glyph-name="three.numr" horiz-adv-x="718" 
d="M770 1516l-16 -89l-312 -280h4q117 0 184.5 -61t67.5 -162q0 -148 -108.5 -239t-272.5 -91q-85 0 -154.5 26.5t-105.5 71.5l68 99q57 -80 199 -80q97 0 164 55t67 139q0 62 -45 97.5t-123 35.5q-70 0 -135 -30l-29 71l338 320h-340l19 117h530z" />
    <glyph glyph-name="four.numr" horiz-adv-x="788" 
d="M459 606l33 185h-435l19 98l571 627h113l-107 -607h131l-20 -118h-131l-33 -185h-141zM240 903h276l66 375z" />
    <glyph glyph-name="five.numr" horiz-adv-x="731" 
d="M313 594q-179 0 -262 86l55 96q68 -65 205 -65q107 0 182.5 61t75.5 152q0 60 -39 95.5t-106 35.5q-86 0 -154 -45l-96 18l150 488h452l-20 -117h-330l-82 -244q52 16 117 16q117 0 185.5 -61t68.5 -164q0 -154 -117 -253t-285 -99z" />
    <glyph glyph-name="six.numr" horiz-adv-x="729" 
d="M492 1161q104 0 169.5 -61.5t65.5 -163.5q0 -146 -105.5 -244t-259.5 -98q-124 0 -194 61.5t-70 167.5q0 151 138 303l335 390h160l-323 -361q38 6 84 6zM383 711q85 0 141 62.5t56 146.5q0 62 -36.5 97.5t-99.5 35.5q-85 0 -141.5 -61t-56.5 -150q0 -60 36.5 -95.5
t100.5 -35.5z" />
    <glyph glyph-name="seven.numr" horiz-adv-x="653" 
d="M180 1516h600l-475 -910h-151l417 793h-411z" />
    <glyph glyph-name="eight.numr" horiz-adv-x="761" 
d="M610 1075q57 -26 88 -73.5t31 -108.5q0 -132 -101 -215.5t-247 -83.5q-127 0 -201 60.5t-74 160.5q0 95 54 163.5t145 102.5q-98 54 -98 166q0 124 93 202.5t230 78.5q115 0 181.5 -56.5t66.5 -150.5q0 -86 -45.5 -149t-122.5 -97zM518 1411q-72 0 -121 -50.5t-49 -119.5
q0 -49 31.5 -76.5t85.5 -27.5q73 0 121.5 49t48.5 119q0 48 -31.5 77t-85.5 29zM391 711q84 0 140.5 54.5t56.5 133.5q0 55 -37.5 88t-101.5 33q-84 0 -140.5 -55.5t-56.5 -133.5q0 -56 37.5 -88t101.5 -32z" />
    <glyph glyph-name="nine.numr" horiz-adv-x="729" 
d="M518 1528q124 0 194 -62t70 -168q0 -152 -137 -303l-336 -389h-159l323 361q-37 -6 -84 -6q-104 0 -169.5 61.5t-65.5 163.5q0 146 105 244t259 98zM301 1202q0 -62 36 -97.5t99 -35.5q85 0 142 61t57 150q0 60 -36.5 95.5t-100.5 35.5q-85 0 -141 -62.5t-56 -146.5z" />
    <glyph glyph-name="exclamdown.case" horiz-adv-x="579" 
d="M434 1536q54 0 87.5 -33t33.5 -84q0 -61 -40.5 -102t-102.5 -41q-52 0 -85.5 33t-33.5 84q0 62 40 102.5t101 40.5zM467 1128l-182 -1128h-219l219 1128h182z" />
    <glyph glyph-name="questiondown.case" horiz-adv-x="1097" 
d="M711 1536q54 0 87 -33t33 -84q0 -62 -40 -102.5t-101 -40.5q-54 0 -87.5 33t-33.5 84q0 62 40.5 102.5t101.5 40.5zM563 1137l178 -17q-17 -93 -44.5 -169t-54.5 -125t-68.5 -94.5t-70 -69.5t-75.5 -58q-88 -63 -132 -121t-44 -141q0 -86 58.5 -134t164.5 -48
q114 0 198 65.5t109 171.5l199 -24q-39 -180 -182.5 -286.5t-341.5 -106.5t-314 92t-116 245q0 69 15.5 123.5t49 100.5t73 81.5t101.5 79.5q49 35 76 56.5t69 63t66.5 81t49 101t36.5 133.5z" />
    <glyph glyph-name="slash.case" horiz-adv-x="808" 
d="M-23 0l680 1516h213l-680 -1516h-213z" />
    <glyph glyph-name="braceleft.case" horiz-adv-x="860" 
d="M442 -102q-125 0 -196.5 68.5t-71.5 183.5q0 30 6 65l41 240q8 41 8 80q0 133 -127 133h-20l33 180h16q72 0 126 57.5t71 153.5l41 256q23 141 118 222t232 81q117 0 223 -27l-31 -172q-65 19 -131 19q-81 0 -136.5 -51.5t-70.5 -147.5l-34 -221q-17 -100 -73.5 -170
t-139.5 -92q60 -17 91.5 -70t31.5 -129q0 -27 -7 -78l-36 -219q-5 -40 -5 -49q0 -63 32.5 -98t92.5 -35q84 0 158 18l-31 -174q-102 -24 -211 -24z" />
    <glyph glyph-name="braceright.case" horiz-adv-x="860" 
d="M459 1618q125 0 196.5 -68.5t71.5 -183.5q0 -32 -6 -66l-41 -239q-8 -41 -8 -80q0 -133 127 -133h20l-33 -180h-16q-72 0 -126 -57.5t-71 -153.5l-41 -256q-23 -141 -118 -222t-232 -81q-121 0 -223 26l31 172q62 -18 131 -18q82 0 137 51t70 147l34 222q17 100 73.5 170
t139.5 92q-60 17 -91 69.5t-31 128.5q0 34 6 78l37 219q4 32 4 50q0 63 -32.5 98t-92.5 35q-80 0 -158 -19l31 174q106 25 211 25z" />
    <glyph glyph-name="bracketleft.case" horiz-adv-x="796" 
d="M63 -82l297 1679h525l-31 -180h-309l-234 -1319h310l-33 -180h-525z" />
    <glyph glyph-name="bracketright.case" horiz-adv-x="796" 
d="M774 1597l-297 -1679h-524l31 180h309l233 1319h-309l33 180h524z" />
    <glyph glyph-name="parenleft.case" horiz-adv-x="667" 
d="M285 -82q-179 305 -179 629q0 550 467 1050h199q-193 -215 -320.5 -502.5t-127.5 -557.5q0 -181 45 -348t102 -271h-186z" />
    <glyph glyph-name="parenright.case" horiz-adv-x="667" 
d="M-66 -82q193 217 321 504t128 557q0 180 -44.5 346t-100.5 272h184q178 -299 178 -628q0 -554 -465 -1051h-201z" />
    <glyph glyph-name="logo" horiz-adv-x="2609" 
d="M156 -20q-15 0 -25 10.5t-10 25.5q0 21 10 31l700 698h-663q-47 0 -47 39q0 16 14 33l696 701h-669q-41 0 -41 38v3q0 38 41 38h758q47 0 47 -41q0 -20 -17 -34l-698 -697h676q17 0 29 -12t12 -29v-669l694 692q13 16 35 16q37 0 37 -45v-663l696 692q13 16 33 16
q15 0 25 -12t10 -27q0 -18 -13 -28l-753 -762q-14 -14 -35 -14q-41 0 -41 47v663l-694 -696q-14 -14 -35 -14q-41 0 -41 47v663l-697 -696q-14 -14 -34 -14z" />
    </font>
</defs>
</svg>
